  0
SECTION
  2
HEADER
  9
$ACADVER
  1
AC1015
  9
$ACADMAINTVER
 70
     6
  9
$DWGCODEPAGE
  3
ANSI_932
  9
$INSBASE
 10
0.0
 20
0.0
 30
0.0
  9
$EXTMIN
 10
0.0
 20
0.0
 30
0.0
  9
$EXTMAX
 10
1189.0
 20
841.0
 30
0.0
  9
$LIMMIN
 10
0.0
 20
0.0
  9
$LIMMAX
 10
1189.0
 20
841.0
  9
$ORTHOMODE
 70
     0
  9
$REGENMODE
 70
     1
  9
$FILLMODE
 70
     1
  9
$QTEXTMODE
 70
     0
  9
$MIRRTEXT
 70
     1
  9
$LTSCALE
 40
0.25
  9
$ATTMODE
 70
     1
  9
$TEXTSIZE
 40
5.0
  9
$TRACEWID
 40
0.05
  9
$TEXTSTYLE
  7
Standard
  9
$CLAYER
  8
0
  9
$CELTYPE
  6
ByLayer
  9
$CECOLOR
 62
   256
  9
$CELTSCALE
 40
1.0
  9
$DISPSILH
 70
     0
  9
$DIMSCALE
 40
1.0
  9
$DIMASZ
 40
4.0
  9
$DIMEXO
 40
2.0
  9
$DIMDLI
 40
10.0
  9
$DIMRND
 40
0.0
  9
$DIMDLE
 40
0.0
  9
$DIMEXE
 40
2.0
  9
$DIMTP
 40
0.0
  9
$DIMTM
 40
0.0
  9
$DIMTXT
 40
4.0
  9
$DIMCEN
 40
0.09
  9
$DIMTSZ
 40
0.0
  9
$DIMTOL
 70
     0
  9
$DIMLIM
 70
     0
  9
$DIMTIH
 70
     0
  9
$DIMTOH
 70
     0
  9
$DIMSE1
 70
     0
  9
$DIMSE2
 70
     0
  9
$DIMTAD
 70
     3
  9
$DIMZIN
 70
     8
  9
$DIMBLK
  1

  9
$DIMASO
 70
     1
  9
$DIMSHO
 70
     1
  9
$DIMPOST
  1

  9
$DIMAPOST
  1

  9
$DIMALT
 70
     0
  9
$DIMALTD
 70
     2
  9
$DIMALTF
 40
25.4
  9
$DIMLFAC
 40
1.0
  9
$DIMTOFL
 70
     1
  9
$DIMTVP
 40
0.7
  9
$DIMTIX
 70
     0
  9
$DIMSOXD
 70
     0
  9
$DIMSAH
 70
     0
  9
$DIMBLK1
  1

  9
$DIMBLK2
  1

  9
$DIMSTYLE
  2
Standard
  9
$DIMCLRD
 70
     0
  9
$DIMCLRE
 70
     0
  9
$DIMCLRT
 70
     0
  9
$DIMTFAC
 40
0.5
  9
$DIMGAP
 40
0.09
  9
$DIMJUST
 70
     0
  9
$DIMSD1
 70
     0
  9
$DIMSD2
 70
     0
  9
$DIMTOLJ
 70
     1
  9
$DIMTZIN
 70
     8
  9
$DIMALTZ
 70
     0
  9
$DIMALTTZ
 70
     0
  9
$DIMUPT
 70
     1
  9
$DIMDEC
 70
     2
  9
$DIMTDEC
 70
     4
  9
$DIMALTU
 70
     2
  9
$DIMALTTD
 70
     2
  9
$DIMTXSTY
  7
Standard
  9
$DIMAUNIT
 70
     0
  9
$DIMADEC
 70
     0
  9
$DIMALTRND
 40
0.0
  9
$DIMAZIN
 70
     0
  9
$DIMDSEP
 70
    46
  9
$DIMATFIT
 70
     2
  9
$DIMFRAC
 70
     0
  9
$DIMLDRBLK
  1

  9
$DIMLUNIT
 70
     2
  9
$DIMLWD
 70
    -2
  9
$DIMLWE
 70
    -2
  9
$DIMTMOVE
 70
     2
  9
$LUNITS
 70
     2
  9
$LUPREC
 70
     4
  9
$SKETCHINC
 40
0.1
  9
$FILLETRAD
 40
0.5
  9
$AUNITS
 70
     0
  9
$AUPREC
 70
     0
  9
$MENU
  1
.
  9
$ELEVATION
 40
0.0
  9
$PELEVATION
 40
0.0
  9
$THICKNESS
 40
0.0
  9
$LIMCHECK
 70
     0
  9
$CHAMFERA
 40
0.5
  9
$CHAMFERB
 40
0.5
  9
$CHAMFERC
 40
1.0
  9
$CHAMFERD
 40
0.0
  9
$SKPOLY
 70
     0
  9
$TDCREATE
 40
2455460.058333333
  9
$TDUCREATE
 40
2455459.683333333
  9
$TDUPDATE
 40
2455460.058333333
  9
$TDUUPDATE
 40
2455459.683333333
  9
$TDINDWG
 40
0.0000000116
  9
$TDUSRTIMER
 40
0.0000000116
  9
$USRTIMER
 70
     1
  9
$ANGBASE
 50
0.0
  9
$ANGDIR
 70
     0
  9
$PDMODE
 70
     0
  9
$PDSIZE
 40
0.0
  9
$PLINEWID
 40
0.0
  9
$SPLFRAME
 70
     0
  9
$SPLINETYPE
 70
     6
  9
$SPLINESEGS
 70
     8
  9
$HANDSEED
  5
3EB
  9
$SURFTAB1
 70
     6
  9
$SURFTAB2
 70
     6
  9
$SURFTYPE
 70
     6
  9
$SURFU
 70
     6
  9
$SURFV
 70
     6
  9
$UCSBASE
  2

  9
$UCSNAME
  2

  9
$UCSORG
 10
0.0
 20
0.0
 30
0.0
  9
$UCSXDIR
 10
1.0
 20
0.0
 30
0.0
  9
$UCSYDIR
 10
0.0
 20
1.0
 30
0.0
  9
$UCSORTHOREF
  2

  9
$UCSORTHOVIEW
 70
     0
  9
$UCSORGTOP
 10
0.0
 20
0.0
 30
0.0
  9
$UCSORGBOTTOM
 10
0.0
 20
0.0
 30
0.0
  9
$UCSORGLEFT
 10
0.0
 20
0.0
 30
0.0
  9
$UCSORGRIGHT
 10
0.0
 20
0.0
 30
0.0
  9
$UCSORGFRONT
 10
0.0
 20
0.0
 30
0.0
  9
$UCSORGBACK
 10
0.0
 20
0.0
 30
0.0
  9
$PUCSBASE
  2

  9
$PUCSNAME
  2

  9
$PUCSORG
 10
0.0
 20
0.0
 30
0.0
  9
$PUCSXDIR
 10
1.0
 20
0.0
 30
0.0
  9
$PUCSYDIR
 10
0.0
 20
1.0
 30
0.0
  9
$PUCSORTHOREF
  2

  9
$PUCSORTHOVIEW
 70
     0
  9
$PUCSORGTOP
 10
0.0
 20
0.0
 30
0.0
  9
$PUCSORGBOTTOM
 10
0.0
 20
0.0
 30
0.0
  9
$PUCSORGLEFT
 10
0.0
 20
0.0
 30
0.0
  9
$PUCSORGRIGHT
 10
0.0
 20
0.0
 30
0.0
  9
$PUCSORGFRONT
 10
0.0
 20
0.0
 30
0.0
  9
$PUCSORGBACK
 10
0.0
 20
0.0
 30
0.0
  9
$USERI1
 70
     0
  9
$USERI2
 70
     0
  9
$USERI3
 70
     0
  9
$USERI4
 70
     0
  9
$USERI5
 70
     0
  9
$USERR1
 40
0.0
  9
$USERR2
 40
0.0
  9
$USERR3
 40
0.0
  9
$USERR4
 40
0.0
  9
$USERR5
 40
0.0
  9
$WORLDVIEW
 70
     1
  9
$SHADEDGE
 70
     3
  9
$SHADEDIF
 70
    70
  9
$TILEMODE
 70
     1
  9
$MAXACTVP
 70
    64
  9
$PINSBASE
 10
0.0
 20
0.0
 30
0.0
  9
$PLIMCHECK
 70
     0
  9
$PEXTMIN
 10
0.0
 20
0.0
 30
0.0
  9
$PEXTMAX
 10
1189.0
 20
841.0
 30
0.0
  9
$PLIMMIN
 10
0.0
 20
0.0
  9
$PLIMMAX
 10
1189.0
 20
841.0
  9
$UNITMODE
 70
     0
  9
$VISRETAIN
 70
     1
  9
$PLINEGEN
 70
     0
  9
$PSLTSCALE
 70
     1
  9
$TREEDEPTH
 70
  3020
  9
$CMLSTYLE
  2
Standard
  9
$CMLJUST
 70
     0
  9
$CMLSCALE
 40
1.0
  9
$PROXYGRAPHICS
 70
     1
  9
$MEASUREMENT
 70
     1
  9
$CELWEIGHT
370
    -1
  9
$ENDCAPS
280
     0
  9
$JOINSTYLE
280
     0
  9
$LWDISPLAY
290
     0
  9
$INSUNITS
 70
     4
  9
$HYPERLINKBASE
  1

  9
$STYLESHEET
  1

  9
$XEDIT
290
     1
  9
$CEPSNTYPE
380
     0
  9
$PSTYLEMODE
290
     1
  9
$FINGERPRINTGUID
  2
{A07F2110-4D8F-41CF-8214-5D153BA725D7}
  9
$VERSIONGUID
  2
{FAEB1C32-E019-11D5-929B-00C0DF256EC4}
  9
$EXTNAMES
290
     1
  9
$PSVPSCALE
 40
0.0
  9
$OLESTARTUP
290
     0
  0
ENDSEC
  0
SECTION
  2
CLASSES
  0
CLASS
  1
ACDBDICTIONARYWDFLT
  2
AcDbDictionaryWithDefault
  3
ObjectDBX Classes
 90
        0
280
     0
281
     0
  0
CLASS
  1
DICTIONARYVAR
  2
AcDbDictionaryVar
  3
ObjectDBX Classes
 90
        0
280
     0
281
     0
  0
CLASS
  1
ACDBPLACEHOLDER
  2
AcDbPlaceHolder
  3
ObjectDBX Classes
 90
        0
280
     0
281
     0
  0
CLASS
  1
LAYOUT
  2
AcDbLayout
  3
ObjectDBX Classes
 90
        0
280
     0
281
     0
  0
ENDSEC
  0
SECTION
  2
TABLES
  0
TABLE
  2
VPORT
  5
8
330
0
100
AcDbSymbolTable
 70
     1
  0
VPORT
  5
29
330
8
100
AcDbSymbolTableRecord
100
AcDbViewportTableRecord
  2
*Active
 70
     0
 10
0.0
 20
0.0
 11
1.0
 21
1.0
 12
10.42990654205607
 22
4.5
 13
0.0
 23
0.0
 14
0.5
 24
0.5
 15
0.5
 25
0.5
 16
0.0
 26
0.0
 36
1.0
 17
0.0
 27
0.0
 37
0.0
 40
9.0
 41
1.972972972850329
 42
50.0
 43
0.0
 44
0.0
 50
0.0
 51
0.0
 71
     0
 72
   100
 73
     1
 74
     3
 75
     0
 76
     0
 77
     0
 78
     0
281
     0
 65
     1
110
0.0
120
0.0
130
0.0
111
1.0
121
0.0
131
0.0
112
0.0
122
1.0
132
0.0
 79
     0
146
0.0
  0
ENDTAB
  0
TABLE
  2
LTYPE
  5
5
330
0
100
AcDbSymbolTable
 70
     9
  0
LTYPE
  5
14
330
5
100
AcDbSymbolTableRecord
100
AcDbLinetypeTableRecord
  2
ByBlock
 70
     0
  3

 72
    65
 73
     0
 40
0.0
  0
LTYPE
  5
15
330
5
100
AcDbSymbolTableRecord
100
AcDbLinetypeTableRecord
  2
ByLayer
 70
     0
  3

 72
    65
 73
     0
 40
0.0
  0
LTYPE
  5
16
330
5
100
AcDbSymbolTableRecord
100
AcDbLinetypeTableRecord
  2
Continuous
 70
     0
  3
Solid line
 72
    65
 73
     0
 40
0.0
  0
LTYPE
  5
68
330
5
100
AcDbSymbolTableRecord
100
AcDbLinetypeTableRecord
  2
DOT
 70
     0
  3
DOT
 72
    65
 73
     2
 40
4.0
 49
6.0
 74
     0
 49
-2.0
 74
     0
  0
LTYPE
  5
69
330
5
100
AcDbSymbolTableRecord
100
AcDbLinetypeTableRecord
  2
HIDDEN
 70
     0
  3
HIDDEN
 72
    65
 73
     2
 40
4.2
 49
8.4
 74
     0
 49
-4.2
 74
     0
  0
LTYPE
  5
6A
330
5
100
AcDbSymbolTableRecord
100
AcDbLinetypeTableRecord
  2
DASHDOT
 70
     0
  3
DASHDOT
 72
    65
 73
     4
 40
14.5
 49
30.0
 74
     0
 49
-9.0
 74
     0
 49
2.5
 74
     0
 49
-9.0
 74
     0
  0
LTYPE
  5
6B
330
5
100
AcDbSymbolTableRecord
100
AcDbLinetypeTableRecord
  2
PHANTOM
 70
     0
  3
PHANTOM
 72
    65
 73
     6
 40
12.0
 49
30.0
 74
     0
 49
-9.0
 74
     0
 49
2.5
 74
     0
 49
-5.0
 74
     0
 49
2.5
 74
     0
 49
-9.0
 74
     0
  0
LTYPE
  5
6C
330
5
100
AcDbSymbolTableRecord
100
AcDbLinetypeTableRecord
  2
ACAD_ISO14W100
 70
     0
  3
ACAD_ISO14W100
 72
    65
 73
     8
 40
1.5
 49
12.0
 74
     0
 49
-3.0
 74
     0
 49
0.5
 74
     0
 49
-3.0
 74
     0
 49
0.5
 74
     0
 49
-3.0
 74
     0
 49
0.5
 74
     0
 49
-3.0
 74
     0
  0
LTYPE
  5
6D
330
5
100
AcDbSymbolTableRecord
100
AcDbLinetypeTableRecord
  2
ACAD_ISO06W100
 70
     0
  3
ACAD_ISO06W100
 72
    65
 73
     8
 40
13.5
 49
24.0
 74
     0
 49
-3.0
 74
     0
 49
0.5
 74
     0
 49
-3.0
 74
     0
 49
0.5
 74
     0
 49
-3.0
 74
     0
 49
0.5
 74
     0
 49
-3.0
 74
     0
  0
LTYPE
  5
6E
330
5
100
AcDbSymbolTableRecord
100
AcDbLinetypeTableRecord
  2
ACAD_ISO11W100
 70
     0
  3
ACAD_ISO11W100
 72
    65
 73
     6
 40
15.5
 49
12.0
 74
     0
 49
-3.0
 74
     0
 49
12.0
 74
     0
 49
-3.0
 74
     0
 49
0.5
 74
     0
 49
-3.0
 74
     0
  0
LTYPE
  5
6F
330
5
100
AcDbSymbolTableRecord
100
AcDbLinetypeTableRecord
  2
ACAD_ISO13W100
 70
     0
  3
ACAD_ISO13W100
 72
    65
 73
     8
 40
13.0
 49
12.0
 74
     0
 49
-3.0
 74
     0
 49
12.0
 74
     0
 49
-3.0
 74
     0
 49
0.5
 74
     0
 49
-3.0
 74
     0
 49
0.5
 74
     0
 49
-3.0
 74
     0
  0
ENDTAB
  0
TABLE
  2
LAYER
  5
2
330
0
100
AcDbSymbolTable
 70
    22
  0
LAYER
  5
10
330
2
100
AcDbSymbolTableRecord
100
AcDbLayerTableRecord
  2
0
 70
     0
 62
     7
  6
Continuous
370
    -3
390
F
  0
LAYER
  5
70
330
2
100
AcDbSymbolTableRecord
100
AcDbLayerTableRecord
  2
1
 70
     0
 62
     7
  6
Continuous
370
    -3
390
F
  0
LAYER
  5
71
330
2
100
AcDbSymbolTableRecord
100
AcDbLayerTableRecord
  2
2
 70
     0
 62
   134
  6
Continuous
370
    -3
390
F
  0
LAYER
  5
72
330
2
100
AcDbSymbolTableRecord
100
AcDbLayerTableRecord
  2
3
 70
     0
 62
   214
  6
Continuous
370
    -3
390
F
  0
LAYER
  5
73
330
2
100
AcDbSymbolTableRecord
100
AcDbLayerTableRecord
  2
4
 70
     0
 62
    54
  6
Continuous
370
    -3
390
F
  0
LAYER
  5
74
330
2
100
AcDbSymbolTableRecord
100
AcDbLayerTableRecord
  2
5
 70
     0
 62
    94
  6
Continuous
370
    -3
390
F
  0
LAYER
  5
75
330
2
100
AcDbSymbolTableRecord
100
AcDbLayerTableRecord
  2
6
 70
     0
 62
    14
  6
Continuous
370
    -3
390
F
  0
LAYER
  5
76
330
2
100
AcDbSymbolTableRecord
100
AcDbLayerTableRecord
  2
7
 70
     0
 62
     4
  6
Continuous
370
    -3
390
F
  0
LAYER
  5
77
330
2
100
AcDbSymbolTableRecord
100
AcDbLayerTableRecord
  2
8
 70
     0
 62
     6
  6
Continuous
370
    -3
390
F
  0
LAYER
  5
78
330
2
100
AcDbSymbolTableRecord
100
AcDbLayerTableRecord
  2
9
 70
     0
 62
     2
  6
Continuous
370
    -3
390
F
  0
LAYER
  5
79
330
2
100
AcDbSymbolTableRecord
100
AcDbLayerTableRecord
  2
10
 70
     0
 62
     3
  6
Continuous
370
    -3
390
F
  0
LAYER
  5
7A
330
2
100
AcDbSymbolTableRecord
100
AcDbLayerTableRecord
  2
11
 70
     0
 62
   251
  6
Continuous
370
    -3
390
F
  0
LAYER
  5
7B
330
2
100
AcDbSymbolTableRecord
100
AcDbLayerTableRecord
  2
12
 70
     0
 62
   136
  6
Continuous
370
    -3
390
F
  0
LAYER
  5
7C
330
2
100
AcDbSymbolTableRecord
100
AcDbLayerTableRecord
  2
13
 70
     0
 62
   216
  6
Continuous
370
    -3
390
F
  0
LAYER
  5
7D
330
2
100
AcDbSymbolTableRecord
100
AcDbLayerTableRecord
  2
14
 70
     0
 62
    56
  6
Continuous
370
    -3
390
F
  0
LAYER
  5
7E
330
2
100
AcDbSymbolTableRecord
100
AcDbLayerTableRecord
  2
15
 70
     0
 62
    96
  6
Continuous
370
    -3
390
F
  0
LAYER
  5
7F
330
2
100
AcDbSymbolTableRecord
100
AcDbLayerTableRecord
  2
16
 70
     0
 62
    16
  6
Continuous
370
    -3
390
F
  0
LAYER
  5
80
330
2
100
AcDbSymbolTableRecord
100
AcDbLayerTableRecord
  2
17
 70
     0
 62
   132
  6
Continuous
370
    -3
390
F
  0
LAYER
  5
81
330
2
100
AcDbSymbolTableRecord
100
AcDbLayerTableRecord
  2
18
 70
     0
 62
   212
  6
Continuous
370
    -3
390
F
  0
LAYER
  5
82
330
2
100
AcDbSymbolTableRecord
100
AcDbLayerTableRecord
  2
19
 70
     0
 62
    52
  6
Continuous
370
    -3
390
F
  0
LAYER
  5
83
330
2
100
AcDbSymbolTableRecord
100
AcDbLayerTableRecord
  2
20
 70
     0
 62
   250
  6
Continuous
370
    -3
390
F
  0
LAYER
  5
84
330
2
100
AcDbSymbolTableRecord
100
AcDbLayerTableRecord
  2
128
 70
     0
 62
     7
  6
Continuous
370
    -3
390
F
  0
ENDTAB
  0
TABLE
  2
STYLE
  5
3
330
0
100
AcDbSymbolTable
 70
     2
  0
STYLE
  5
11
330
3
100
AcDbSymbolTableRecord
100
AcDbTextStyleTableRecord
  2
Standard
 70
     0
 40
0.0
 41
1.0
 50
0.0
 71
     0
 42
0.2
  3
txt
  4
bigfont
  0
STYLE
  5
2C
330
3
100
AcDbSymbolTableRecord
100
AcDbTextStyleTableRecord
  2
T_STANDARD
 70
     4
 40
10.0
 41
1.0
 50
0.0
 71
     0
 42
10.0
  3
txt
  4
bigfont
  0
ENDTAB
  0
TABLE
  2
VIEW
  5
6
330
0
100
AcDbSymbolTable
 70
     0
  0
ENDTAB
  0
TABLE
  2
UCS
  5
7
330
0
100
AcDbSymbolTable
 70
     0
  0
ENDTAB
  0
TABLE
  2
APPID
  5
9
330
0
100
AcDbSymbolTable
 70
     2
  0
APPID
  5
12
330
9
100
AcDbSymbolTableRecord
100
AcDbRegAppTableRecord
  2
ACAD
 70
     0
  0
APPID
  5
2B
330
9
100
AcDbSymbolTableRecord
100
AcDbRegAppTableRecord
  2
ODA
 70
     0
  0
ENDTAB
  0
TABLE
  2
DIMSTYLE
  5
A
330
0
100
AcDbSymbolTable
 70
     1
100
AcDbDimStyleTable
  0
DIMSTYLE
105
27
102
{ACAD_REACTORS
330
E3
330
F5
330
109
330
11D
330
19C
330
1B0
330
2C0
330
386
330
39A
330
3AE
330
3C2
330
3D6
102
}
330
A
100
AcDbSymbolTableRecord
100
AcDbDimStyleTableRecord
  2
Standard
 70
     0
340
11
  0
ENDTAB
  0
TABLE
  2
BLOCK_RECORD
  5
1
330
0
100
AcDbSymbolTable
 70
    27
  0
BLOCK_RECORD
  5
1F
330
1
100
AcDbSymbolTableRecord
100
AcDbBlockTableRecord
  2
*Model_Space
340
22
  0
BLOCK_RECORD
  5
1B
330
1
100
AcDbSymbolTableRecord
100
AcDbBlockTableRecord
  2
*Paper_Space
340
1E
  0
BLOCK_RECORD
  5
23
330
1
100
AcDbSymbolTableRecord
100
AcDbBlockTableRecord
  2
*Paper_Space0
340
26
  0
BLOCK_RECORD
  5
2D
330
1
100
AcDbSymbolTableRecord
100
AcDbBlockTableRecord
  2
_ORIGIN
340
0
  0
BLOCK_RECORD
  5
32
330
1
100
AcDbSymbolTableRecord
100
AcDbBlockTableRecord
  2
_DOTBLANK
340
0
  0
BLOCK_RECORD
  5
37
330
1
100
AcDbSymbolTableRecord
100
AcDbBlockTableRecord
  2
_DOT
340
0
  0
BLOCK_RECORD
  5
3C
330
1
100
AcDbSymbolTableRecord
100
AcDbBlockTableRecord
  2
_OPEN
340
0
  0
BLOCK_RECORD
  5
42
330
1
100
AcDbSymbolTableRecord
100
AcDbBlockTableRecord
  2
_CLOSED
340
0
  0
BLOCK_RECORD
  5
49
330
1
100
AcDbSymbolTableRecord
100
AcDbBlockTableRecord
  2
_CLOSEDBLANK
340
0
  0
BLOCK_RECORD
  5
4F
330
1
100
AcDbSymbolTableRecord
100
AcDbBlockTableRecord
  2
_BOXBLANK
340
0
  0
BLOCK_RECORD
  5
57
330
1
100
AcDbSymbolTableRecord
100
AcDbBlockTableRecord
  2
_BOXFILLED
340
0
  0
BLOCK_RECORD
  5
5C
330
1
100
AcDbSymbolTableRecord
100
AcDbBlockTableRecord
  2
_INTEGRAL
340
0
  0
BLOCK_RECORD
  5
61
330
1
100
AcDbSymbolTableRecord
100
AcDbBlockTableRecord
  2
_OBLIQUE
340
0
  0
BLOCK_RECORD
  5
65
330
1
100
AcDbSymbolTableRecord
100
AcDbBlockTableRecord
  2
_NONE
340
0
  0
BLOCK_RECORD
  5
D0
330
1
100
AcDbSymbolTableRecord
100
AcDbBlockTableRecord
  2
Dim1
340
0
  0
BLOCK_RECORD
  5
E4
330
1
100
AcDbSymbolTableRecord
100
AcDbBlockTableRecord
  2
Dim2
340
0
  0
BLOCK_RECORD
  5
F6
330
1
100
AcDbSymbolTableRecord
100
AcDbBlockTableRecord
  2
Dim3
340
0
  0
BLOCK_RECORD
  5
10A
330
1
100
AcDbSymbolTableRecord
100
AcDbBlockTableRecord
  2
Dim4
340
0
  0
BLOCK_RECORD
  5
189
330
1
100
AcDbSymbolTableRecord
100
AcDbBlockTableRecord
  2
Dim5
340
0
  0
BLOCK_RECORD
  5
19D
330
1
100
AcDbSymbolTableRecord
100
AcDbBlockTableRecord
  2
Dim6
340
0
  0
BLOCK_RECORD
  5
1ED
330
1
100
AcDbSymbolTableRecord
100
AcDbBlockTableRecord
  2
*G18
340
0
102
{BLKREFS
331
24C
102
}
  0
BLOCK_RECORD
  5
24D
330
1
100
AcDbSymbolTableRecord
100
AcDbBlockTableRecord
  2
*G19
340
0
102
{BLKREFS
331
2AC
102
}
  0
BLOCK_RECORD
  5
2AD
330
1
100
AcDbSymbolTableRecord
100
AcDbBlockTableRecord
  2
Dim7
340
0
  0
BLOCK_RECORD
  5
373
330
1
100
AcDbSymbolTableRecord
100
AcDbBlockTableRecord
  2
Dim8
340
0
  0
BLOCK_RECORD
  5
387
330
1
100
AcDbSymbolTableRecord
100
AcDbBlockTableRecord
  2
Dim9
340
0
  0
BLOCK_RECORD
  5
39B
330
1
100
AcDbSymbolTableRecord
100
AcDbBlockTableRecord
  2
Dim10
340
0
  0
BLOCK_RECORD
  5
3AF
330
1
100
AcDbSymbolTableRecord
100
AcDbBlockTableRecord
  2
Dim11
340
0
  0
BLOCK_RECORD
  5
3C3
330
1
100
AcDbSymbolTableRecord
100
AcDbBlockTableRecord
  2
Dim12
340
0
  0
BLOCK_RECORD
  5
3D7
330
1
100
AcDbSymbolTableRecord
100
AcDbBlockTableRecord
  2
*G26
340
0
102
{BLKREFS
331
3E3
102
}
  0
ENDTAB
  0
ENDSEC
  0
SECTION
  2
BLOCKS
  0
BLOCK
  5
20
330
1F
100
AcDbEntity
  8
0
100
AcDbBlockBegin
  2
*Model_Space
 70
     0
 71
     0
 10
0.0
 20
0.0
 30
0.0
  3
*Model_Space
  1

  0
ENDBLK
  5
21
330
1F
100
AcDbEntity
  8
0
100
AcDbBlockEnd
  0
BLOCK
  5
1C
330
1B
100
AcDbEntity
 67
     1
  8
0
100
AcDbBlockBegin
  2
*Paper_Space
 70
     0
 71
     0
 10
0.0
 20
0.0
 30
0.0
  3
*Paper_Space
  1

  0
ENDBLK
  5
1D
330
1B
100
AcDbEntity
 67
     1
  8
0
100
AcDbBlockEnd
  0
BLOCK
  5
24
330
23
100
AcDbEntity
  8
0
100
AcDbBlockBegin
  2
*Paper_Space0
 70
     0
 71
     0
 10
0.0
 20
0.0
 30
0.0
  3
*Paper_Space0
  1

  0
ENDBLK
  5
25
330
23
100
AcDbEntity
  8
0
100
AcDbBlockEnd
  0
BLOCK
  5
30
330
2D
100
AcDbEntity
  8
0
100
AcDbBlockBegin
  2
_ORIGIN
 70
     0
 71
     0
 10
0.0
 20
0.0
 30
0.0
  3
_ORIGIN
  1

  0
CIRCLE
  5
2E
330
2D
100
AcDbEntity
  8
0
100
AcDbCircle
 10
0.0
 20
0.0
 30
0.0
 40
0.5
  0
LINE
  5
2F
330
2D
100
AcDbEntity
  8
0
100
AcDbLine
 10
0.0
 20
0.0
 30
0.0
 11
-1.0
 21
0.0
 31
0.0
  0
ENDBLK
  5
31
330
2D
100
AcDbEntity
  8
0
100
AcDbBlockEnd
  0
BLOCK
  5
35
330
32
100
AcDbEntity
  8
0
100
AcDbBlockBegin
  2
_DOTBLANK
 70
     0
 71
     0
 10
0.0
 20
0.0
 30
0.0
  3
_DOTBLANK
  1

  0
CIRCLE
  5
33
330
32
100
AcDbEntity
  8
0
100
AcDbCircle
 10
0.0
 20
0.0
 30
0.0
 40
0.5
  0
LINE
  5
34
330
32
100
AcDbEntity
  8
0
100
AcDbLine
 10
-0.5
 20
0.0
 30
0.0
 11
-1.0
 21
0.0
 31
0.0
  0
ENDBLK
  5
36
330
32
100
AcDbEntity
  8
0
100
AcDbBlockEnd
  0
BLOCK
  5
3A
330
37
100
AcDbEntity
  8
0
100
AcDbBlockBegin
  2
_DOT
 70
     0
 71
     0
 10
0.0
 20
0.0
 30
0.0
  3
_DOT
  1

  0
LWPOLYLINE
  5
38
330
37
100
AcDbEntity
  8
0
100
AcDbPolyline
 90
        2
 70
     1
 43
0.5
 10
-0.25
 20
0.0
 42
1.0
 10
0.25
 20
0.0
 42
1.0
  0
LINE
  5
39
330
37
100
AcDbEntity
  8
0
100
AcDbLine
 10
-0.5
 20
0.0
 30
0.0
 11
-1.0
 21
0.0
 31
0.0
  0
ENDBLK
  5
3B
330
37
100
AcDbEntity
  8
0
100
AcDbBlockEnd
  0
BLOCK
  5
40
330
3C
100
AcDbEntity
  8
0
100
AcDbBlockBegin
  2
_OPEN
 70
     0
 71
     0
 10
0.0
 20
0.0
 30
0.0
  3
_OPEN
  1

  0
LINE
  5
3D
330
3C
100
AcDbEntity
  8
0
100
AcDbLine
 10
-1.0
 20
0.1666666666666667
 30
0.0
 11
0.0
 21
0.0
 31
0.0
  0
LINE
  5
3E
330
3C
100
AcDbEntity
  8
0
100
AcDbLine
 10
-1.0
 20
-0.1666666666666667
 30
0.0
 11
0.0
 21
0.0
 31
0.0
  0
LINE
  5
3F
330
3C
100
AcDbEntity
  8
0
100
AcDbLine
 10
0.0
 20
0.0
 30
0.0
 11
-1.0
 21
0.0
 31
0.0
  0
ENDBLK
  5
41
330
3C
100
AcDbEntity
  8
0
100
AcDbBlockEnd
  0
BLOCK
  5
47
330
42
100
AcDbEntity
  8
0
100
AcDbBlockBegin
  2
_CLOSED
 70
     0
 71
     0
 10
0.0
 20
0.0
 30
0.0
  3
_CLOSED
  1

  0
LINE
  5
43
330
42
100
AcDbEntity
  8
0
100
AcDbLine
 10
-1.0
 20
0.1666666666666667
 30
0.0
 11
0.0
 21
0.0
 31
0.0
  0
LINE
  5
44
330
42
100
AcDbEntity
  8
0
100
AcDbLine
 10
0.0
 20
0.0
 30
0.0
 11
-1.0
 21
-0.1666666666666667
 31
0.0
  0
LINE
  5
45
330
42
100
AcDbEntity
  8
0
100
AcDbLine
 10
-1.0
 20
0.1666666666666667
 30
0.0
 11
-1.0
 21
-0.1666666666666667
 31
0.0
  0
LINE
  5
46
330
42
100
AcDbEntity
  8
0
100
AcDbLine
 10
0.0
 20
0.0
 30
0.0
 11
-1.0
 21
0.0
 31
0.0
  0
ENDBLK
  5
48
330
42
100
AcDbEntity
  8
0
100
AcDbBlockEnd
  0
BLOCK
  5
4D
330
49
100
AcDbEntity
  8
0
100
AcDbBlockBegin
  2
_CLOSEDBLANK
 70
     0
 71
     0
 10
0.0
 20
0.0
 30
0.0
  3
_CLOSEDBLANK
  1

  0
LINE
  5
4A
330
49
100
AcDbEntity
  8
0
100
AcDbLine
 10
-1.0
 20
0.1666666666666667
 30
0.0
 11
0.0
 21
0.0
 31
0.0
  0
LINE
  5
4B
330
49
100
AcDbEntity
  8
0
100
AcDbLine
 10
0.0
 20
0.0
 30
0.0
 11
-1.0
 21
-0.1666666666666667
 31
0.0
  0
LINE
  5
4C
330
49
100
AcDbEntity
  8
0
100
AcDbLine
 10
-1.0
 20
0.1666666666666667
 30
0.0
 11
-1.0
 21
-0.1666666666666667
 31
0.0
  0
ENDBLK
  5
4E
330
49
100
AcDbEntity
  8
0
100
AcDbBlockEnd
  0
BLOCK
  5
55
330
4F
100
AcDbEntity
  8
0
100
AcDbBlockBegin
  2
_BOXBLANK
 70
     0
 71
     0
 10
0.0
 20
0.0
 30
0.0
  3
_BOXBLANK
  1

  0
LINE
  5
50
330
4F
100
AcDbEntity
  8
0
100
AcDbLine
 10
-0.5
 20
-0.5
 30
0.0
 11
0.5
 21
-0.5
 31
0.0
  0
LINE
  5
51
330
4F
100
AcDbEntity
  8
0
100
AcDbLine
 10
0.5
 20
-0.5
 30
0.0
 11
0.5
 21
0.5
 31
0.0
  0
LINE
  5
52
330
4F
100
AcDbEntity
  8
0
100
AcDbLine
 10
0.5
 20
0.5
 30
0.0
 11
-0.5
 21
0.5
 31
0.0
  0
LINE
  5
53
330
4F
100
AcDbEntity
  8
0
100
AcDbLine
 10
-0.5
 20
0.5
 30
0.0
 11
-0.5
 21
-0.5
 31
0.0
  0
LINE
  5
54
330
4F
100
AcDbEntity
  8
0
100
AcDbLine
 10
-0.5
 20
0.0
 30
0.0
 11
-1.0
 21
0.0
 31
0.0
  0
ENDBLK
  5
56
330
4F
100
AcDbEntity
  8
0
100
AcDbBlockEnd
  0
BLOCK
  5
5A
330
57
100
AcDbEntity
  8
0
100
AcDbBlockBegin
  2
_BOXFILLED
 70
     0
 71
     0
 10
0.0
 20
0.0
 30
0.0
  3
_BOXFILLED
  1

  0
SOLID
  5
58
330
57
100
AcDbEntity
  8
0
100
AcDbTrace
 10
-0.5
 20
0.5
 30
0.0
 11
0.5
 21
0.5
 31
0.0
 12
-0.5
 22
-0.5
 32
0.0
 13
0.5
 23
-0.5
 33
0.0
  0
LINE
  5
59
330
57
100
AcDbEntity
  8
0
100
AcDbLine
 10
-0.5
 20
0.0
 30
0.0
 11
-1.0
 21
0.0
 31
0.0
  0
ENDBLK
  5
5B
330
57
100
AcDbEntity
  8
0
100
AcDbBlockEnd
  0
BLOCK
  5
5F
330
5C
100
AcDbEntity
  8
0
100
AcDbBlockBegin
  2
_INTEGRAL
 70
     0
 71
     0
 10
0.0
 20
0.0
 30
0.0
  3
_INTEGRAL
  1

  0
ARC
  5
5D
330
5C
100
AcDbEntity
  8
0
100
AcDbCircle
 10
0.444888
 20
-0.0913346
 30
0.0
 40
0.4541666
100
AcDbArc
 50
5844.169510334396
 51
9625.69095819783
  0
ARC
  5
5E
330
5C
100
AcDbEntity
  8
0
100
AcDbCircle
 10
-0.444888
 20
0.0913346
 30
0.0
 40
0.4541666
100
AcDbArc
 50
16157.40982268921
 51
19938.93127055265
  0
ENDBLK
  5
60
330
5C
100
AcDbEntity
  8
0
100
AcDbBlockEnd
  0
BLOCK
  5
63
330
61
100
AcDbEntity
  8
0
100
AcDbBlockBegin
  2
_OBLIQUE
 70
     0
 71
     0
 10
0.0
 20
0.0
 30
0.0
  3
_OBLIQUE
  1

  0
LINE
  5
62
330
61
100
AcDbEntity
  8
0
100
AcDbLine
 10
-0.5
 20
-0.5
 30
0.0
 11
0.5
 21
0.5
 31
0.0
  0
ENDBLK
  5
64
330
61
100
AcDbEntity
  8
0
100
AcDbBlockEnd
  0
BLOCK
  5
66
330
65
100
AcDbEntity
  8
0
100
AcDbBlockBegin
  2
_NONE
 70
     0
 71
     0
 10
0.0
 20
0.0
 30
0.0
  3
_NONE
  1

  0
ENDBLK
  5
67
330
65
100
AcDbEntity
  8
0
100
AcDbBlockEnd
  0
BLOCK
  5
D1
330
D0
100
AcDbEntity
  8
0
100
AcDbBlockBegin
  2
Dim1
 70
     0
 71
     0
 10
0.0
 20
0.0
 30
0.0
  3
Dim1
  1

  0
LINE
  5
D3
330
D0
100
AcDbEntity
  8
1
  6
Continuous
 62
     7
100
AcDbLine
 10
122.5
 20
290.0
 30
0.0
 11
257.5
 21
290.0
 31
0.0
  0
LINE
  5
D4
330
D0
100
AcDbEntity
  8
1
  6
Continuous
 62
     7
100
AcDbLine
 10
122.5
 20
288.0
 30
0.0
 11
122.5
 21
348.0
 31
0.0
  0
LINE
  5
D5
330
D0
100
AcDbEntity
  8
1
  6
Continuous
 62
     7
100
AcDbLine
 10
257.5
 20
288.0
 30
0.0
 11
257.5
 21
348.0
 31
0.0
  0
LINE
  5
D6
330
D0
100
AcDbEntity
  8
1
  6
Continuous
 62
     7
100
AcDbLine
 10
122.5
 20
290.0
 30
0.0
 11
130.2274066103126
 21
292.0705523608202
 31
0.0
  0
LINE
  5
D7
330
D0
100
AcDbEntity
  8
1
  6
Continuous
 62
     7
100
AcDbLine
 10
122.5
 20
290.0
 30
0.0
 11
130.2274066103126
 21
287.9294476391798
 31
0.0
  0
LINE
  5
D8
330
D0
100
AcDbEntity
  8
1
  6
Continuous
 62
     7
100
AcDbLine
 10
130.2274066103126
 20
292.0705523608202
 30
0.0
 11
130.2274066103126
 21
287.9294476391798
 31
0.0
  0
LINE
  5
D9
330
D0
100
AcDbEntity
  8
1
  6
Continuous
 62
     7
100
AcDbLine
 10
124.4318516525781
 20
290.0
 30
0.0
 11
128.2955549577344
 21
291.0352761804101
 31
0.0
  0
LINE
  5
DA
330
D0
100
AcDbEntity
  8
1
  6
Continuous
 62
     7
100
AcDbLine
 10
124.4318516525781
 20
290.0
 30
0.0
 11
128.2955549577344
 21
288.9647238195899
 31
0.0
  0
LINE
  5
DB
330
D0
100
AcDbEntity
  8
1
  6
Continuous
 62
     7
100
AcDbLine
 10
128.2955549577344
 20
291.0352761804101
 30
0.0
 11
128.2955549577344
 21
288.9647238195899
 31
0.0
  0
LINE
  5
DC
330
D0
100
AcDbEntity
  8
1
  6
Continuous
 62
     7
100
AcDbLine
 10
257.5
 20
290.0
 30
0.0
 11
249.7725933896874
 21
287.9294476391798
 31
0.0
  0
LINE
  5
DD
330
D0
100
AcDbEntity
  8
1
  6
Continuous
 62
     7
100
AcDbLine
 10
257.5
 20
290.0
 30
0.0
 11
249.7725933896874
 21
292.0705523608202
 31
0.0
  0
LINE
  5
DE
330
D0
100
AcDbEntity
  8
1
  6
Continuous
 62
     7
100
AcDbLine
 10
249.7725933896874
 20
287.9294476391798
 30
0.0
 11
249.7725933896874
 21
292.0705523608202
 31
0.0
  0
LINE
  5
DF
330
D0
100
AcDbEntity
  8
1
  6
Continuous
 62
     7
100
AcDbLine
 10
255.5681483474219
 20
290.0
 30
0.0
 11
251.7044450422656
 21
288.9647238195899
 31
0.0
  0
LINE
  5
E0
330
D0
100
AcDbEntity
  8
1
  6
Continuous
 62
     7
100
AcDbLine
 10
255.5681483474219
 20
290.0
 30
0.0
 11
251.7044450422656
 21
291.0352761804101
 31
0.0
  0
LINE
  5
E1
330
D0
100
AcDbEntity
  8
1
  6
Continuous
 62
     7
100
AcDbLine
 10
251.7044450422656
 20
288.9647238195899
 30
0.0
 11
251.7044450422656
 21
291.0352761804101
 31
0.0
  0
MTEXT
  5
E2
330
D0
100
AcDbEntity
  8
1
  6
Continuous
 62
     7
100
AcDbMText
 10
190.0
 20
296.0
 30
0.0
 40
12.0
 41
0.0
 71
     8
 72
     1
  1
135
 73
     1
 44
1.0
  0
ENDBLK
  5
D2
330
D0
100
AcDbEntity
  8
0
100
AcDbBlockEnd
  0
BLOCK
  5
E5
330
E4
100
AcDbEntity
  8
0
100
AcDbBlockBegin
  2
Dim2
 70
     0
 71
     0
 10
0.0
 20
0.0
 30
0.0
  3
Dim2
  1

  0
LINE
  5
E7
330
E4
100
AcDbEntity
  8
1
  6
Continuous
 62
     7
100
AcDbLine
 10
212.0
 20
250.0
 30
0.0
 11
271.5
 21
250.0
 31
0.0
  0
LINE
  5
E8
330
E4
100
AcDbEntity
  8
1
  6
Continuous
 62
     7
100
AcDbLine
 10
251.5
 20
250.0
 30
0.0
 11
246.6703708685547
 21
248.7059047744874
 31
0.0
  0
LINE
  5
E9
330
E4
100
AcDbEntity
  8
1
  6
Continuous
 62
     7
100
AcDbLine
 10
251.5
 20
250.0
 30
0.0
 11
246.6703708685547
 21
251.2940952255126
 31
0.0
  0
LINE
  5
EA
330
E4
100
AcDbEntity
  8
1
  6
Continuous
 62
     7
100
AcDbLine
 10
246.6703708685547
 20
248.7059047744874
 30
0.0
 11
246.6703708685547
 21
251.2940952255126
 31
0.0
  0
LINE
  5
EB
330
E4
100
AcDbEntity
  8
1
  6
Continuous
 62
     7
100
AcDbLine
 10
250.2925927171387
 20
250.0
 30
0.0
 11
247.877778151416
 21
249.3529523872437
 31
0.0
  0
LINE
  5
EC
330
E4
100
AcDbEntity
  8
1
  6
Continuous
 62
     7
100
AcDbLine
 10
250.2925927171387
 20
250.0
 30
0.0
 11
247.877778151416
 21
250.6470476127563
 31
0.0
  0
LINE
  5
ED
330
E4
100
AcDbEntity
  8
1
  6
Continuous
 62
     7
100
AcDbLine
 10
247.877778151416
 20
249.3529523872437
 30
0.0
 11
247.877778151416
 21
250.6470476127563
 31
0.0
  0
LINE
  5
EE
330
E4
100
AcDbEntity
  8
1
  6
Continuous
 62
     7
100
AcDbLine
 10
263.5
 20
250.0
 30
0.0
 11
268.3296291314454
 21
251.2940952255126
 31
0.0
  0
LINE
  5
EF
330
E4
100
AcDbEntity
  8
1
  6
Continuous
 62
     7
100
AcDbLine
 10
263.5
 20
250.0
 30
0.0
 11
268.3296291314454
 21
248.7059047744874
 31
0.0
  0
LINE
  5
F0
330
E4
100
AcDbEntity
  8
1
  6
Continuous
 62
     7
100
AcDbLine
 10
268.3296291314454
 20
251.2940952255126
 30
0.0
 11
268.3296291314454
 21
248.7059047744874
 31
0.0
  0
LINE
  5
F1
330
E4
100
AcDbEntity
  8
1
  6
Continuous
 62
     7
100
AcDbLine
 10
264.7074072828613
 20
250.0
 30
0.0
 11
267.122221848584
 21
250.6470476127563
 31
0.0
  0
LINE
  5
F2
330
E4
100
AcDbEntity
  8
1
  6
Continuous
 62
     7
100
AcDbLine
 10
264.7074072828613
 20
250.0
 30
0.0
 11
267.122221848584
 21
249.3529523872437
 31
0.0
  0
LINE
  5
F3
330
E4
100
AcDbEntity
  8
1
  6
Continuous
 62
     7
100
AcDbLine
 10
267.122221848584
 20
250.6470476127563
 30
0.0
 11
267.122221848584
 21
249.3529523872437
 31
0.0
  0
MTEXT
  5
F4
330
E4
100
AcDbEntity
  8
1
  6
Continuous
 62
     7
100
AcDbMText
 10
227.0
 20
256.0
 30
0.0
 40
12.0
 41
0.0
 71
     8
 72
     1
  1
φ12
 73
     1
 44
1.0
  0
ENDBLK
  5
E6
330
E4
100
AcDbEntity
  8
0
100
AcDbBlockEnd
  0
BLOCK
  5
F7
330
F6
100
AcDbEntity
  8
0
100
AcDbBlockBegin
  2
Dim3
 70
     0
 71
     0
 10
0.0
 20
0.0
 30
0.0
  3
Dim3
  1

  0
LINE
  5
F9
330
F6
100
AcDbEntity
  8
1
  6
Continuous
 62
     7
100
AcDbLine
 10
257.5000000000015
 20
290.0
 30
0.0
 11
122.5000000000015
 21
290.0
 31
0.0
  0
LINE
  5
FA
330
F6
100
AcDbEntity
  8
1
  6
Continuous
 62
     7
100
AcDbLine
 10
257.5000000000015
 20
288.0
 30
0.0
 11
257.5000000000015
 21
348.0
 31
0.0
  0
LINE
  5
FB
330
F6
100
AcDbEntity
  8
1
  6
Continuous
 62
     7
100
AcDbLine
 10
122.5000000000015
 20
288.0
 30
0.0
 11
122.5000000000015
 21
348.0
 31
0.0
  0
LINE
  5
FC
330
F6
100
AcDbEntity
  8
1
  6
Continuous
 62
     7
100
AcDbLine
 10
257.5000000000015
 20
290.0
 30
0.0
 11
249.7725933896889
 21
287.9294476391798
 31
0.0
  0
LINE
  5
FD
330
F6
100
AcDbEntity
  8
1
  6
Continuous
 62
     7
100
AcDbLine
 10
257.5000000000015
 20
290.0
 30
0.0
 11
249.772593389689
 21
292.0705523608202
 31
0.0
  0
LINE
  5
FE
330
F6
100
AcDbEntity
  8
1
  6
Continuous
 62
     7
100
AcDbLine
 10
249.7725933896889
 20
287.9294476391798
 30
0.0
 11
249.772593389689
 21
292.0705523608202
 31
0.0
  0
LINE
  5
FF
330
F6
100
AcDbEntity
  8
1
  6
Continuous
 62
     7
100
AcDbLine
 10
255.5681483474233
 20
290.0
 30
0.0
 11
251.7044450422671
 21
288.9647238195899
 31
0.0
  0
LINE
  5
100
330
F6
100
AcDbEntity
  8
1
  6
Continuous
 62
     7
100
AcDbLine
 10
255.5681483474233
 20
290.0
 30
0.0
 11
251.7044450422671
 21
291.0352761804101
 31
0.0
  0
LINE
  5
101
330
F6
100
AcDbEntity
  8
1
  6
Continuous
 62
     7
100
AcDbLine
 10
251.7044450422671
 20
288.9647238195899
 30
0.0
 11
251.7044450422671
 21
291.0352761804101
 31
0.0
  0
LINE
  5
102
330
F6
100
AcDbEntity
  8
1
  6
Continuous
 62
     7
100
AcDbLine
 10
122.5000000000015
 20
290.0
 30
0.0
 11
130.227406610314
 21
292.0705523608202
 31
0.0
  0
LINE
  5
103
330
F6
100
AcDbEntity
  8
1
  6
Continuous
 62
     7
100
AcDbLine
 10
122.5000000000015
 20
290.0
 30
0.0
 11
130.227406610314
 21
287.9294476391798
 31
0.0
  0
LINE
  5
104
330
F6
100
AcDbEntity
  8
1
  6
Continuous
 62
     7
100
AcDbLine
 10
130.227406610314
 20
292.0705523608202
 30
0.0
 11
130.227406610314
 21
287.9294476391798
 31
0.0
  0
LINE
  5
105
330
F6
100
AcDbEntity
  8
1
  6
Continuous
 62
     7
100
AcDbLine
 10
124.4318516525796
 20
290.0
 30
0.0
 11
128.2955549577359
 21
291.0352761804101
 31
0.0
  0
LINE
  5
106
330
F6
100
AcDbEntity
  8
1
  6
Continuous
 62
     7
100
AcDbLine
 10
124.4318516525796
 20
290.0
 30
0.0
 11
128.2955549577359
 21
288.9647238195899
 31
0.0
  0
LINE
  5
107
330
F6
100
AcDbEntity
  8
1
  6
Continuous
 62
     7
100
AcDbLine
 10
128.2955549577359
 20
291.0352761804101
 30
0.0
 11
128.2955549577359
 21
288.9647238195899
 31
0.0
  0
MTEXT
  5
108
330
F6
100
AcDbEntity
  8
1
  6
Continuous
 62
     7
100
AcDbMText
 10
190.0000000000015
 20
296.0
 30
0.0
 40
12.0
 41
0.0
 71
     8
 72
     1
  1
135
 73
     1
 44
1.0
  0
ENDBLK
  5
F8
330
F6
100
AcDbEntity
  8
0
100
AcDbBlockEnd
  0
BLOCK
  5
10B
330
10A
100
AcDbEntity
  8
0
100
AcDbBlockBegin
  2
Dim4
 70
     0
 71
     0
 10
0.0
 20
0.0
 30
0.0
  3
Dim4
  1

  0
LINE
  5
10D
330
10A
100
AcDbEntity
  8
1
  6
Continuous
 62
     7
100
AcDbLine
 10
320.0
 20
364.9999999999999
 30
0.0
 11
320.0
 21
343.0
 31
0.0
  0
LINE
  5
10E
330
10A
100
AcDbEntity
  8
1
  6
Continuous
 62
     7
100
AcDbLine
 10
322.0
 20
364.9999999999999
 30
0.0
 11
277.0000000000015
 21
364.9999999999999
 31
0.0
  0
LINE
  5
10F
330
10A
100
AcDbEntity
  8
1
  6
Continuous
 62
     7
100
AcDbLine
 10
322.0
 20
343.0
 30
0.0
 11
291.6000000000001
 21
343.0
 31
0.0
  0
LINE
  5
110
330
10A
100
AcDbEntity
  8
1
  6
Continuous
 62
     7
100
AcDbLine
 10
320.0
 20
364.9999999999999
 30
0.0
 11
322.0705523608202
 21
357.2725933896874
 31
0.0
  0
LINE
  5
111
330
10A
100
AcDbEntity
  8
1
  6
Continuous
 62
     7
100
AcDbLine
 10
320.0
 20
364.9999999999999
 30
0.0
 11
317.9294476391798
 21
357.2725933896874
 31
0.0
  0
LINE
  5
112
330
10A
100
AcDbEntity
  8
1
  6
Continuous
 62
     7
100
AcDbLine
 10
322.0705523608202
 20
357.2725933896874
 30
0.0
 11
317.9294476391798
 21
357.2725933896874
 31
0.0
  0
LINE
  5
113
330
10A
100
AcDbEntity
  8
1
  6
Continuous
 62
     7
100
AcDbLine
 10
320.0
 20
363.0681483474218
 30
0.0
 11
321.0352761804101
 21
359.2044450422655
 31
0.0
  0
LINE
  5
114
330
10A
100
AcDbEntity
  8
1
  6
Continuous
 62
     7
100
AcDbLine
 10
320.0
 20
363.0681483474218
 30
0.0
 11
318.9647238195899
 21
359.2044450422655
 31
0.0
  0
LINE
  5
115
330
10A
100
AcDbEntity
  8
1
  6
Continuous
 62
     7
100
AcDbLine
 10
321.0352761804101
 20
359.2044450422655
 30
0.0
 11
318.9647238195899
 21
359.2044450422655
 31
0.0
  0
LINE
  5
116
330
10A
100
AcDbEntity
  8
1
  6
Continuous
 62
     7
100
AcDbLine
 10
320.0
 20
343.0
 30
0.0
 11
317.9294476391798
 21
350.7274066103125
 31
0.0
  0
LINE
  5
117
330
10A
100
AcDbEntity
  8
1
  6
Continuous
 62
     7
100
AcDbLine
 10
320.0
 20
343.0
 30
0.0
 11
322.0705523608202
 21
350.7274066103125
 31
0.0
  0
LINE
  5
118
330
10A
100
AcDbEntity
  8
1
  6
Continuous
 62
     7
100
AcDbLine
 10
317.9294476391798
 20
350.7274066103125
 30
0.0
 11
322.0705523608202
 21
350.7274066103125
 31
0.0
  0
LINE
  5
119
330
10A
100
AcDbEntity
  8
1
  6
Continuous
 62
     7
100
AcDbLine
 10
320.0
 20
344.9318516525781
 30
0.0
 11
318.9647238195899
 21
348.7955549577344
 31
0.0
  0
LINE
  5
11A
330
10A
100
AcDbEntity
  8
1
  6
Continuous
 62
     7
100
AcDbLine
 10
320.0
 20
344.9318516525781
 30
0.0
 11
321.0352761804101
 21
348.7955549577344
 31
0.0
  0
LINE
  5
11B
330
10A
100
AcDbEntity
  8
1
  6
Continuous
 62
     7
100
AcDbLine
 10
318.9647238195899
 20
348.7955549577344
 30
0.0
 11
321.0352761804101
 21
348.7955549577344
 31
0.0
  0
MTEXT
  5
11C
330
10A
100
AcDbEntity
  8
1
  6
Continuous
 62
     7
100
AcDbMText
 10
314.0000000000001
 20
354.0
 30
0.0
 40
12.0
 41
0.0
 71
     8
 72
     1
  1
22
 11
-1.937169104367914E-15
 21
1.0
 31
0.0
 73
     1
 44
1.0
  0
ENDBLK
  5
10C
330
10A
100
AcDbEntity
  8
0
100
AcDbBlockEnd
  0
BLOCK
  5
18A
330
189
100
AcDbEntity
  8
0
100
AcDbBlockBegin
  2
Dim5
 70
     0
 71
     0
 10
0.0
 20
0.0
 30
0.0
  3
Dim5
  1

  0
LINE
  5
18C
330
189
100
AcDbEntity
  8
1
  6
Continuous
 62
     7
100
AcDbLine
 10
350.0
 20
364.9999999999999
 30
0.0
 11
350.0
 21
165.0000000000014
 31
0.0
  0
LINE
  5
18D
330
189
100
AcDbEntity
  8
1
  6
Continuous
 62
     7
100
AcDbLine
 10
352.0
 20
364.9999999999999
 30
0.0
 11
277.0000000000015
 21
364.9999999999999
 31
0.0
  0
LINE
  5
18E
330
189
100
AcDbEntity
  8
1
  6
Continuous
 62
     7
100
AcDbLine
 10
352.0
 20
165.0000000000014
 30
0.0
 11
259.500000000001
 21
165.0000000000014
 31
0.0
  0
LINE
  5
18F
330
189
100
AcDbEntity
  8
1
  6
Continuous
 62
     7
100
AcDbLine
 10
350.0
 20
364.9999999999999
 30
0.0
 11
352.0705523608202
 21
357.2725933896874
 31
0.0
  0
LINE
  5
190
330
189
100
AcDbEntity
  8
1
  6
Continuous
 62
     7
100
AcDbLine
 10
350.0
 20
364.9999999999999
 30
0.0
 11
347.9294476391798
 21
357.2725933896874
 31
0.0
  0
LINE
  5
191
330
189
100
AcDbEntity
  8
1
  6
Continuous
 62
     7
100
AcDbLine
 10
352.0705523608202
 20
357.2725933896874
 30
0.0
 11
347.9294476391798
 21
357.2725933896874
 31
0.0
  0
LINE
  5
192
330
189
100
AcDbEntity
  8
1
  6
Continuous
 62
     7
100
AcDbLine
 10
350.0
 20
363.0681483474218
 30
0.0
 11
351.0352761804101
 21
359.2044450422655
 31
0.0
  0
LINE
  5
193
330
189
100
AcDbEntity
  8
1
  6
Continuous
 62
     7
100
AcDbLine
 10
350.0
 20
363.0681483474218
 30
0.0
 11
348.9647238195899
 21
359.2044450422655
 31
0.0
  0
LINE
  5
194
330
189
100
AcDbEntity
  8
1
  6
Continuous
 62
     7
100
AcDbLine
 10
351.0352761804101
 20
359.2044450422655
 30
0.0
 11
348.9647238195899
 21
359.2044450422655
 31
0.0
  0
LINE
  5
195
330
189
100
AcDbEntity
  8
1
  6
Continuous
 62
     7
100
AcDbLine
 10
350.0
 20
165.0000000000014
 30
0.0
 11
347.9294476391798
 21
172.727406610314
 31
0.0
  0
LINE
  5
196
330
189
100
AcDbEntity
  8
1
  6
Continuous
 62
     7
100
AcDbLine
 10
350.0
 20
165.0000000000014
 30
0.0
 11
352.0705523608202
 21
172.727406610314
 31
0.0
  0
LINE
  5
197
330
189
100
AcDbEntity
  8
1
  6
Continuous
 62
     7
100
AcDbLine
 10
347.9294476391798
 20
172.727406610314
 30
0.0
 11
352.0705523608202
 21
172.727406610314
 31
0.0
  0
LINE
  5
198
330
189
100
AcDbEntity
  8
1
  6
Continuous
 62
     7
100
AcDbLine
 10
350.0
 20
166.9318516525796
 30
0.0
 11
348.9647238195899
 21
170.7955549577358
 31
0.0
  0
LINE
  5
199
330
189
100
AcDbEntity
  8
1
  6
Continuous
 62
     7
100
AcDbLine
 10
350.0
 20
166.9318516525796
 30
0.0
 11
351.0352761804101
 21
170.7955549577358
 31
0.0
  0
LINE
  5
19A
330
189
100
AcDbEntity
  8
1
  6
Continuous
 62
     7
100
AcDbLine
 10
348.9647238195899
 20
170.7955549577358
 30
0.0
 11
351.0352761804101
 21
170.7955549577358
 31
0.0
  0
MTEXT
  5
19B
330
189
100
AcDbEntity
  8
1
  6
Continuous
 62
     7
100
AcDbMText
 10
344.0000000000002
 20
265.0000000000007
 30
0.0
 40
12.0
 41
0.0
 71
     8
 72
     1
  1
200
 11
1.615544574432587E-15
 21
1.0
 31
0.0
 73
     1
 44
1.0
  0
ENDBLK
  5
18B
330
189
100
AcDbEntity
  8
0
100
AcDbBlockEnd
  0
BLOCK
  5
19E
330
19D
100
AcDbEntity
  8
0
100
AcDbBlockBegin
  2
Dim6
 70
     0
 71
     0
 10
0.0
 20
0.0
 30
0.0
  3
Dim6
  1

  0
LINE
  5
1A0
330
19D
100
AcDbEntity
  8
1
  6
Continuous
 62
     7
100
AcDbLine
 10
320.0
 20
343.0
 30
0.0
 11
320.0
 21
165.0000000000014
 31
0.0
  0
LINE
  5
1A1
330
19D
100
AcDbEntity
  8
1
  6
Continuous
 62
     7
100
AcDbLine
 10
322.0
 20
343.0
 30
0.0
 11
291.5999999999985
 21
343.0
 31
0.0
  0
LINE
  5
1A2
330
19D
100
AcDbEntity
  8
1
  6
Continuous
 62
     7
100
AcDbLine
 10
322.0
 20
165.0000000000014
 30
0.0
 11
259.500000000001
 21
165.0000000000014
 31
0.0
  0
LINE
  5
1A3
330
19D
100
AcDbEntity
  8
1
  6
Continuous
 62
     7
100
AcDbLine
 10
320.0
 20
343.0
 30
0.0
 11
322.0705523608202
 21
335.2725933896875
 31
0.0
  0
LINE
  5
1A4
330
19D
100
AcDbEntity
  8
1
  6
Continuous
 62
     7
100
AcDbLine
 10
320.0
 20
343.0
 30
0.0
 11
317.9294476391798
 21
335.2725933896875
 31
0.0
  0
LINE
  5
1A5
330
19D
100
AcDbEntity
  8
1
  6
Continuous
 62
     7
100
AcDbLine
 10
322.0705523608202
 20
335.2725933896875
 30
0.0
 11
317.9294476391798
 21
335.2725933896875
 31
0.0
  0
LINE
  5
1A6
330
19D
100
AcDbEntity
  8
1
  6
Continuous
 62
     7
100
AcDbLine
 10
320.0
 20
341.0681483474219
 30
0.0
 11
321.0352761804101
 21
337.2044450422656
 31
0.0
  0
LINE
  5
1A7
330
19D
100
AcDbEntity
  8
1
  6
Continuous
 62
     7
100
AcDbLine
 10
320.0
 20
341.0681483474219
 30
0.0
 11
318.9647238195899
 21
337.2044450422656
 31
0.0
  0
LINE
  5
1A8
330
19D
100
AcDbEntity
  8
1
  6
Continuous
 62
     7
100
AcDbLine
 10
321.0352761804101
 20
337.2044450422656
 30
0.0
 11
318.9647238195899
 21
337.2044450422656
 31
0.0
  0
LINE
  5
1A9
330
19D
100
AcDbEntity
  8
1
  6
Continuous
 62
     7
100
AcDbLine
 10
320.0
 20
165.0000000000014
 30
0.0
 11
317.9294476391798
 21
172.727406610314
 31
0.0
  0
LINE
  5
1AA
330
19D
100
AcDbEntity
  8
1
  6
Continuous
 62
     7
100
AcDbLine
 10
320.0
 20
165.0000000000014
 30
0.0
 11
322.0705523608202
 21
172.727406610314
 31
0.0
  0
LINE
  5
1AB
330
19D
100
AcDbEntity
  8
1
  6
Continuous
 62
     7
100
AcDbLine
 10
317.9294476391798
 20
172.727406610314
 30
0.0
 11
322.0705523608202
 21
172.727406610314
 31
0.0
  0
LINE
  5
1AC
330
19D
100
AcDbEntity
  8
1
  6
Continuous
 62
     7
100
AcDbLine
 10
320.0
 20
166.9318516525796
 30
0.0
 11
318.9647238195899
 21
170.7955549577358
 31
0.0
  0
LINE
  5
1AD
330
19D
100
AcDbEntity
  8
1
  6
Continuous
 62
     7
100
AcDbLine
 10
320.0
 20
166.9318516525796
 30
0.0
 11
321.0352761804101
 21
170.7955549577358
 31
0.0
  0
LINE
  5
1AE
330
19D
100
AcDbEntity
  8
1
  6
Continuous
 62
     7
100
AcDbLine
 10
318.9647238195899
 20
170.7955549577358
 30
0.0
 11
321.0352761804101
 21
170.7955549577358
 31
0.0
  0
MTEXT
  5
1AF
330
19D
100
AcDbEntity
  8
1
  6
Continuous
 62
     7
100
AcDbMText
 10
314.0000000000002
 20
254.0000000000007
 30
0.0
 40
12.0
 41
0.0
 71
     8
 72
     1
  1
178
 11
1.171455364582524E-15
 21
1.0
 31
0.0
 73
     1
 44
1.0
  0
ENDBLK
  5
19F
330
19D
100
AcDbEntity
  8
0
100
AcDbBlockEnd
  0
BLOCK
  5
1EE
330
1ED
100
AcDbEntity
  8
0
100
AcDbBlockBegin
  2
*G18
 70
     1
 71
     0
 10
0.0
 20
0.0
 30
0.0
  3
*G18
  1

  0
LINE
  5
1F0
330
1ED
100
AcDbEntity
  8
1
  6
Continuous
 62
     7
100
AcDbLine
 10
525.3284271247462
 20
373.2010101267767
 30
0.0
 11
542.2989898732234
 21
390.1715728752538
 31
0.0
  0
LINE
  5
1F1
330
1ED
100
AcDbEntity
  8
1
  6
Continuous
 62
     7
100
AcDbLine
 10
529.8046279793946
 20
374.3816646801445
 30
0.0
 11
528.1568548287544
 21
376.0294378307848
 31
0.0
  0
LINE
  5
1F2
330
1ED
100
AcDbEntity
  8
1
  6
Continuous
 62
     7
100
AcDbLine
 10
530.9852819535006
 20
378.8578649555311
 30
0.0
 11
533.5279800333094
 21
376.3151668757251
 31
0.0
  0
LINE
  5
1F3
330
1ED
100
AcDbEntity
  8
1
  6
Continuous
 62
     7
100
AcDbLine
 10
533.8137090782468
 20
381.6862920802773
 30
0.0
 11
536.642136202993
 21
378.8578649555311
 31
0.0
  0
LINE
  5
1F4
330
1ED
100
AcDbEntity
  8
1
  6
Continuous
 62
     7
100
AcDbLine
 10
536.642136202993
 20
384.5147192050235
 30
0.0
 11
539.184834046313
 21
381.9720213616961
 31
0.0
  0
LINE
  5
1F5
330
1ED
100
AcDbEntity
  8
1
  6
Continuous
 62
     7
100
AcDbLine
 10
539.4705633277392
 20
387.3431463297697
 30
0.0
 11
541.1183359727596
 21
385.695373684752
 31
0.0
  0
LINE
  5
1F6
330
1ED
100
AcDbEntity
  8
1
  6
Continuous
 62
     7
100
AcDbLine
 10
519.6715728752527
 20
373.2010101267758
 30
0.0
 11
542.2989898732243
 21
395.8284271247475
 31
0.0
  0
LINE
  5
1F7
330
1ED
100
AcDbEntity
  8
1
  6
Continuous
 62
     7
100
AcDbLine
 10
522.700011148801
 20
373.0010001364996
 30
0.0
 11
521.0857870168888
 21
374.6152242684117
 31
0.0
  0
LINE
  5
1F8
330
1ED
100
AcDbEntity
  8
1
  6
Continuous
 62
     7
100
AcDbLine
 10
526.7426412663813
 20
374.6152242684117
 30
0.0
 11
523.9142141416351
 21
377.4436513931579
 31
0.0
  0
LINE
  5
1F9
330
1ED
100
AcDbEntity
  8
1
  6
Continuous
 62
     7
100
AcDbLine
 10
529.5710683911275
 20
377.4436513931579
 30
0.0
 11
526.7426412663813
 21
380.2720785179041
 31
0.0
  0
LINE
  5
1FA
330
1ED
100
AcDbEntity
  8
1
  6
Continuous
 62
     7
100
AcDbLine
 10
529.5710683911275
 20
383.1005056426503
 30
0.0
 11
532.3994955158737
 21
380.2720785179041
 31
0.0
  0
LINE
  5
1FB
330
1ED
100
AcDbEntity
  8
1
  6
Continuous
 62
     7
100
AcDbLine
 10
532.3994955158737
 20
385.9289327673965
 30
0.0
 11
535.2279226406199
 21
383.1005056426503
 31
0.0
  0
LINE
  5
1FC
330
1ED
100
AcDbEntity
  8
1
  6
Continuous
 62
     7
100
AcDbLine
 10
535.2279226406199
 20
388.7573598921427
 30
0.0
 11
538.0563497653661
 21
385.9289327673965
 31
0.0
  0
LINE
  5
1FD
330
1ED
100
AcDbEntity
  8
1
  6
Continuous
 62
     7
100
AcDbLine
 10
538.0563497653661
 20
391.585787016889
 30
0.0
 11
540.8847768901123
 21
388.7573598921427
 31
0.0
  0
LINE
  5
1FE
330
1ED
100
AcDbEntity
  8
1
  6
Continuous
 62
     7
100
AcDbLine
 10
540.8847768901123
 20
394.4142141416352
 30
0.0
 11
542.4989998864402
 21
392.7999911452997
 31
0.0
  0
LINE
  5
1FF
330
1ED
100
AcDbEntity
  8
1
  6
Continuous
 62
     7
100
AcDbLine
 10
515.1953728526756
 20
374.3816643536911
 30
0.0
 11
541.1183356463089
 21
400.3046271473243
 31
0.0
  0
LINE
  5
200
330
1ED
100
AcDbEntity
  8
1
  6
Continuous
 62
     7
100
AcDbLine
 10
516.8431463297695
 20
376.0294378307848
 30
0.0
 11
519.6715734545157
 21
373.2010107060386
 31
0.0
  0
LINE
  5
201
330
1ED
100
AcDbEntity
  8
1
  6
Continuous
 62
     7
100
AcDbLine
 10
522.500000579262
 20
376.0294378307848
 30
0.0
 11
519.6715734545157
 21
378.857864955531
 31
0.0
  0
LINE
  5
202
330
1ED
100
AcDbEntity
  8
1
  6
Continuous
 62
     7
100
AcDbLine
 10
525.3284277040082
 20
378.857864955531
 30
0.0
 11
522.500000579262
 21
381.6862920802772
 31
0.0
  0
LINE
  5
203
330
1ED
100
AcDbEntity
  8
1
  6
Continuous
 62
     7
100
AcDbLine
 10
528.1568548287544
 20
381.6862920802772
 30
0.0
 11
525.3284277040082
 21
384.5147192050234
 31
0.0
  0
LINE
  5
204
330
1ED
100
AcDbEntity
  8
1
  6
Continuous
 62
     7
100
AcDbLine
 10
530.9852819535006
 20
384.5147192050234
 30
0.0
 11
528.1568548287544
 21
387.3431463297696
 31
0.0
  0
LINE
  5
205
330
1ED
100
AcDbEntity
  8
1
  6
Continuous
 62
     7
100
AcDbLine
 10
533.8137090782468
 20
387.3431463297696
 30
0.0
 11
530.9852819535006
 21
390.1715734545159
 31
0.0
  0
LINE
  5
206
330
1ED
100
AcDbEntity
  8
1
  6
Continuous
 62
     7
100
AcDbLine
 10
533.8137090782468
 20
393.0000005792621
 30
0.0
 11
536.642136202993
 21
390.1715734545159
 31
0.0
  0
LINE
  5
207
330
1ED
100
AcDbEntity
  8
1
  6
Continuous
 62
     7
100
AcDbLine
 10
536.642136202993
 20
395.8284277040083
 30
0.0
 11
539.4705633277392
 21
393.0000005792621
 31
0.0
  0
LINE
  5
208
330
1ED
100
AcDbEntity
  8
1
  6
Continuous
 62
     7
100
AcDbLine
 10
539.4705633277392
 20
398.6568548287545
 30
0.0
 11
542.2989896801356
 21
395.8284284763607
 31
0.0
  0
LINE
  5
209
330
1ED
100
AcDbEntity
  8
1
  6
Continuous
 62
     7
100
AcDbLine
 10
511.4720206641925
 20
376.3151664147002
 30
0.0
 11
539.1848335852999
 21
404.0279793358075
 31
0.0
  0
LINE
  5
20A
330
1ED
100
AcDbEntity
  8
1
  6
Continuous
 62
     7
100
AcDbLine
 10
515.4289327673964
 20
374.6152242684116
 30
0.0
 11
512.6005056426502
 21
377.4436513931578
 31
0.0
  0
LINE
  5
20B
330
1ED
100
AcDbEntity
  8
1
  6
Continuous
 62
     7
100
AcDbLine
 10
518.2573598921426
 20
377.4436513931578
 30
0.0
 11
515.4289327673964
 21
380.272078517904
 31
0.0
  0
LINE
  5
20C
330
1ED
100
AcDbEntity
  8
1
  6
Continuous
 62
     7
100
AcDbLine
 10
521.0857870168888
 20
380.272078517904
 30
0.0
 11
518.2573598921426
 21
383.1005056426503
 31
0.0
  0
LINE
  5
20D
330
1ED
100
AcDbEntity
  8
1
  6
Continuous
 62
     7
100
AcDbLine
 10
523.9142141416351
 20
383.1005056426503
 30
0.0
 11
521.0857870168888
 21
385.9289327673965
 31
0.0
  0
LINE
  5
20E
330
1ED
100
AcDbEntity
  8
1
  6
Continuous
 62
     7
100
AcDbLine
 10
526.7426412663813
 20
385.9289327673965
 30
0.0
 11
523.9142141416351
 21
388.7573598921427
 31
0.0
  0
LINE
  5
20F
330
1ED
100
AcDbEntity
  8
1
  6
Continuous
 62
     7
100
AcDbLine
 10
529.5710683911275
 20
388.7573598921427
 30
0.0
 11
526.7426412663813
 21
391.5857870168889
 31
0.0
  0
LINE
  5
210
330
1ED
100
AcDbEntity
  8
1
  6
Continuous
 62
     7
100
AcDbLine
 10
532.3994955158737
 20
391.5857870168889
 30
0.0
 11
529.5710683911275
 21
394.4142141416351
 31
0.0
  0
LINE
  5
211
330
1ED
100
AcDbEntity
  8
1
  6
Continuous
 62
     7
100
AcDbLine
 10
532.3994955158737
 20
397.2426412663813
 30
0.0
 11
535.2279226406199
 21
394.4142141416351
 31
0.0
  0
LINE
  5
212
330
1ED
100
AcDbEntity
  8
1
  6
Continuous
 62
     7
100
AcDbLine
 10
535.2279226406199
 20
400.0710683911275
 30
0.0
 11
538.0563497653661
 21
397.2426412663813
 31
0.0
  0
LINE
  5
213
330
1ED
100
AcDbEntity
  8
1
  6
Continuous
 62
     7
100
AcDbLine
 10
538.0563497653661
 20
402.8994955158738
 30
0.0
 11
540.8847768901123
 21
400.0710683911275
 31
0.0
  0
LINE
  5
214
330
1ED
100
AcDbEntity
  8
1
  6
Continuous
 62
     7
100
AcDbLine
 10
508.3578643762692
 20
378.8578643762688
 30
0.0
 11
536.6421356237312
 21
407.1421356237307
 31
0.0
  0
LINE
  5
215
330
1ED
100
AcDbEntity
  8
1
  6
Continuous
 62
     7
100
AcDbLine
 10
514.0147192050233
 20
378.8578649555309
 30
0.0
 11
511.1862920802771
 21
381.6862920802772
 31
0.0
  0
LINE
  5
216
330
1ED
100
AcDbEntity
  8
1
  6
Continuous
 62
     7
100
AcDbLine
 10
516.8431463297695
 20
381.6862920802772
 30
0.0
 11
514.0147192050233
 21
384.5147192050234
 31
0.0
  0
LINE
  5
217
330
1ED
100
AcDbEntity
  8
1
  6
Continuous
 62
     7
100
AcDbLine
 10
519.6715734545157
 20
384.5147192050234
 30
0.0
 11
516.8431463297695
 21
387.3431463297696
 31
0.0
  0
LINE
  5
218
330
1ED
100
AcDbEntity
  8
1
  6
Continuous
 62
     7
100
AcDbLine
 10
522.500000579262
 20
387.3431463297696
 30
0.0
 11
519.6715734545157
 21
390.1715734545158
 31
0.0
  0
LINE
  5
219
330
1ED
100
AcDbEntity
  8
1
  6
Continuous
 62
     7
100
AcDbLine
 10
525.3284277040082
 20
390.1715734545158
 30
0.0
 11
522.500000579262
 21
393.000000579262
 31
0.0
  0
LINE
  5
21A
330
1ED
100
AcDbEntity
  8
1
  6
Continuous
 62
     7
100
AcDbLine
 10
528.1568548287544
 20
393.000000579262
 30
0.0
 11
525.3284277040082
 21
395.8284277040082
 31
0.0
  0
LINE
  5
21B
330
1ED
100
AcDbEntity
  8
1
  6
Continuous
 62
     7
100
AcDbLine
 10
530.9852819535006
 20
395.8284277040082
 30
0.0
 11
528.1568548287544
 21
398.6568548287544
 31
0.0
  0
LINE
  5
21C
330
1ED
100
AcDbEntity
  8
1
  6
Continuous
 62
     7
100
AcDbLine
 10
533.8137090782468
 20
398.6568548287544
 30
0.0
 11
530.9852819535006
 21
401.4852819535006
 31
0.0
  0
LINE
  5
21D
330
1ED
100
AcDbEntity
  8
1
  6
Continuous
 62
     7
100
AcDbLine
 10
533.8137090782468
 20
404.3137090782469
 30
0.0
 11
536.642136202993
 21
401.4852819535006
 31
0.0
  0
LINE
  5
21E
330
1ED
100
AcDbEntity
  8
1
  6
Continuous
 62
     7
100
AcDbLine
 10
505.8151664147028
 20
381.972020664195
 30
0.0
 11
533.527979335805
 21
409.6848335852972
 31
0.0
  0
LINE
  5
21F
330
1ED
100
AcDbEntity
  8
1
  6
Continuous
 62
     7
100
AcDbLine
 10
509.772078517904
 20
380.272078517904
 30
0.0
 11
506.9436513931579
 21
383.1005056426502
 31
0.0
  0
LINE
  5
220
330
1ED
100
AcDbEntity
  8
1
  6
Continuous
 62
     7
100
AcDbLine
 10
512.6005056426502
 20
383.1005056426502
 30
0.0
 11
509.7720785179041
 21
385.9289327673964
 31
0.0
  0
LINE
  5
221
330
1ED
100
AcDbEntity
  8
1
  6
Continuous
 62
     7
100
AcDbLine
 10
515.4289327673964
 20
385.9289327673964
 30
0.0
 11
512.6005056426503
 21
388.7573598921426
 31
0.0
  0
LINE
  5
222
330
1ED
100
AcDbEntity
  8
1
  6
Continuous
 62
     7
100
AcDbLine
 10
518.2573598921426
 20
388.7573598921426
 30
0.0
 11
515.4289327673965
 21
391.5857870168888
 31
0.0
  0
LINE
  5
223
330
1ED
100
AcDbEntity
  8
1
  6
Continuous
 62
     7
100
AcDbLine
 10
521.0857870168888
 20
391.5857870168888
 30
0.0
 11
518.2573598921427
 21
394.4142141416351
 31
0.0
  0
LINE
  5
224
330
1ED
100
AcDbEntity
  8
1
  6
Continuous
 62
     7
100
AcDbLine
 10
523.9142141416351
 20
394.4142141416351
 30
0.0
 11
521.085787016889
 21
397.2426412663813
 31
0.0
  0
LINE
  5
225
330
1ED
100
AcDbEntity
  8
1
  6
Continuous
 62
     7
100
AcDbLine
 10
526.7426412663813
 20
397.2426412663813
 30
0.0
 11
523.9142141416352
 21
400.0710683911275
 31
0.0
  0
LINE
  5
226
330
1ED
100
AcDbEntity
  8
1
  6
Continuous
 62
     7
100
AcDbLine
 10
529.5710683911275
 20
400.0710683911275
 30
0.0
 11
526.7426412663814
 21
402.8994955158737
 31
0.0
  0
LINE
  5
227
330
1ED
100
AcDbEntity
  8
1
  6
Continuous
 62
     7
100
AcDbLine
 10
529.5710683911276
 20
405.7279226406199
 30
0.0
 11
532.3994955158738
 21
402.8994955158737
 31
0.0
  0
LINE
  5
228
330
1ED
100
AcDbEntity
  8
1
  6
Continuous
 62
     7
100
AcDbLine
 10
532.3994955158738
 20
408.5563497653661
 30
0.0
 11
535.22792264062
 21
405.7279226406199
 31
0.0
  0
LINE
  5
229
330
1ED
100
AcDbEntity
  8
1
  6
Continuous
 62
     7
100
AcDbLine
 10
503.88166435369
 20
385.695372852675
 30
0.0
 11
529.8046271473252
 21
411.61833564631
 31
0.0
  0
LINE
  5
22A
330
1ED
100
AcDbEntity
  8
1
  6
Continuous
 62
     7
100
AcDbLine
 10
508.3578649555309
 20
384.5147192050233
 30
0.0
 11
505.5294378307848
 21
387.3431463297695
 31
0.0
  0
LINE
  5
22B
330
1ED
100
AcDbEntity
  8
1
  6
Continuous
 62
     7
100
AcDbLine
 10
511.1862920802771
 20
387.3431463297695
 30
0.0
 11
508.357864955531
 21
390.1715734545157
 31
0.0
  0
LINE
  5
22C
330
1ED
100
AcDbEntity
  8
1
  6
Continuous
 62
     7
100
AcDbLine
 10
514.0147192050233
 20
390.1715734545157
 30
0.0
 11
511.1862920802772
 21
393.000000579262
 31
0.0
  0
LINE
  5
22D
330
1ED
100
AcDbEntity
  8
1
  6
Continuous
 62
     7
100
AcDbLine
 10
516.8431463297695
 20
393.000000579262
 30
0.0
 11
514.0147192050234
 21
395.8284277040082
 31
0.0
  0
LINE
  5
22E
330
1ED
100
AcDbEntity
  8
1
  6
Continuous
 62
     7
100
AcDbLine
 10
519.6715734545157
 20
395.8284277040082
 30
0.0
 11
516.8431463297696
 21
398.6568548287544
 31
0.0
  0
LINE
  5
22F
330
1ED
100
AcDbEntity
  8
1
  6
Continuous
 62
     7
100
AcDbLine
 10
522.500000579262
 20
398.6568548287544
 30
0.0
 11
519.6715734545159
 21
401.4852819535006
 31
0.0
  0
LINE
  5
230
330
1ED
100
AcDbEntity
  8
1
  6
Continuous
 62
     7
100
AcDbLine
 10
525.3284277040082
 20
401.4852819535006
 30
0.0
 11
522.5000005792621
 21
404.3137090782468
 31
0.0
  0
LINE
  5
231
330
1ED
100
AcDbEntity
  8
1
  6
Continuous
 62
     7
100
AcDbLine
 10
528.1568548287544
 20
404.3137090782468
 30
0.0
 11
525.3284277040083
 21
407.142136202993
 31
0.0
  0
LINE
  5
232
330
1ED
100
AcDbEntity
  8
1
  6
Continuous
 62
     7
100
AcDbLine
 10
530.9852819535006
 20
407.142136202993
 30
0.0
 11
528.1568548287545
 21
409.9705633277392
 31
0.0
  0
LINE
  5
233
330
1ED
100
AcDbEntity
  8
1
  6
Continuous
 62
     7
100
AcDbLine
 10
502.7010101267767
 20
390.1715728752538
 30
0.0
 11
525.3284271247462
 21
412.7989898732233
 31
0.0
  0
LINE
  5
234
330
1ED
100
AcDbEntity
  8
1
  6
Continuous
 62
     7
100
AcDbLine
 10
504.1152242684117
 20
385.9289327673964
 30
0.0
 11
503.6076633189115
 21
386.4364937168971
 31
0.0
  0
LINE
  5
235
330
1ED
100
AcDbEntity
  8
1
  6
Continuous
 62
     7
100
AcDbLine
 10
506.9436513931579
 20
388.7573598921426
 30
0.0
 11
504.1152242684118
 21
391.5857870168888
 31
0.0
  0
LINE
  5
236
330
1ED
100
AcDbEntity
  8
1
  6
Continuous
 62
     7
100
AcDbLine
 10
509.7720785179041
 20
391.5857870168888
 30
0.0
 11
506.943651393158
 21
394.4142141416351
 31
0.0
  0
LINE
  5
237
330
1ED
100
AcDbEntity
  8
1
  6
Continuous
 62
     7
100
AcDbLine
 10
512.6005056426503
 20
394.4142141416351
 30
0.0
 11
509.7720785179042
 21
397.2426412663813
 31
0.0
  0
LINE
  5
238
330
1ED
100
AcDbEntity
  8
1
  6
Continuous
 62
     7
100
AcDbLine
 10
515.4289327673965
 20
397.2426412663813
 30
0.0
 11
512.6005056426504
 21
400.0710683911275
 31
0.0
  0
LINE
  5
239
330
1ED
100
AcDbEntity
  8
1
  6
Continuous
 62
     7
100
AcDbLine
 10
518.2573598921427
 20
400.0710683911275
 30
0.0
 11
515.4289327673966
 21
402.8994955158737
 31
0.0
  0
LINE
  5
23A
330
1ED
100
AcDbEntity
  8
1
  6
Continuous
 62
     7
100
AcDbLine
 10
521.085787016889
 20
402.8994955158737
 30
0.0
 11
518.2573598921429
 21
405.7279226406199
 31
0.0
  0
LINE
  5
23B
330
1ED
100
AcDbEntity
  8
1
  6
Continuous
 62
     7
100
AcDbLine
 10
523.9142141416352
 20
405.7279226406199
 30
0.0
 11
521.0857870168891
 21
408.5563497653661
 31
0.0
  0
LINE
  5
23C
330
1ED
100
AcDbEntity
  8
1
  6
Continuous
 62
     7
100
AcDbLine
 10
526.7426412663814
 20
408.5563497653661
 30
0.0
 11
523.9142141416353
 21
411.3847768901123
 31
0.0
  0
LINE
  5
23D
330
1ED
100
AcDbEntity
  8
1
  6
Continuous
 62
     7
100
AcDbLine
 10
529.5710683911276
 20
411.3847768901123
 30
0.0
 11
529.0635098336822
 21
411.8923354475578
 31
0.0
  0
LINE
  5
23E
330
1ED
100
AcDbEntity
  8
1
  6
Continuous
 62
     7
100
AcDbLine
 10
502.7010101267766
 20
395.8284271247462
 30
0.0
 11
519.6715728752538
 21
412.7989898732233
 31
0.0
  0
LINE
  5
23F
330
1ED
100
AcDbEntity
  8
1
  6
Continuous
 62
     7
100
AcDbLine
 10
505.5294378307848
 20
393.0000005792619
 30
0.0
 11
502.7010107060387
 21
395.8284277040081
 31
0.0
  0
LINE
  5
240
330
1ED
100
AcDbEntity
  8
1
  6
Continuous
 62
     7
100
AcDbLine
 10
508.357864955531
 20
395.8284277040081
 30
0.0
 11
505.5294378307849
 21
398.6568548287543
 31
0.0
  0
LINE
  5
241
330
1ED
100
AcDbEntity
  8
1
  6
Continuous
 62
     7
100
AcDbLine
 10
511.1862920802772
 20
398.6568548287543
 30
0.0
 11
508.3578649555311
 21
401.4852819535005
 31
0.0
  0
LINE
  5
242
330
1ED
100
AcDbEntity
  8
1
  6
Continuous
 62
     7
100
AcDbLine
 10
514.0147192050234
 20
401.4852819535005
 30
0.0
 11
511.1862920802773
 21
404.3137090782467
 31
0.0
  0
LINE
  5
243
330
1ED
100
AcDbEntity
  8
1
  6
Continuous
 62
     7
100
AcDbLine
 10
516.8431463297696
 20
404.3137090782467
 30
0.0
 11
514.0147192050235
 21
407.142136202993
 31
0.0
  0
LINE
  5
244
330
1ED
100
AcDbEntity
  8
1
  6
Continuous
 62
     7
100
AcDbLine
 10
519.6715734545159
 20
407.142136202993
 30
0.0
 11
516.8431463297698
 21
409.9705633277392
 31
0.0
  0
LINE
  5
245
330
1ED
100
AcDbEntity
  8
1
  6
Continuous
 62
     7
100
AcDbLine
 10
522.5000005792621
 20
409.9705633277392
 30
0.0
 11
519.6715738889626
 21
412.798990018039
 31
0.0
  0
LINE
  5
246
330
1ED
100
AcDbEntity
  8
1
  6
Continuous
 62
     7
100
AcDbLine
 10
504.1152242684117
 20
397.2426412663812
 30
0.0
 11
503.181483719045
 21
398.1763818157485
 31
0.0
  0
LINE
  5
247
330
1ED
100
AcDbEntity
  8
1
  6
Continuous
 62
     7
100
AcDbLine
 10
506.9436513931579
 20
400.0710683911274
 30
0.0
 11
504.7666221467414
 21
402.2480976375444
 31
0.0
  0
LINE
  5
248
330
1ED
100
AcDbEntity
  8
1
  6
Continuous
 62
     7
100
AcDbLine
 10
509.7720785179041
 20
402.8994955158736
 30
0.0
 11
507.0145396792019
 21
405.6570343545764
 31
0.0
  0
LINE
  5
249
330
1ED
100
AcDbEntity
  8
1
  6
Continuous
 62
     7
100
AcDbLine
 10
512.6005056426503
 20
405.7279226406198
 30
0.0
 11
509.8429669203842
 21
408.4854613628864
 31
0.0
  0
LINE
  5
24A
330
1ED
100
AcDbEntity
  8
1
  6
Continuous
 62
     7
100
AcDbLine
 10
515.4289327673965
 20
408.556349765366
 30
0.0
 11
513.2519038853202
 21
410.733378647443
 31
0.0
  0
LINE
  5
24B
330
1ED
100
AcDbEntity
  8
1
  6
Continuous
 62
     7
100
AcDbLine
 10
518.2573598921427
 20
411.3847768901122
 30
0.0
 11
517.3236200116502
 21
412.3185167706052
 31
0.0
  0
ENDBLK
  5
1EF
330
1ED
100
AcDbEntity
  8
0
100
AcDbBlockEnd
  0
BLOCK
  5
24E
330
24D
100
AcDbEntity
  8
0
100
AcDbBlockBegin
  2
*G19
 70
     1
 71
     0
 10
0.0
 20
0.0
 30
0.0
  3
*G19
  1

  0
LINE
  5
250
330
24D
100
AcDbEntity
  8
1
  6
Continuous
 62
     7
100
AcDbLine
 10
920.3284271247462
 20
373.2010101267768
 30
0.0
 11
937.2989898732234
 21
390.171572875254
 31
0.0
  0
LINE
  5
251
330
24D
100
AcDbEntity
  8
1
  6
Continuous
 62
     7
100
AcDbLine
 10
923.1568548287545
 20
376.0294378307848
 30
0.0
 11
924.8046279793881
 21
374.381664680138
 31
0.0
  0
LINE
  5
252
330
24D
100
AcDbEntity
  8
1
  6
Continuous
 62
     7
100
AcDbLine
 10
925.9852819535007
 20
378.8578649555311
 30
0.0
 11
928.5279800333149
 21
376.3151668757241
 31
0.0
  0
LINE
  5
253
330
24D
100
AcDbEntity
  8
1
  6
Continuous
 62
     7
100
AcDbLine
 10
928.8137090782469
 20
381.6862920802773
 30
0.0
 11
931.6421362029931
 21
378.8578649555311
 31
0.0
  0
LINE
  5
254
330
24D
100
AcDbEntity
  8
1
  6
Continuous
 62
     7
100
AcDbLine
 10
931.6421362029931
 20
384.5147192050235
 30
0.0
 11
934.1848340463121
 21
381.972021361691
 31
0.0
  0
LINE
  5
255
330
24D
100
AcDbEntity
  8
1
  6
Continuous
 62
     7
100
AcDbLine
 10
934.4705633277393
 20
387.3431463297697
 30
0.0
 11
936.1183359727619
 21
385.6953736847541
 31
0.0
  0
LINE
  5
256
330
24D
100
AcDbEntity
  8
1
  6
Continuous
 62
     7
100
AcDbLine
 10
914.6715728752558
 20
373.2010101267789
 30
0.0
 11
937.298989873221
 21
395.8284271247442
 31
0.0
  0
LINE
  5
257
330
24D
100
AcDbEntity
  8
1
  6
Continuous
 62
     7
100
AcDbLine
 10
916.085787016889
 20
374.6152242684117
 30
0.0
 11
917.7000111488106
 21
373.0010001364975
 31
0.0
  0
LINE
  5
258
330
24D
100
AcDbEntity
  8
1
  6
Continuous
 62
     7
100
AcDbLine
 10
918.9142141416352
 20
377.4436513931579
 30
0.0
 11
921.7426412663814
 21
374.6152242684117
 31
0.0
  0
LINE
  5
259
330
24D
100
AcDbEntity
  8
1
  6
Continuous
 62
     7
100
AcDbLine
 10
921.7426412663814
 20
380.2720785179042
 30
0.0
 11
924.5710683911276
 21
377.4436513931579
 31
0.0
  0
LINE
  5
25A
330
24D
100
AcDbEntity
  8
1
  6
Continuous
 62
     7
100
AcDbLine
 10
924.5710683911276
 20
383.1005056426504
 30
0.0
 11
927.3994955158738
 21
380.2720785179042
 31
0.0
  0
LINE
  5
25B
330
24D
100
AcDbEntity
  8
1
  6
Continuous
 62
     7
100
AcDbLine
 10
927.3994955158738
 20
385.9289327673966
 30
0.0
 11
930.22792264062
 21
383.1005056426504
 31
0.0
  0
LINE
  5
25C
330
24D
100
AcDbEntity
  8
1
  6
Continuous
 62
     7
100
AcDbLine
 10
930.22792264062
 20
388.7573598921428
 30
0.0
 11
933.0563497653662
 21
385.9289327673966
 31
0.0
  0
LINE
  5
25D
330
24D
100
AcDbEntity
  8
1
  6
Continuous
 62
     7
100
AcDbLine
 10
933.0563497653662
 20
391.585787016889
 30
0.0
 11
935.8847768901124
 21
388.7573598921428
 31
0.0
  0
LINE
  5
25E
330
24D
100
AcDbEntity
  8
1
  6
Continuous
 62
     7
100
AcDbLine
 10
935.8847768901124
 20
394.4142141416352
 30
0.0
 11
937.4989998864447
 21
392.7999911453098
 31
0.0
  0
LINE
  5
25F
330
24D
100
AcDbEntity
  8
1
  6
Continuous
 62
     7
100
AcDbLine
 10
910.1953728526768
 20
374.3816643536921
 30
0.0
 11
936.118335646308
 21
400.3046271473235
 31
0.0
  0
LINE
  5
260
330
24D
100
AcDbEntity
  8
1
  6
Continuous
 62
     7
100
AcDbLine
 10
914.6715742268498
 20
373.2010099336916
 30
0.0
 11
911.8431463297698
 21
376.0294378307847
 31
0.0
  0
LINE
  5
261
330
24D
100
AcDbEntity
  8
1
  6
Continuous
 62
     7
100
AcDbLine
 10
914.671573454516
 20
378.8578649555309
 30
0.0
 11
917.5000005792622
 21
376.0294378307847
 31
0.0
  0
LINE
  5
262
330
24D
100
AcDbEntity
  8
1
  6
Continuous
 62
     7
100
AcDbLine
 10
917.5000005792622
 20
381.6862920802772
 30
0.0
 11
920.3284277040084
 21
378.8578649555309
 31
0.0
  0
LINE
  5
263
330
24D
100
AcDbEntity
  8
1
  6
Continuous
 62
     7
100
AcDbLine
 10
920.3284277040084
 20
384.5147192050234
 30
0.0
 11
923.1568548287546
 21
381.6862920802772
 31
0.0
  0
LINE
  5
264
330
24D
100
AcDbEntity
  8
1
  6
Continuous
 62
     7
100
AcDbLine
 10
923.1568548287546
 20
387.3431463297696
 30
0.0
 11
925.9852819535008
 21
384.5147192050234
 31
0.0
  0
LINE
  5
265
330
24D
100
AcDbEntity
  8
1
  6
Continuous
 62
     7
100
AcDbLine
 10
925.9852819535008
 20
390.1715734545158
 30
0.0
 11
928.813709078247
 21
387.3431463297696
 31
0.0
  0
LINE
  5
266
330
24D
100
AcDbEntity
  8
1
  6
Continuous
 62
     7
100
AcDbLine
 10
928.813709078247
 20
393.000000579262
 30
0.0
 11
931.6421362029932
 21
390.1715734545158
 31
0.0
  0
LINE
  5
267
330
24D
100
AcDbEntity
  8
1
  6
Continuous
 62
     7
100
AcDbLine
 10
931.6421362029932
 20
395.8284277040082
 30
0.0
 11
934.4705633277395
 21
393.000000579262
 31
0.0
  0
LINE
  5
268
330
24D
100
AcDbEntity
  8
1
  6
Continuous
 62
     7
100
AcDbLine
 10
934.4705633277395
 20
398.6568548287544
 30
0.0
 11
937.2989896801361
 21
395.8284284763645
 31
0.0
  0
LINE
  5
269
330
24D
100
AcDbEntity
  8
1
  6
Continuous
 62
     7
100
AcDbLine
 10
906.4720206641973
 20
376.3151664147042
 30
0.0
 11
934.1848335852959
 21
404.0279793358027
 31
0.0
  0
LINE
  5
26A
330
24D
100
AcDbEntity
  8
1
  6
Continuous
 62
     7
100
AcDbLine
 10
907.6005056426504
 20
377.4436513931578
 30
0.0
 11
910.4289327673966
 21
374.6152242684116
 31
0.0
  0
LINE
  5
26B
330
24D
100
AcDbEntity
  8
1
  6
Continuous
 62
     7
100
AcDbLine
 10
910.4289327673966
 20
380.272078517904
 30
0.0
 11
913.2573598921429
 21
377.4436513931578
 31
0.0
  0
LINE
  5
26C
330
24D
100
AcDbEntity
  8
1
  6
Continuous
 62
     7
100
AcDbLine
 10
913.2573598921429
 20
383.1005056426503
 30
0.0
 11
916.0857870168891
 21
380.272078517904
 31
0.0
  0
LINE
  5
26D
330
24D
100
AcDbEntity
  8
1
  6
Continuous
 62
     7
100
AcDbLine
 10
916.0857870168891
 20
385.9289327673965
 30
0.0
 11
918.9142141416353
 21
383.1005056426503
 31
0.0
  0
LINE
  5
26E
330
24D
100
AcDbEntity
  8
1
  6
Continuous
 62
     7
100
AcDbLine
 10
918.9142141416353
 20
388.7573598921427
 30
0.0
 11
921.7426412663815
 21
385.9289327673965
 31
0.0
  0
LINE
  5
26F
330
24D
100
AcDbEntity
  8
1
  6
Continuous
 62
     7
100
AcDbLine
 10
921.7426412663815
 20
391.5857870168889
 30
0.0
 11
924.5710683911277
 21
388.7573598921427
 31
0.0
  0
LINE
  5
270
330
24D
100
AcDbEntity
  8
1
  6
Continuous
 62
     7
100
AcDbLine
 10
924.5710683911277
 20
394.4142141416351
 30
0.0
 11
927.3994955158739
 21
391.5857870168889
 31
0.0
  0
LINE
  5
271
330
24D
100
AcDbEntity
  8
1
  6
Continuous
 62
     7
100
AcDbLine
 10
927.3994955158739
 20
397.2426412663813
 30
0.0
 11
930.2279226406201
 21
394.4142141416351
 31
0.0
  0
LINE
  5
272
330
24D
100
AcDbEntity
  8
1
  6
Continuous
 62
     7
100
AcDbLine
 10
930.2279226406201
 20
400.0710683911275
 30
0.0
 11
933.0563497653663
 21
397.2426412663813
 31
0.0
  0
LINE
  5
273
330
24D
100
AcDbEntity
  8
1
  6
Continuous
 62
     7
100
AcDbLine
 10
933.0563497653663
 20
402.8994955158738
 30
0.0
 11
935.8847768901126
 21
400.0710683911275
 31
0.0
  0
LINE
  5
274
330
24D
100
AcDbEntity
  8
1
  6
Continuous
 62
     7
100
AcDbLine
 10
903.357864376269
 20
378.8578643762692
 30
0.0
 11
931.642135623731
 21
407.1421356237311
 31
0.0
  0
LINE
  5
275
330
24D
100
AcDbEntity
  8
1
  6
Continuous
 62
     7
100
AcDbLine
 10
906.1862920802773
 20
381.6862920802772
 30
0.0
 11
909.0147192050235
 21
378.8578649555309
 31
0.0
  0
LINE
  5
276
330
24D
100
AcDbEntity
  8
1
  6
Continuous
 62
     7
100
AcDbLine
 10
909.0147192050235
 20
384.5147192050234
 30
0.0
 11
911.8431463297698
 21
381.6862920802772
 31
0.0
  0
LINE
  5
277
330
24D
100
AcDbEntity
  8
1
  6
Continuous
 62
     7
100
AcDbLine
 10
911.8431463297698
 20
387.3431463297696
 30
0.0
 11
914.671573454516
 21
384.5147192050234
 31
0.0
  0
LINE
  5
278
330
24D
100
AcDbEntity
  8
1
  6
Continuous
 62
     7
100
AcDbLine
 10
914.671573454516
 20
390.1715734545158
 30
0.0
 11
917.5000005792622
 21
387.3431463297696
 31
0.0
  0
LINE
  5
279
330
24D
100
AcDbEntity
  8
1
  6
Continuous
 62
     7
100
AcDbLine
 10
917.5000005792622
 20
393.000000579262
 30
0.0
 11
920.3284277040084
 21
390.1715734545158
 31
0.0
  0
LINE
  5
27A
330
24D
100
AcDbEntity
  8
1
  6
Continuous
 62
     7
100
AcDbLine
 10
920.3284277040084
 20
395.8284277040082
 30
0.0
 11
923.1568548287546
 21
393.000000579262
 31
0.0
  0
LINE
  5
27B
330
24D
100
AcDbEntity
  8
1
  6
Continuous
 62
     7
100
AcDbLine
 10
923.1568548287546
 20
398.6568548287544
 30
0.0
 11
925.9852819535008
 21
395.8284277040082
 31
0.0
  0
LINE
  5
27C
330
24D
100
AcDbEntity
  8
1
  6
Continuous
 62
     7
100
AcDbLine
 10
925.9852819535008
 20
401.4852819535006
 30
0.0
 11
928.813709078247
 21
398.6568548287544
 31
0.0
  0
LINE
  5
27D
330
24D
100
AcDbEntity
  8
1
  6
Continuous
 62
     7
100
AcDbLine
 10
928.813709078247
 20
404.3137090782469
 30
0.0
 11
931.6421362029932
 21
401.4852819535006
 31
0.0
  0
LINE
  5
27E
330
24D
100
AcDbEntity
  8
1
  6
Continuous
 62
     7
100
AcDbLine
 10
900.8151664147035
 20
381.9720206641962
 30
0.0
 11
928.5279793358038
 21
409.6848335852965
 31
0.0
  0
LINE
  5
27F
330
24D
100
AcDbEntity
  8
1
  6
Continuous
 62
     7
100
AcDbLine
 10
901.943651393158
 20
383.1005056426503
 30
0.0
 11
904.7720785179042
 21
380.272078517904
 31
0.0
  0
LINE
  5
280
330
24D
100
AcDbEntity
  8
1
  6
Continuous
 62
     7
100
AcDbLine
 10
904.7720785179042
 20
385.9289327673965
 30
0.0
 11
907.6005056426504
 21
383.1005056426503
 31
0.0
  0
LINE
  5
281
330
24D
100
AcDbEntity
  8
1
  6
Continuous
 62
     7
100
AcDbLine
 10
907.6005056426504
 20
388.7573598921427
 30
0.0
 11
910.4289327673966
 21
385.9289327673965
 31
0.0
  0
LINE
  5
282
330
24D
100
AcDbEntity
  8
1
  6
Continuous
 62
     7
100
AcDbLine
 10
910.4289327673966
 20
391.5857870168889
 30
0.0
 11
913.2573598921429
 21
388.7573598921427
 31
0.0
  0
LINE
  5
283
330
24D
100
AcDbEntity
  8
1
  6
Continuous
 62
     7
100
AcDbLine
 10
913.2573598921429
 20
394.4142141416351
 30
0.0
 11
916.0857870168891
 21
391.5857870168889
 31
0.0
  0
LINE
  5
284
330
24D
100
AcDbEntity
  8
1
  6
Continuous
 62
     7
100
AcDbLine
 10
916.0857870168891
 20
397.2426412663813
 30
0.0
 11
918.9142141416353
 21
394.4142141416351
 31
0.0
  0
LINE
  5
285
330
24D
100
AcDbEntity
  8
1
  6
Continuous
 62
     7
100
AcDbLine
 10
918.9142141416353
 20
400.0710683911275
 30
0.0
 11
921.7426412663815
 21
397.2426412663813
 31
0.0
  0
LINE
  5
286
330
24D
100
AcDbEntity
  8
1
  6
Continuous
 62
     7
100
AcDbLine
 10
921.7426412663815
 20
402.8994955158738
 30
0.0
 11
924.5710683911277
 21
400.0710683911275
 31
0.0
  0
LINE
  5
287
330
24D
100
AcDbEntity
  8
1
  6
Continuous
 62
     7
100
AcDbLine
 10
924.5710683911277
 20
405.72792264062
 30
0.0
 11
927.3994955158739
 21
402.8994955158738
 31
0.0
  0
LINE
  5
288
330
24D
100
AcDbEntity
  8
1
  6
Continuous
 62
     7
100
AcDbLine
 10
927.3994955158739
 20
408.5563497653662
 30
0.0
 11
930.2279226406201
 21
405.72792264062
 31
0.0
  0
LINE
  5
289
330
24D
100
AcDbEntity
  8
1
  6
Continuous
 62
     7
100
AcDbLine
 10
898.8816643536918
 20
385.6953728526768
 30
0.0
 11
924.8046271473232
 21
411.6183356463083
 31
0.0
  0
LINE
  5
28A
330
24D
100
AcDbEntity
  8
1
  6
Continuous
 62
     7
100
AcDbLine
 10
900.5294378307849
 20
387.3431463297695
 30
0.0
 11
903.3578649555311
 21
384.5147192050233
 31
0.0
  0
LINE
  5
28B
330
24D
100
AcDbEntity
  8
1
  6
Continuous
 62
     7
100
AcDbLine
 10
903.3578649555311
 20
390.1715734545157
 30
0.0
 11
906.1862920802773
 21
387.3431463297695
 31
0.0
  0
LINE
  5
28C
330
24D
100
AcDbEntity
  8
1
  6
Continuous
 62
     7
100
AcDbLine
 10
906.1862920802773
 20
393.0000005792619
 30
0.0
 11
909.0147192050235
 21
390.1715734545157
 31
0.0
  0
LINE
  5
28D
330
24D
100
AcDbEntity
  8
1
  6
Continuous
 62
     7
100
AcDbLine
 10
909.0147192050235
 20
395.8284277040081
 30
0.0
 11
911.8431463297698
 21
393.0000005792619
 31
0.0
  0
LINE
  5
28E
330
24D
100
AcDbEntity
  8
1
  6
Continuous
 62
     7
100
AcDbLine
 10
911.8431463297698
 20
398.6568548287543
 30
0.0
 11
914.671573454516
 21
395.8284277040081
 31
0.0
  0
LINE
  5
28F
330
24D
100
AcDbEntity
  8
1
  6
Continuous
 62
     7
100
AcDbLine
 10
914.671573454516
 20
401.4852819535005
 30
0.0
 11
917.5000005792622
 21
398.6568548287543
 31
0.0
  0
LINE
  5
290
330
24D
100
AcDbEntity
  8
1
  6
Continuous
 62
     7
100
AcDbLine
 10
917.5000005792622
 20
404.3137090782467
 30
0.0
 11
920.3284277040084
 21
401.4852819535005
 31
0.0
  0
LINE
  5
291
330
24D
100
AcDbEntity
  8
1
  6
Continuous
 62
     7
100
AcDbLine
 10
920.3284277040084
 20
407.142136202993
 30
0.0
 11
923.1568548287546
 21
404.3137090782467
 31
0.0
  0
LINE
  5
292
330
24D
100
AcDbEntity
  8
1
  6
Continuous
 62
     7
100
AcDbLine
 10
923.1568548287546
 20
409.9705633277392
 30
0.0
 11
925.9852819535008
 21
407.142136202993
 31
0.0
  0
LINE
  5
293
330
24D
100
AcDbEntity
  8
1
  6
Continuous
 62
     7
100
AcDbLine
 10
897.7010101267756
 20
390.171572875253
 30
0.0
 11
920.3284271247472
 21
412.7989898732246
 31
0.0
  0
LINE
  5
294
330
24D
100
AcDbEntity
  8
1
  6
Continuous
 62
     7
100
AcDbLine
 10
898.6076633189133
 20
386.4364937168819
 30
0.0
 11
899.1152242684118
 21
385.9289327673964
 31
0.0
  0
LINE
  5
295
330
24D
100
AcDbEntity
  8
1
  6
Continuous
 62
     7
100
AcDbLine
 10
899.1152242684118
 20
391.5857870168888
 30
0.0
 11
901.943651393158
 21
388.7573598921426
 31
0.0
  0
LINE
  5
296
330
24D
100
AcDbEntity
  8
1
  6
Continuous
 62
     7
100
AcDbLine
 10
901.943651393158
 20
394.4142141416351
 30
0.0
 11
904.7720785179042
 21
391.5857870168888
 31
0.0
  0
LINE
  5
297
330
24D
100
AcDbEntity
  8
1
  6
Continuous
 62
     7
100
AcDbLine
 10
904.7720785179042
 20
397.2426412663813
 30
0.0
 11
907.6005056426504
 21
394.4142141416351
 31
0.0
  0
LINE
  5
298
330
24D
100
AcDbEntity
  8
1
  6
Continuous
 62
     7
100
AcDbLine
 10
907.6005056426504
 20
400.0710683911275
 30
0.0
 11
910.4289327673966
 21
397.2426412663813
 31
0.0
  0
LINE
  5
299
330
24D
100
AcDbEntity
  8
1
  6
Continuous
 62
     7
100
AcDbLine
 10
910.4289327673966
 20
402.8994955158737
 30
0.0
 11
913.2573598921429
 21
400.0710683911275
 31
0.0
  0
LINE
  5
29A
330
24D
100
AcDbEntity
  8
1
  6
Continuous
 62
     7
100
AcDbLine
 10
913.2573598921429
 20
405.7279226406199
 30
0.0
 11
916.0857870168891
 21
402.8994955158737
 31
0.0
  0
LINE
  5
29B
330
24D
100
AcDbEntity
  8
1
  6
Continuous
 62
     7
100
AcDbLine
 10
916.0857870168891
 20
408.5563497653661
 30
0.0
 11
918.9142141416353
 21
405.7279226406199
 31
0.0
  0
LINE
  5
29C
330
24D
100
AcDbEntity
  8
1
  6
Continuous
 62
     7
100
AcDbLine
 10
918.9142141416353
 20
411.3847768901123
 30
0.0
 11
921.7426412663815
 21
408.5563497653661
 31
0.0
  0
LINE
  5
29D
330
24D
100
AcDbEntity
  8
1
  6
Continuous
 62
     7
100
AcDbLine
 10
924.0635098336539
 20
411.8923354475722
 30
0.0
 11
924.5710683911277
 21
411.3847768901123
 31
0.0
  0
LINE
  5
29E
330
24D
100
AcDbEntity
  8
1
  6
Continuous
 62
     7
100
AcDbLine
 10
897.7010101267743
 20
395.8284271247431
 30
0.0
 11
914.6715728752572
 21
412.7989898732258
 31
0.0
  0
LINE
  5
29F
330
24D
100
AcDbEntity
  8
1
  6
Continuous
 62
     7
100
AcDbLine
 10
900.5294378307849
 20
393.0000005792619
 30
0.0
 11
897.7010107060387
 21
395.8284277040081
 31
0.0
  0
LINE
  5
2A0
330
24D
100
AcDbEntity
  8
1
  6
Continuous
 62
     7
100
AcDbLine
 10
900.5294378307849
 20
398.6568548287543
 30
0.0
 11
903.3578649555311
 21
395.8284277040081
 31
0.0
  0
LINE
  5
2A1
330
24D
100
AcDbEntity
  8
1
  6
Continuous
 62
     7
100
AcDbLine
 10
903.3578649555311
 20
401.4852819535005
 30
0.0
 11
906.1862920802773
 21
398.6568548287543
 31
0.0
  0
LINE
  5
2A2
330
24D
100
AcDbEntity
  8
1
  6
Continuous
 62
     7
100
AcDbLine
 10
906.1862920802773
 20
404.3137090782467
 30
0.0
 11
909.0147192050235
 21
401.4852819535005
 31
0.0
  0
LINE
  5
2A3
330
24D
100
AcDbEntity
  8
1
  6
Continuous
 62
     7
100
AcDbLine
 10
909.0147192050235
 20
407.142136202993
 30
0.0
 11
911.8431463297698
 21
404.3137090782467
 31
0.0
  0
LINE
  5
2A4
330
24D
100
AcDbEntity
  8
1
  6
Continuous
 62
     7
100
AcDbLine
 10
911.8431463297698
 20
409.9705633277392
 30
0.0
 11
914.671573454516
 21
407.142136202993
 31
0.0
  0
LINE
  5
2A5
330
24D
100
AcDbEntity
  8
1
  6
Continuous
 62
     7
100
AcDbLine
 10
914.671573454516
 20
412.7989904524854
 30
0.0
 11
917.5000005792622
 21
409.9705633277392
 31
0.0
  0
LINE
  5
2A6
330
24D
100
AcDbEntity
  8
1
  6
Continuous
 62
     7
100
AcDbLine
 10
898.1814837190384
 20
398.1763818157415
 30
0.0
 11
899.1152242684118
 21
397.2426412663812
 31
0.0
  0
LINE
  5
2A7
330
24D
100
AcDbEntity
  8
1
  6
Continuous
 62
     7
100
AcDbLine
 10
899.7666221467441
 20
402.2480976375487
 30
0.0
 11
901.943651393158
 21
400.0710683911274
 31
0.0
  0
LINE
  5
2A8
330
24D
100
AcDbEntity
  8
1
  6
Continuous
 62
     7
100
AcDbLine
 10
902.0145396791924
 20
405.6570343545724
 30
0.0
 11
904.7720785179042
 21
402.8994955158736
 31
0.0
  0
LINE
  5
2A9
330
24D
100
AcDbEntity
  8
1
  6
Continuous
 62
     7
100
AcDbLine
 10
904.8429669203899
 20
408.4854613628876
 30
0.0
 11
907.6005056426504
 21
405.7279226406199
 31
0.0
  0
LINE
  5
2AA
330
24D
100
AcDbEntity
  8
1
  6
Continuous
 62
     7
100
AcDbLine
 10
908.2519038853247
 20
410.733378647445
 30
0.0
 11
910.4289327673966
 21
408.5563497653661
 31
0.0
  0
LINE
  5
2AB
330
24D
100
AcDbEntity
  8
1
  6
Continuous
 62
     7
100
AcDbLine
 10
912.3236200116363
 20
412.3185167706054
 30
0.0
 11
913.2573598921429
 21
411.3847768901123
 31
0.0
  0
ENDBLK
  5
24F
330
24D
100
AcDbEntity
  8
0
100
AcDbBlockEnd
  0
BLOCK
  5
2AE
330
2AD
100
AcDbEntity
  8
0
100
AcDbBlockBegin
  2
Dim7
 70
     0
 71
     0
 10
0.0
 20
0.0
 30
0.0
  3
Dim7
  1

  0
LINE
  5
2B0
330
2AD
100
AcDbEntity
  8
1
  6
Continuous
 62
     7
100
AcDbLine
 10
420.0000000000002
 20
490.0
 30
0.0
 11
1020.0
 21
490.0
 31
0.0
  0
LINE
  5
2B1
330
2AD
100
AcDbEntity
  8
1
  6
Continuous
 62
     7
100
AcDbLine
 10
420.0000000000002
 20
494.0
 30
0.0
 11
420.0
 21
354.0
 31
0.0
  0
LINE
  5
2B2
330
2AD
100
AcDbEntity
  8
1
  6
Continuous
 62
     7
100
AcDbLine
 10
1020.0
 20
494.0
 30
0.0
 11
1020.0
 21
353.9999999999976
 31
0.0
  0
LINE
  5
2B3
330
2AD
100
AcDbEntity
  8
1
  6
Continuous
 62
     7
100
AcDbLine
 10
420.0000000000002
 20
490.0
 30
0.0
 11
427.7274066103128
 21
492.0705523608202
 31
0.0
  0
LINE
  5
2B4
330
2AD
100
AcDbEntity
  8
1
  6
Continuous
 62
     7
100
AcDbLine
 10
420.0000000000002
 20
490.0
 30
0.0
 11
427.7274066103128
 21
487.9294476391798
 31
0.0
  0
LINE
  5
2B5
330
2AD
100
AcDbEntity
  8
1
  6
Continuous
 62
     7
100
AcDbLine
 10
427.7274066103128
 20
492.0705523608202
 30
0.0
 11
427.7274066103128
 21
487.9294476391798
 31
0.0
  0
LINE
  5
2B6
330
2AD
100
AcDbEntity
  8
1
  6
Continuous
 62
     7
100
AcDbLine
 10
421.9318516525784
 20
490.0
 30
0.0
 11
425.7955549577346
 21
491.0352761804101
 31
0.0
  0
LINE
  5
2B7
330
2AD
100
AcDbEntity
  8
1
  6
Continuous
 62
     7
100
AcDbLine
 10
421.9318516525784
 20
490.0
 30
0.0
 11
425.7955549577346
 21
488.9647238195899
 31
0.0
  0
LINE
  5
2B8
330
2AD
100
AcDbEntity
  8
1
  6
Continuous
 62
     7
100
AcDbLine
 10
425.7955549577346
 20
491.0352761804101
 30
0.0
 11
425.7955549577346
 21
488.9647238195899
 31
0.0
  0
LINE
  5
2B9
330
2AD
100
AcDbEntity
  8
1
  6
Continuous
 62
     7
100
AcDbLine
 10
1020.0
 20
490.0
 30
0.0
 11
1012.272593389688
 21
487.9294476391798
 31
0.0
  0
LINE
  5
2BA
330
2AD
100
AcDbEntity
  8
1
  6
Continuous
 62
     7
100
AcDbLine
 10
1020.0
 20
490.0
 30
0.0
 11
1012.272593389688
 21
492.0705523608202
 31
0.0
  0
LINE
  5
2BB
330
2AD
100
AcDbEntity
  8
1
  6
Continuous
 62
     7
100
AcDbLine
 10
1012.272593389688
 20
487.9294476391798
 30
0.0
 11
1012.272593389688
 21
492.0705523608202
 31
0.0
  0
LINE
  5
2BC
330
2AD
100
AcDbEntity
  8
1
  6
Continuous
 62
     7
100
AcDbLine
 10
1018.068148347422
 20
490.0
 30
0.0
 11
1014.204445042266
 21
488.9647238195899
 31
0.0
  0
LINE
  5
2BD
330
2AD
100
AcDbEntity
  8
1
  6
Continuous
 62
     7
100
AcDbLine
 10
1018.068148347422
 20
490.0
 30
0.0
 11
1014.204445042266
 21
491.0352761804101
 31
0.0
  0
LINE
  5
2BE
330
2AD
100
AcDbEntity
  8
1
  6
Continuous
 62
     7
100
AcDbLine
 10
1014.204445042266
 20
488.9647238195899
 30
0.0
 11
1014.204445042266
 21
491.0352761804101
 31
0.0
  0
MTEXT
  5
2BF
330
2AD
100
AcDbEntity
  8
1
  6
Continuous
 62
     7
100
AcDbMText
 10
720.0000000000002
 20
496.0
 30
0.0
 40
12.0
 41
0.0
 71
     8
 72
     1
  1
600
 73
     1
 44
1.0
  0
ENDBLK
  5
2AF
330
2AD
100
AcDbEntity
  8
0
100
AcDbBlockEnd
  0
BLOCK
  5
374
330
373
100
AcDbEntity
  8
0
100
AcDbBlockBegin
  2
Dim8
 70
     0
 71
     0
 10
0.0
 20
0.0
 30
0.0
  3
Dim8
  1

  0
LINE
  5
376
330
373
100
AcDbEntity
  8
1
  6
Continuous
 62
     7
100
AcDbLine
 10
404.4999999999995
 20
520.0
 30
0.0
 11
1035.5
 21
520.0
 31
0.0
  0
LINE
  5
377
330
373
100
AcDbEntity
  8
1
  6
Continuous
 62
     7
100
AcDbLine
 10
404.4999999999995
 20
518.0
 30
0.0
 11
404.5
 21
596.9500000000002
 31
0.0
  0
LINE
  5
378
330
373
100
AcDbEntity
  8
1
  6
Continuous
 62
     7
100
AcDbLine
 10
1035.5
 20
518.0
 30
0.0
 11
1035.5
 21
596.9499976639847
 31
0.0
  0
LINE
  5
379
330
373
100
AcDbEntity
  8
1
  6
Continuous
 62
     7
100
AcDbLine
 10
404.4999999999995
 20
520.0
 30
0.0
 11
412.2274066103121
 21
522.0705523608202
 31
0.0
  0
LINE
  5
37A
330
373
100
AcDbEntity
  8
1
  6
Continuous
 62
     7
100
AcDbLine
 10
404.4999999999995
 20
520.0
 30
0.0
 11
412.2274066103121
 21
517.9294476391798
 31
0.0
  0
LINE
  5
37B
330
373
100
AcDbEntity
  8
1
  6
Continuous
 62
     7
100
AcDbLine
 10
412.2274066103121
 20
522.0705523608202
 30
0.0
 11
412.2274066103121
 21
517.9294476391798
 31
0.0
  0
LINE
  5
37C
330
373
100
AcDbEntity
  8
1
  6
Continuous
 62
     7
100
AcDbLine
 10
406.4318516525777
 20
520.0
 30
0.0
 11
410.2955549577339
 21
521.03527618041
 31
0.0
  0
LINE
  5
37D
330
373
100
AcDbEntity
  8
1
  6
Continuous
 62
     7
100
AcDbLine
 10
406.4318516525777
 20
520.0
 30
0.0
 11
410.2955549577339
 21
518.96472381959
 31
0.0
  0
LINE
  5
37E
330
373
100
AcDbEntity
  8
1
  6
Continuous
 62
     7
100
AcDbLine
 10
410.2955549577339
 20
521.03527618041
 30
0.0
 11
410.2955549577339
 21
518.96472381959
 31
0.0
  0
LINE
  5
37F
330
373
100
AcDbEntity
  8
1
  6
Continuous
 62
     7
100
AcDbLine
 10
1035.5
 20
520.0
 30
0.0
 11
1027.772593389687
 21
517.9294476391799
 31
0.0
  0
LINE
  5
380
330
373
100
AcDbEntity
  8
1
  6
Continuous
 62
     7
100
AcDbLine
 10
1035.5
 20
520.0
 30
0.0
 11
1027.772593389687
 21
522.0705523608202
 31
0.0
  0
LINE
  5
381
330
373
100
AcDbEntity
  8
1
  6
Continuous
 62
     7
100
AcDbLine
 10
1027.772593389687
 20
517.9294476391799
 30
0.0
 11
1027.772593389687
 21
522.0705523608202
 31
0.0
  0
LINE
  5
382
330
373
100
AcDbEntity
  8
1
  6
Continuous
 62
     7
100
AcDbLine
 10
1033.568148347421
 20
520.0
 30
0.0
 11
1029.704445042265
 21
518.96472381959
 31
0.0
  0
LINE
  5
383
330
373
100
AcDbEntity
  8
1
  6
Continuous
 62
     7
100
AcDbLine
 10
1033.568148347421
 20
520.0
 30
0.0
 11
1029.704445042265
 21
521.03527618041
 31
0.0
  0
LINE
  5
384
330
373
100
AcDbEntity
  8
1
  6
Continuous
 62
     7
100
AcDbLine
 10
1029.704445042265
 20
518.96472381959
 30
0.0
 11
1029.704445042265
 21
521.03527618041
 31
0.0
  0
MTEXT
  5
385
330
373
100
AcDbEntity
  8
1
  6
Continuous
 62
     7
100
AcDbMText
 10
719.9999999999995
 20
526.0
 30
0.0
 40
12.0
 41
0.0
 71
     8
 72
     1
  1
631
 73
     1
 44
1.0
  0
ENDBLK
  5
375
330
373
100
AcDbEntity
  8
0
100
AcDbBlockEnd
  0
BLOCK
  5
388
330
387
100
AcDbEntity
  8
0
100
AcDbBlockBegin
  2
Dim9
 70
     0
 71
     0
 10
0.0
 20
0.0
 30
0.0
  3
Dim9
  1

  0
LINE
  5
38A
330
387
100
AcDbEntity
  8
1
  6
Continuous
 62
     7
100
AcDbLine
 10
380.0
 20
705.0
 30
0.0
 11
380.0
 21
570.0
 31
0.0
  0
LINE
  5
38B
330
387
100
AcDbEntity
  8
1
  6
Continuous
 62
     7
100
AcDbLine
 10
376.0
 20
705.0
 30
0.0
 11
490.0918842224871
 21
705.0
 31
0.0
  0
LINE
  5
38C
330
387
100
AcDbEntity
  8
1
  6
Continuous
 62
     7
100
AcDbLine
 10
376.0
 20
570.0
 30
0.0
 11
490.0918842224869
 21
570.0
 31
0.0
  0
LINE
  5
38D
330
387
100
AcDbEntity
  8
1
  6
Continuous
 62
     7
100
AcDbLine
 10
380.0
 20
705.0
 30
0.0
 11
382.0705523608202
 21
697.2725933896875
 31
0.0
  0
LINE
  5
38E
330
387
100
AcDbEntity
  8
1
  6
Continuous
 62
     7
100
AcDbLine
 10
380.0
 20
705.0
 30
0.0
 11
377.9294476391798
 21
697.2725933896875
 31
0.0
  0
LINE
  5
38F
330
387
100
AcDbEntity
  8
1
  6
Continuous
 62
     7
100
AcDbLine
 10
382.0705523608202
 20
697.2725933896875
 30
0.0
 11
377.9294476391798
 21
697.2725933896875
 31
0.0
  0
LINE
  5
390
330
387
100
AcDbEntity
  8
1
  6
Continuous
 62
     7
100
AcDbLine
 10
380.0
 20
703.0681483474218
 30
0.0
 11
381.0352761804101
 21
699.2044450422655
 31
0.0
  0
LINE
  5
391
330
387
100
AcDbEntity
  8
1
  6
Continuous
 62
     7
100
AcDbLine
 10
380.0
 20
703.0681483474218
 30
0.0
 11
378.9647238195899
 21
699.2044450422655
 31
0.0
  0
LINE
  5
392
330
387
100
AcDbEntity
  8
1
  6
Continuous
 62
     7
100
AcDbLine
 10
381.0352761804101
 20
699.2044450422655
 30
0.0
 11
378.9647238195899
 21
699.2044450422655
 31
0.0
  0
LINE
  5
393
330
387
100
AcDbEntity
  8
1
  6
Continuous
 62
     7
100
AcDbLine
 10
380.0
 20
570.0
 30
0.0
 11
377.9294476391798
 21
577.7274066103125
 31
0.0
  0
LINE
  5
394
330
387
100
AcDbEntity
  8
1
  6
Continuous
 62
     7
100
AcDbLine
 10
380.0
 20
570.0
 30
0.0
 11
382.0705523608202
 21
577.7274066103125
 31
0.0
  0
LINE
  5
395
330
387
100
AcDbEntity
  8
1
  6
Continuous
 62
     7
100
AcDbLine
 10
377.9294476391798
 20
577.7274066103125
 30
0.0
 11
382.0705523608202
 21
577.7274066103125
 31
0.0
  0
LINE
  5
396
330
387
100
AcDbEntity
  8
1
  6
Continuous
 62
     7
100
AcDbLine
 10
380.0
 20
571.9318516525782
 30
0.0
 11
378.9647238195899
 21
575.7955549577345
 31
0.0
  0
LINE
  5
397
330
387
100
AcDbEntity
  8
1
  6
Continuous
 62
     7
100
AcDbLine
 10
380.0
 20
571.9318516525782
 30
0.0
 11
381.0352761804101
 21
575.7955549577345
 31
0.0
  0
LINE
  5
398
330
387
100
AcDbEntity
  8
1
  6
Continuous
 62
     7
100
AcDbLine
 10
378.9647238195899
 20
575.7955549577345
 30
0.0
 11
381.0352761804101
 21
575.7955549577345
 31
0.0
  0
MTEXT
  5
399
330
387
100
AcDbEntity
  8
1
  6
Continuous
 62
     7
100
AcDbMText
 10
374.0000000000001
 20
637.5
 30
0.0
 40
12.0
 41
0.0
 71
     8
 72
     1
  1
135
 11
2.059633784282649E-15
 21
1.0
 31
0.0
 73
     1
 44
1.0
  0
ENDBLK
  5
389
330
387
100
AcDbEntity
  8
0
100
AcDbBlockEnd
  0
BLOCK
  5
39C
330
39B
100
AcDbEntity
  8
0
100
AcDbBlockBegin
  2
Dim10
 70
     0
 71
     0
 10
0.0
 20
0.0
 30
0.0
  3
Dim10
  1

  0
LINE
  5
39E
330
39B
100
AcDbEntity
  8
1
  6
Continuous
 62
     7
100
AcDbLine
 10
350.0
 20
705.0
 30
0.0
 11
350.0
 21
570.0
 31
0.0
  0
LINE
  5
39F
330
39B
100
AcDbEntity
  8
1
  6
Continuous
 62
     7
100
AcDbLine
 10
346.0
 20
705.0
 30
0.0
 11
490.0918842224871
 21
705.0
 31
0.0
  0
LINE
  5
3A0
330
39B
100
AcDbEntity
  8
1
  6
Continuous
 62
     7
100
AcDbLine
 10
346.0
 20
570.0
 30
0.0
 11
490.0918842224869
 21
570.0
 31
0.0
  0
LINE
  5
3A1
330
39B
100
AcDbEntity
  8
1
  6
Continuous
 62
     7
100
AcDbLine
 10
350.0
 20
705.0
 30
0.0
 11
352.0705523608202
 21
697.2725933896875
 31
0.0
  0
LINE
  5
3A2
330
39B
100
AcDbEntity
  8
1
  6
Continuous
 62
     7
100
AcDbLine
 10
350.0
 20
705.0
 30
0.0
 11
347.9294476391798
 21
697.2725933896875
 31
0.0
  0
LINE
  5
3A3
330
39B
100
AcDbEntity
  8
1
  6
Continuous
 62
     7
100
AcDbLine
 10
352.0705523608202
 20
697.2725933896875
 30
0.0
 11
347.9294476391798
 21
697.2725933896875
 31
0.0
  0
LINE
  5
3A4
330
39B
100
AcDbEntity
  8
1
  6
Continuous
 62
     7
100
AcDbLine
 10
350.0
 20
703.0681483474218
 30
0.0
 11
351.0352761804101
 21
699.2044450422655
 31
0.0
  0
LINE
  5
3A5
330
39B
100
AcDbEntity
  8
1
  6
Continuous
 62
     7
100
AcDbLine
 10
350.0
 20
703.0681483474218
 30
0.0
 11
348.9647238195899
 21
699.2044450422655
 31
0.0
  0
LINE
  5
3A6
330
39B
100
AcDbEntity
  8
1
  6
Continuous
 62
     7
100
AcDbLine
 10
351.0352761804101
 20
699.2044450422655
 30
0.0
 11
348.9647238195899
 21
699.2044450422655
 31
0.0
  0
LINE
  5
3A7
330
39B
100
AcDbEntity
  8
1
  6
Continuous
 62
     7
100
AcDbLine
 10
350.0
 20
570.0
 30
0.0
 11
347.9294476391798
 21
577.7274066103125
 31
0.0
  0
LINE
  5
3A8
330
39B
100
AcDbEntity
  8
1
  6
Continuous
 62
     7
100
AcDbLine
 10
350.0
 20
570.0
 30
0.0
 11
352.0705523608202
 21
577.7274066103125
 31
0.0
  0
LINE
  5
3A9
330
39B
100
AcDbEntity
  8
1
  6
Continuous
 62
     7
100
AcDbLine
 10
347.9294476391798
 20
577.7274066103125
 30
0.0
 11
352.0705523608202
 21
577.7274066103125
 31
0.0
  0
LINE
  5
3AA
330
39B
100
AcDbEntity
  8
1
  6
Continuous
 62
     7
100
AcDbLine
 10
350.0
 20
571.9318516525782
 30
0.0
 11
348.9647238195899
 21
575.7955549577345
 31
0.0
  0
LINE
  5
3AB
330
39B
100
AcDbEntity
  8
1
  6
Continuous
 62
     7
100
AcDbLine
 10
350.0
 20
571.9318516525782
 30
0.0
 11
351.0352761804101
 21
575.7955549577345
 31
0.0
  0
LINE
  5
3AC
330
39B
100
AcDbEntity
  8
1
  6
Continuous
 62
     7
100
AcDbLine
 10
348.9647238195899
 20
575.7955549577345
 30
0.0
 11
351.0352761804101
 21
575.7955549577345
 31
0.0
  0
MTEXT
  5
3AD
330
39B
100
AcDbEntity
  8
1
  6
Continuous
 62
     7
100
AcDbMText
 10
344.0000000000006
 20
637.5
 30
0.0
 40
12.0
 41
0.0
 71
     8
 72
     1
  1
135
 11
2.059633784282649E-15
 21
1.0
 31
0.0
 73
     1
 44
1.0
  0
ENDBLK
  5
39D
330
39B
100
AcDbEntity
  8
0
100
AcDbBlockEnd
  0
BLOCK
  5
3B0
330
3AF
100
AcDbEntity
  8
0
100
AcDbBlockBegin
  2
Dim11
 70
     0
 71
     0
 10
0.0
 20
0.0
 30
0.0
  3
Dim11
  1

  0
LINE
  5
3B2
330
3AF
100
AcDbEntity
  8
1
  6
Continuous
 62
     7
100
AcDbLine
 10
380.0
 20
460.0
 30
0.0
 11
380.0
 21
343.0
 31
0.0
  0
LINE
  5
3B3
330
3AF
100
AcDbEntity
  8
1
  6
Continuous
 62
     7
100
AcDbLine
 10
378.0
 20
460.0
 30
0.0
 11
449.9824623455879
 21
460.0
 31
0.0
  0
LINE
  5
3B4
330
3AF
100
AcDbEntity
  8
1
  6
Continuous
 62
     7
100
AcDbLine
 10
378.0
 20
343.0
 30
0.0
 11
402.5
 21
343.0
 31
0.0
  0
LINE
  5
3B5
330
3AF
100
AcDbEntity
  8
1
  6
Continuous
 62
     7
100
AcDbLine
 10
380.0
 20
460.0
 30
0.0
 11
382.0705523608202
 21
452.2725933896875
 31
0.0
  0
LINE
  5
3B6
330
3AF
100
AcDbEntity
  8
1
  6
Continuous
 62
     7
100
AcDbLine
 10
380.0
 20
460.0
 30
0.0
 11
377.9294476391798
 21
452.2725933896875
 31
0.0
  0
LINE
  5
3B7
330
3AF
100
AcDbEntity
  8
1
  6
Continuous
 62
     7
100
AcDbLine
 10
382.0705523608202
 20
452.2725933896875
 30
0.0
 11
377.9294476391798
 21
452.2725933896875
 31
0.0
  0
LINE
  5
3B8
330
3AF
100
AcDbEntity
  8
1
  6
Continuous
 62
     7
100
AcDbLine
 10
380.0
 20
458.0681483474219
 30
0.0
 11
381.0352761804101
 21
454.2044450422656
 31
0.0
  0
LINE
  5
3B9
330
3AF
100
AcDbEntity
  8
1
  6
Continuous
 62
     7
100
AcDbLine
 10
380.0
 20
458.0681483474219
 30
0.0
 11
378.9647238195899
 21
454.2044450422656
 31
0.0
  0
LINE
  5
3BA
330
3AF
100
AcDbEntity
  8
1
  6
Continuous
 62
     7
100
AcDbLine
 10
381.0352761804101
 20
454.2044450422656
 30
0.0
 11
378.9647238195899
 21
454.2044450422656
 31
0.0
  0
LINE
  5
3BB
330
3AF
100
AcDbEntity
  8
1
  6
Continuous
 62
     7
100
AcDbLine
 10
380.0
 20
343.0
 30
0.0
 11
377.9294476391798
 21
350.7274066103125
 31
0.0
  0
LINE
  5
3BC
330
3AF
100
AcDbEntity
  8
1
  6
Continuous
 62
     7
100
AcDbLine
 10
380.0
 20
343.0
 30
0.0
 11
382.0705523608202
 21
350.7274066103125
 31
0.0
  0
LINE
  5
3BD
330
3AF
100
AcDbEntity
  8
1
  6
Continuous
 62
     7
100
AcDbLine
 10
377.9294476391798
 20
350.7274066103125
 30
0.0
 11
382.0705523608202
 21
350.7274066103125
 31
0.0
  0
LINE
  5
3BE
330
3AF
100
AcDbEntity
  8
1
  6
Continuous
 62
     7
100
AcDbLine
 10
380.0
 20
344.9318516525781
 30
0.0
 11
378.9647238195899
 21
348.7955549577344
 31
0.0
  0
LINE
  5
3BF
330
3AF
100
AcDbEntity
  8
1
  6
Continuous
 62
     7
100
AcDbLine
 10
380.0
 20
344.9318516525781
 30
0.0
 11
381.0352761804101
 21
348.7955549577344
 31
0.0
  0
LINE
  5
3C0
330
3AF
100
AcDbEntity
  8
1
  6
Continuous
 62
     7
100
AcDbLine
 10
378.9647238195899
 20
348.7955549577344
 30
0.0
 11
381.0352761804101
 21
348.7955549577344
 31
0.0
  0
MTEXT
  5
3C1
330
3AF
100
AcDbEntity
  8
1
  6
Continuous
 62
     7
100
AcDbMText
 10
374.0000000000002
 20
401.5
 30
0.0
 40
12.0
 41
0.0
 71
     8
 72
     1
  1
117
 11
1.837589179357618E-15
 21
1.0
 31
0.0
 73
     1
 44
1.0
  0
ENDBLK
  5
3B1
330
3AF
100
AcDbEntity
  8
0
100
AcDbBlockEnd
  0
BLOCK
  5
3C4
330
3C3
100
AcDbEntity
  8
0
100
AcDbBlockBegin
  2
Dim12
 70
     0
 71
     0
 10
0.0
 20
0.0
 30
0.0
  3
Dim12
  1

  0
LINE
  5
3C6
330
3C3
100
AcDbEntity
  8
1
  6
Continuous
 62
     7
100
AcDbLine
 10
475.0000000000003
 20
760.0
 30
0.0
 11
965.0000000000003
 21
760.0
 31
0.0
  0
LINE
  5
3C7
330
3C3
100
AcDbEntity
  8
1
  6
Continuous
 62
     7
100
AcDbLine
 10
475.0000000000003
 20
764.0
 30
0.0
 11
475.0
 21
560.500000642597
 31
0.0
  0
LINE
  5
3C8
330
3C3
100
AcDbEntity
  8
1
  6
Continuous
 62
     7
100
AcDbLine
 10
965.0000000000003
 20
764.0
 30
0.0
 11
965.0
 21
560.500000642597
 31
0.0
  0
LINE
  5
3C9
330
3C3
100
AcDbEntity
  8
1
  6
Continuous
 62
     7
100
AcDbLine
 10
475.0000000000003
 20
760.0
 30
0.0
 11
482.7274066103129
 21
762.0705523608202
 31
0.0
  0
LINE
  5
3CA
330
3C3
100
AcDbEntity
  8
1
  6
Continuous
 62
     7
100
AcDbLine
 10
475.0000000000003
 20
760.0
 30
0.0
 11
482.7274066103129
 21
757.9294476391798
 31
0.0
  0
LINE
  5
3CB
330
3C3
100
AcDbEntity
  8
1
  6
Continuous
 62
     7
100
AcDbLine
 10
482.7274066103129
 20
762.0705523608202
 30
0.0
 11
482.7274066103129
 21
757.9294476391798
 31
0.0
  0
LINE
  5
3CC
330
3C3
100
AcDbEntity
  8
1
  6
Continuous
 62
     7
100
AcDbLine
 10
476.9318516525785
 20
760.0
 30
0.0
 11
480.7955549577347
 21
761.03527618041
 31
0.0
  0
LINE
  5
3CD
330
3C3
100
AcDbEntity
  8
1
  6
Continuous
 62
     7
100
AcDbLine
 10
476.9318516525785
 20
760.0
 30
0.0
 11
480.7955549577347
 21
758.96472381959
 31
0.0
  0
LINE
  5
3CE
330
3C3
100
AcDbEntity
  8
1
  6
Continuous
 62
     7
100
AcDbLine
 10
480.7955549577347
 20
761.03527618041
 30
0.0
 11
480.7955549577347
 21
758.96472381959
 31
0.0
  0
LINE
  5
3CF
330
3C3
100
AcDbEntity
  8
1
  6
Continuous
 62
     7
100
AcDbLine
 10
965.0000000000003
 20
760.0
 30
0.0
 11
957.2725933896878
 21
757.9294476391799
 31
0.0
  0
LINE
  5
3D0
330
3C3
100
AcDbEntity
  8
1
  6
Continuous
 62
     7
100
AcDbLine
 10
965.0000000000003
 20
760.0
 30
0.0
 11
957.2725933896878
 21
762.0705523608202
 31
0.0
  0
LINE
  5
3D1
330
3C3
100
AcDbEntity
  8
1
  6
Continuous
 62
     7
100
AcDbLine
 10
957.2725933896878
 20
757.9294476391799
 30
0.0
 11
957.2725933896878
 21
762.0705523608202
 31
0.0
  0
LINE
  5
3D2
330
3C3
100
AcDbEntity
  8
1
  6
Continuous
 62
     7
100
AcDbLine
 10
963.0681483474222
 20
760.0
 30
0.0
 11
959.2044450422659
 21
758.96472381959
 31
0.0
  0
LINE
  5
3D3
330
3C3
100
AcDbEntity
  8
1
  6
Continuous
 62
     7
100
AcDbLine
 10
963.0681483474222
 20
760.0
 30
0.0
 11
959.2044450422659
 21
761.03527618041
 31
0.0
  0
LINE
  5
3D4
330
3C3
100
AcDbEntity
  8
1
  6
Continuous
 62
     7
100
AcDbLine
 10
959.2044450422659
 20
758.96472381959
 30
0.0
 11
959.2044450422659
 21
761.03527618041
 31
0.0
  0
MTEXT
  5
3D5
330
3C3
100
AcDbEntity
  8
1
  6
Continuous
 62
     7
100
AcDbMText
 10
720.0000000000003
 20
766.0
 30
0.0
 40
12.0
 41
0.0
 71
     8
 72
     1
  1
481
 73
     1
 44
1.0
  0
ENDBLK
  5
3C5
330
3C3
100
AcDbEntity
  8
0
100
AcDbBlockEnd
  0
BLOCK
  5
3D8
330
3D7
100
AcDbEntity
  8
0
100
AcDbBlockBegin
  2
*G26
 70
     1
 71
     0
 10
0.0
 20
0.0
 30
0.0
  3
*G26
  1

  0
TEXT
  5
3DA
330
3D7
100
AcDbEntity
  8
1
  6
Continuous
 62
     7
100
AcDbText
 10
320.0
 20
746.0
 30
0.0
 40
12.0
  1
AS-12200
 41
0.5
100
AcDbText
  0
CIRCLE
  5
3DB
330
3D7
100
AcDbEntity
  8
1
  6
Continuous
 62
     7
100
AcDbCircle
 10
470.4038058198796
 20
709.5961939753203
 30
0.0
 40
2.5
  0
CIRCLE
  5
3DC
330
3D7
100
AcDbEntity
  8
1
  6
Continuous
 62
     7
100
AcDbCircle
 10
470.4038058198796
 20
709.5961939753203
 30
0.0
 40
1.25
  0
POLYLINE
  5
3DD
330
3D7
100
AcDbEntity
  8
1
  6
Continuous
 62
     7
100
AcDb2dPolyline
 66
     1
 10
0.0
 20
0.0
 30
0.0
  0
VERTEX
  5
3DF
330
3DD
100
AcDbEntity
  8
1
  6
Continuous
 62
     7
100
AcDbVertex
100
AcDb2dVertex
 10
470.4038058198796
 20
709.5961939753203
 30
0.0
  0
VERTEX
  5
3E0
330
3DD
100
AcDbEntity
  8
1
  6
Continuous
 62
     7
100
AcDbVertex
100
AcDb2dVertex
 10
420.0
 20
760.0
 30
0.0
  0
VERTEX
  5
3E1
330
3DD
100
AcDbEntity
  8
1
  6
Continuous
 62
     7
100
AcDbVertex
100
AcDb2dVertex
 10
284.0
 20
760.0
 30
0.0
  0
SEQEND
  5
3DE
330
3DD
100
AcDbEntity
  8
1
  6
Continuous
  0
TEXT
  5
3E2
330
3D7
100
AcDbEntity
  8
1
  6
Continuous
 62
     7
100
AcDbText
 10
284.0
 20
760.4764537811279
 30
0.0
 40
12.0
  1
4-アスファルトアンカー
 41
0.9166666666666666
100
AcDbText
  0
ENDBLK
  5
3D9
330
3D7
100
AcDbEntity
  8
0
100
AcDbBlockEnd
  0
ENDSEC
  0
SECTION
  2
ENTITIES
  0
LINE
  5
85
330
1F
100
AcDbEntity
  8
1
  6
Continuous
 62
     7
100
AcDbLine
 10
10.0
 20
790.0
 30
0.0
 11
10.0
 21
10.0
 31
0.0
  0
LINE
  5
86
330
1F
100
AcDbEntity
  8
1
  6
Continuous
 62
     7
100
AcDbLine
 10
310.0
 20
70.0
 30
0.0
 11
310.0
 21
10.0
 31
0.0
  0
LINE
  5
87
330
1F
100
AcDbEntity
  8
1
  6
Continuous
 62
     7
100
AcDbLine
 10
350.0
 20
70.0
 30
0.0
 11
350.0
 21
10.0
 31
0.0
  0
LINE
  5
88
330
1F
100
AcDbEntity
  8
1
  6
Continuous
 62
     7
100
AcDbLine
 10
390.0
 20
70.0
 30
0.0
 11
390.0
 21
10.0
 31
0.0
  0
LINE
  5
89
330
1F
100
AcDbEntity
  8
1
  6
Continuous
 62
     7
100
AcDbLine
 10
1135.0
 20
10.0
 30
0.0
 11
10.0
 21
10.0
 31
0.0
  0
LINE
  5
8A
330
1F
100
AcDbEntity
  8
1
  6
Continuous
 62
     7
100
AcDbLine
 10
10.0
 20
790.0
 30
0.0
 11
1135.0
 21
790.0
 31
0.0
  0
LINE
  5
8B
330
1F
100
AcDbEntity
  8
1
  6
Continuous
 62
     7
100
AcDbLine
 10
1135.0
 20
790.0
 30
0.0
 11
1135.0
 21
10.0
 31
0.0
  0
LINE
  5
8C
330
1F
100
AcDbEntity
  8
1
  6
Continuous
 62
     7
100
AcDbLine
 10
10.0
 20
70.0
 30
0.0
 11
1135.0
 21
70.0
 31
0.0
  0
LINE
  5
8D
330
1F
100
AcDbEntity
  8
1
  6
Continuous
 62
     7
100
AcDbLine
 10
630.0
 20
70.0
 30
0.0
 11
630.0
 21
10.0
 31
0.0
  0
LINE
  5
8E
330
1F
100
AcDbEntity
  8
1
  6
Continuous
 62
     7
100
AcDbLine
 10
710.0
 20
70.0
 30
0.0
 11
710.0
 21
10.0
 31
0.0
  0
LINE
  5
8F
330
1F
100
AcDbEntity
  8
1
  6
Continuous
 62
     7
100
AcDbLine
 10
790.0
 20
70.0
 30
0.0
 11
790.0
 21
10.0
 31
0.0
  0
LINE
  5
90
330
1F
100
AcDbEntity
  8
1
  6
Continuous
 62
     7
100
AcDbLine
 10
350.0
 20
55.0
 30
0.0
 11
630.0
 21
55.0
 31
0.0
  0
LINE
  5
91
330
1F
100
AcDbEntity
  8
1
  6
Continuous
 62
     7
100
AcDbLine
 10
350.0
 20
40.0
 30
0.0
 11
630.0
 21
40.0
 31
0.0
  0
LINE
  5
92
330
1F
100
AcDbEntity
  8
1
  6
Continuous
 62
     7
100
AcDbLine
 10
350.0
 20
25.0
 30
0.0
 11
630.0
 21
25.0
 31
0.0
  0
LINE
  5
93
330
1F
100
AcDbEntity
  8
1
  6
Continuous
 62
     7
100
AcDbLine
 10
630.0
 20
40.0
 30
0.0
 11
790.0
 21
40.0
 31
0.0
  0
LINE
  5
94
330
1F
100
AcDbEntity
  8
1
  6
Continuous
 62
     7
100
AcDbLine
 10
795.0
 20
40.0
 30
0.0
 11
1130.0
 21
40.0
 31
0.0
  0
TEXT
  5
95
330
1F
100
AcDbEntity
  8
1
  6
Continuous
 62
     7
100
AcDbText
 10
318.0
 20
36.0
 30
0.0
 40
8.0
  1
記　事
100
AcDbText
  0
TEXT
  5
96
330
1F
100
AcDbEntity
  8
1
  6
Continuous
 62
     7
100
AcDbText
 10
632.0
 20
60.0
 30
0.0
 40
8.0
  1
設計NO.
 41
0.7
100
AcDbText
  0
TEXT
  5
97
330
1F
100
AcDbEntity
  8
1
  6
Continuous
 62
     7
100
AcDbText
 10
712.0
 20
60.0
 30
0.0
 40
8.0
  1
日　付
100
AcDbText
  0
TEXT
  5
98
330
1F
100
AcDbEntity
  8
1
  6
Continuous
 62
     7
100
AcDbText
 10
712.0
 20
30.0
 30
0.0
 40
8.0
  1
縮　尺
100
AcDbText
  0
TEXT
  5
99
330
1F
100
AcDbEntity
  8
1
  6
Continuous
 62
     7
100
AcDbText
 10
632.0
 20
30.0
 30
0.0
 40
8.0
  1
担　当
100
AcDbText
  0
TEXT
  5
9A
330
1F
100
AcDbEntity
  8
1
  6
Continuous
 62
     7
100
AcDbText
 10
792.0
 20
60.0
 30
0.0
 40
8.0
  1
名　称
100
AcDbText
  0
TEXT
  5
9B
330
1F
100
AcDbEntity
  8
1
  6
Continuous
 62
     7
100
AcDbText
 10
824.5
 20
44.29541715135201
 30
0.0
 40
12.0
  1
駐車場車止め　プラストップ・スタンダードタイプ
100
AcDbText
  0
TEXT
  5
9C
330
1F
100
AcDbEntity
  8
1
  6
Continuous
 62
     7
100
AcDbText
 10
723.0
 20
14.29541715135201
 30
0.0
 40
12.0
  1
A4  S=1/4
 41
0.5
100
AcDbText
  0
TEXT
  5
9D
330
1F
100
AcDbEntity
  8
1
  6
Continuous
 62
     7
100
AcDbText
 10
60.0
 20
30.0
 30
0.0
 40
20.0
  1
株式会社アフロディテ
100
AcDbText
  0
ARC
  5
9E
330
1F
100
AcDbEntity
  8
1
  6
Continuous
 62
     7
100
AcDbCircle
 10
157.6454260255769
 20
420.1575863770882
 30
0.0
 40
15.0
100
AcDbArc
 50
144.2219754641569
 51
174.9999999607319
  0
LINE
  5
9F
330
1F
100
AcDbEntity
  8
1
  6
Continuous
 62
     7
100
AcDbLine
 10
181.6856085069242
 20
460.0000000000001
 30
0.0
 11
190.0
 21
460.0000000000001
 31
0.0
  0
ARC
  5
A0
330
1F
100
AcDbEntity
  8
1
  6
Continuous
 62
     7
100
AcDbCircle
 10
254.9999999999989
 20
350.0000000000006
 30
0.0
 40
134.9999999999988
100
AcDbArc
 50
127.6584620062076
 51
144.2219754641569
  0
ARC
  5
A1
330
1F
100
AcDbEntity
  8
1
  6
Continuous
 62
     7
100
AcDbCircle
 10
181.6856085069242
 20
445.0000000000001
 30
0.0
 40
15.0
100
AcDbArc
 50
90.00000000000011
 51
127.6584620062076
  0
ARC
  5
A2
330
1F
100
AcDbEntity
  8
1
  6
Continuous
 62
     7
100
AcDbCircle
 10
135.0134713878236
 20
368.0
 30
0.0
 40
3.0
100
AcDbArc
 50
269.9999999999998
 51
354.9999999607319
  0
LINE
  5
A3
330
1F
100
AcDbEntity
  8
1
  6
Continuous
 62
     7
100
AcDbLine
 10
135.0134713878236
 20
365.0
 30
0.0
 11
105.0
 21
365.0
 31
0.0
  0
LINE
  5
A4
330
1F
100
AcDbEntity
  8
1
  6
Continuous
 62
     7
100
AcDbLine
 10
131.5
 20
364.9999999999999
 30
0.0
 11
113.5
 21
364.9999999999999
 31
0.0
  0
LINE
  5
A5
330
1F
100
AcDbEntity
  8
1
  6
Continuous
 62
     7
100
AcDbLine
 10
113.5
 20
364.9999999999999
 30
0.0
 11
113.5
 21
367.4999999999999
 31
0.0
  0
LINE
  5
A6
330
1F
100
AcDbEntity
  8
1
  6
Continuous
 62
     7
100
AcDbLine
 10
113.5
 20
367.4999999999999
 30
0.0
 11
116.0
 21
369.9999999999999
 31
0.0
  0
LINE
  5
A7
330
1F
100
AcDbEntity
  8
1
  6
Continuous
 62
     7
100
AcDbLine
 10
116.0
 20
369.9999999999999
 30
0.0
 11
129.0
 21
369.9999999999999
 31
0.0
  0
LINE
  5
A8
330
1F
100
AcDbEntity
  8
1
  6
Continuous
 62
     7
100
AcDbLine
 10
131.5
 20
364.9999999999999
 30
0.0
 11
131.5
 21
367.4999999999999
 31
0.0
  0
LINE
  5
A9
330
1F
100
AcDbEntity
  8
1
  6
Continuous
 62
     7
100
AcDbLine
 10
129.0
 20
369.9999999999999
 30
0.0
 11
131.5
 21
367.4999999999999
 31
0.0
  0
LINE
  5
AA
330
1F
100
AcDbEntity
  8
1
  6
Continuous
 62
     7
100
AcDbLine
 10
113.5
 20
367.4999999999999
 30
0.0
 11
131.5
 21
367.4999999999999
 31
0.0
  0
LINE
  5
AB
330
1F
100
AcDbEntity
  8
1
  6
Continuous
 62
     7
100
AcDbLine
 10
190.0000000000001
 20
353.0
 30
0.0
 11
98.40000000000006
 21
353.0
 31
0.0
  0
LINE
  5
AC
330
1F
100
AcDbEntity
  8
1
  6
Continuous
 62
     7
100
AcDbLine
 10
90.40000000000006
 20
345.0
 30
0.0
 11
98.40000000000006
 21
353.0
 31
0.0
  0
LINE
  5
AD
330
1F
100
AcDbEntity
  8
1
  6
Continuous
 62
     7
100
AcDbLine
 10
90.40000000000006
 20
343.0
 30
0.0
 11
90.40000000000006
 21
345.0
 31
0.0
  0
LINE
  5
AE
330
1F
100
AcDbEntity
  8
1
  6
Continuous
 62
     7
100
AcDbLine
 10
190.0000000000001
 20
343.0
 30
0.0
 11
90.40000000000006
 21
343.0
 31
0.0
  0
LINE
  5
AF
330
1F
100
AcDbEntity
  8
1
  6
Continuous
 62
     7
100
AcDbLine
 10
90.39999999999966
 20
345.0
 30
0.0
 11
190.0000000000001
 21
345.0
 31
0.0
  0
LINE
  5
B0
330
1F
100
AcDbEntity
  8
1
  6
Continuous
 62
     7
100
AcDbLine
 10
121.850000000001
 20
345.0
 30
0.0
 11
129.8499999999994
 21
353.0
 31
0.0
  0
LINE
  5
B1
330
1F
100
AcDbEntity
  8
1
  6
Continuous
 62
     7
100
AcDbLine
 10
121.8500000000007
 20
345.0
 30
0.0
 11
121.849999999986
 21
343.0
 31
0.0
  0
LINE
  5
B2
330
1F
100
AcDbEntity
  8
1
  6
Continuous
 62
     7
100
AcDbLine
 10
142.7025055550966
 20
421.4649225285443
 30
0.0
 11
136.7126009373862
 21
353.0
 31
0.0
  0
LINE
  5
B3
330
1F
100
AcDbEntity
  8
1
  6
Continuous
 62
     7
100
AcDbLine
 10
105.0
 20
364.9999999999999
 30
0.0
 11
105.0
 21
353.0
 31
0.0
  0
ARC
  5
B4
330
1F
100
AcDbEntity
  8
1
  6
Continuous
 62
     7
100
AcDbCircle
 10
222.3545739744246
 20
420.1575863770882
 30
0.0
 40
15.0
100
AcDbArc
 50
5.000000039268133
 51
35.77802453584308
  0
LINE
  5
B5
330
1F
100
AcDbEntity
  8
1
  6
Continuous
 62
     7
100
AcDbLine
 10
198.3143914930773
 20
460.0000000000001
 30
0.0
 11
190.0000000000015
 21
460.0000000000001
 31
0.0
  0
ARC
  5
B6
330
1F
100
AcDbEntity
  8
1
  6
Continuous
 62
     7
100
AcDbCircle
 10
125.0000000000026
 20
350.0000000000006
 30
0.0
 40
134.9999999999988
100
AcDbArc
 50
35.7780245358431
 51
52.34153799379243
  0
ARC
  5
B7
330
1F
100
AcDbEntity
  8
1
  6
Continuous
 62
     7
100
AcDbCircle
 10
198.3143914930773
 20
445.0000000000001
 30
0.0
 40
15.0
100
AcDbArc
 50
52.34153799379239
 51
89.9999999999999
  0
ARC
  5
B8
330
1F
100
AcDbEntity
  8
1
  6
Continuous
 62
     7
100
AcDbCircle
 10
244.9865286121779
 20
368.0
 30
0.0
 40
3.0
100
AcDbArc
 50
185.0000000392673
 51
269.9999999999998
  0
LINE
  5
B9
330
1F
100
AcDbEntity
  8
1
  6
Continuous
 62
     7
100
AcDbLine
 10
244.9865286121779
 20
365.0
 30
0.0
 11
275.0000000000015
 21
365.0
 31
0.0
  0
LINE
  5
BA
330
1F
100
AcDbEntity
  8
1
  6
Continuous
 62
     7
100
AcDbLine
 10
248.5000000000015
 20
364.9999999999999
 30
0.0
 11
266.5000000000015
 21
364.9999999999999
 31
0.0
  0
LINE
  5
BB
330
1F
100
AcDbEntity
  8
1
  6
Continuous
 62
     7
100
AcDbLine
 10
266.5000000000015
 20
364.9999999999999
 30
0.0
 11
266.5000000000015
 21
367.4999999999999
 31
0.0
  0
LINE
  5
BC
330
1F
100
AcDbEntity
  8
1
  6
Continuous
 62
     7
100
AcDbLine
 10
266.5000000000015
 20
367.4999999999999
 30
0.0
 11
264.0000000000015
 21
369.9999999999999
 31
0.0
  0
LINE
  5
BD
330
1F
100
AcDbEntity
  8
1
  6
Continuous
 62
     7
100
AcDbLine
 10
264.0000000000015
 20
369.9999999999999
 30
0.0
 11
251.0000000000015
 21
369.9999999999999
 31
0.0
  0
LINE
  5
BE
330
1F
100
AcDbEntity
  8
1
  6
Continuous
 62
     7
100
AcDbLine
 10
248.5000000000015
 20
364.9999999999999
 30
0.0
 11
248.5000000000015
 21
367.4999999999999
 31
0.0
  0
LINE
  5
BF
330
1F
100
AcDbEntity
  8
1
  6
Continuous
 62
     7
100
AcDbLine
 10
251.0000000000015
 20
369.9999999999999
 30
0.0
 11
248.5000000000015
 21
367.4999999999999
 31
0.0
  0
LINE
  5
C0
330
1F
100
AcDbEntity
  8
1
  6
Continuous
 62
     7
100
AcDbLine
 10
266.5000000000015
 20
367.4999999999999
 30
0.0
 11
248.5000000000015
 21
367.4999999999999
 31
0.0
  0
LINE
  5
C1
330
1F
100
AcDbEntity
  8
1
  6
Continuous
 62
     7
100
AcDbLine
 10
190.0000000000014
 20
353.0
 30
0.0
 11
281.6000000000014
 21
353.0
 31
0.0
  0
LINE
  5
C2
330
1F
100
AcDbEntity
  8
1
  6
Continuous
 62
     7
100
AcDbLine
 10
289.6000000000014
 20
345.0
 30
0.0
 11
281.6000000000014
 21
353.0
 31
0.0
  0
LINE
  5
C3
330
1F
100
AcDbEntity
  8
1
  6
Continuous
 62
     7
100
AcDbLine
 10
289.6000000000014
 20
343.0
 30
0.0
 11
289.6000000000014
 21
345.0
 31
0.0
  0
LINE
  5
C4
330
1F
100
AcDbEntity
  8
1
  6
Continuous
 62
     7
100
AcDbLine
 10
190.0000000000014
 20
343.0
 30
0.0
 11
289.6000000000014
 21
343.0
 31
0.0
  0
LINE
  5
C5
330
1F
100
AcDbEntity
  8
1
  6
Continuous
 62
     7
100
AcDbLine
 10
289.6000000000018
 20
345.0
 30
0.0
 11
190.0000000000014
 21
345.0
 31
0.0
  0
LINE
  5
C6
330
1F
100
AcDbEntity
  8
1
  6
Continuous
 62
     7
100
AcDbLine
 10
258.1500000000004
 20
345.0
 30
0.0
 11
250.1500000000021
 21
353.0
 31
0.0
  0
LINE
  5
C7
330
1F
100
AcDbEntity
  8
1
  6
Continuous
 62
     7
100
AcDbLine
 10
258.1500000000008
 20
345.0
 30
0.0
 11
258.1500000000154
 21
343.0
 31
0.0
  0
LINE
  5
C8
330
1F
100
AcDbEntity
  8
1
  6
Continuous
 62
     7
100
AcDbLine
 10
237.2974944449048
 20
421.4649225285443
 30
0.0
 11
243.2873990626152
 21
353.0
 31
0.0
  0
LINE
  5
C9
330
1F
100
AcDbEntity
  8
1
  6
Continuous
 62
     7
100
AcDbLine
 10
275.0000000000015
 20
364.9999999999999
 30
0.0
 11
275.0000000000015
 21
353.0
 31
0.0
  0
LINE
  5
CA
330
1F
100
AcDbEntity
  8
1
  6
Continuous
 62
     7
100
AcDbLine
 10
239.8628155345481
 20
415.090594843565
 30
0.0
 11
243.6976682454857
 21
371.2580281301564
 31
0.0
  0
ARC
  5
CB
330
1F
100
AcDbEntity
  8
1
  6
Continuous
 62
     7
100
AcDbCircle
 10
43.53749698164711
 20
375.8303185442002
 30
0.0
 40
199.9999999999998
100
AcDbArc
 50
359.5212030716534
 51
10.47879700688883
  0
ARC
  5
CC
330
1F
100
AcDbEntity
  8
1
  6
Continuous
 62
     7
100
AcDbCircle
 10
242.5305486906305
 20
374.1673779121331
 30
0.0
 40
1.0
100
AcDbArc
 50
340.3828918300389
 51
359.5212030717262
  0
ARC
  5
CD
330
1F
100
AcDbEntity
  8
1
  6
Continuous
 62
     7
100
AcDbCircle
 10
240.7090841513897
 20
370.9965608998653
 30
0.0
 40
3.0
100
AcDbArc
 50
294.4712206737817
 51
5.000000039266619
  0
ARC
  5
CE
330
1F
100
AcDbEntity
  8
1
  6
Continuous
 62
     7
100
AcDbCircle
 10
239.2186304402732
 20
412.0227764373488
 30
0.0
 40
1.0
100
AcDbArc
 50
10.47879700688979
 51
29.61710824024194
  0
ARC
  5
CF
330
1F
100
AcDbEntity
  8
1
  6
Continuous
 62
     7
100
AcDbCircle
 10
236.874231440452
 20
414.8291276132739
 30
0.0
 40
3.0
100
AcDbArc
 50
5.000000039266619
 51
75.52877940475862
  0
DIMENSION
  5
E3
330
1F
100
AcDbEntity
  8
1
  6
Continuous
 62
     7
100
AcDbDimension
  2
Dim1
 10
122.5
 20
290.0
 30
0.0
 11
190.0
 21
296.0
 31
0.0
 70
   160
  1
<>
 71
     5
 42
-1.0
  3
Standard
100
AcDbAlignedDimension
 13
122.5
 23
350.0
 33
0.0
 14
257.5
 24
350.0
 34
0.0
100
AcDbRotatedDimension
1001
ACAD
1000
DSTYLE
1002
{
1070
   344
1005
0
1070
   343
1005
0
1070
   173
1070
     1
1070
   289
1070
     2
1070
   279
1070
     2
1070
   288
1070
     1
1070
    77
1070
     3
1070
   172
1070
     1
1070
   174
1070
     0
1070
    74
1070
     0
1070
    73
1070
     0
1070
   284
1070
     8
1070
    78
1070
     8
1070
   140
1040
4.0
1070
    40
1040
1.0
1070
    42
1040
2.0
1070
    44
1040
2.0
1070
    43
1040
10.0
1070
   271
1070
     2
1070
    41
1040
4.0
1002
}
  0
DIMENSION
  5
F5
330
1F
100
AcDbEntity
  8
1
  6
Continuous
 62
     7
100
AcDbDimension
  2
Dim2
 10
251.5
 20
250.0
 30
0.0
 11
227.0
 21
256.0
 31
0.0
 70
   160
  1
<>
 71
     5
 42
-1.0
  3
Standard
100
AcDbAlignedDimension
 13
251.5
 23
249.7028091249651
 33
0.0
 14
263.5
 24
249.047550869801
 34
0.0
100
AcDbRotatedDimension
1001
ACAD
1000
DSTYLE
1002
{
1070
   344
1005
0
1070
   343
1005
0
1070
   173
1070
     1
1070
   289
1070
     2
1070
   279
1070
     2
1070
   288
1070
     1
1070
    77
1070
     3
1070
   172
1070
     1
1070
   174
1070
     0
1070
    74
1070
     0
1070
    73
1070
     0
1070
   284
1070
     8
1070
    78
1070
     8
1070
   140
1040
4.0
1070
    40
1040
1.0
1070
    42
1040
2.0
1070
    44
1040
2.0
1070
    43
1040
10.0
1070
   271
1070
     2
1070
    41
1040
4.0
1002
}
  0
DIMENSION
  5
109
330
1F
100
AcDbEntity
  8
1
  6
Continuous
 62
     7
100
AcDbDimension
  2
Dim3
 10
257.5000000000015
 20
290.0
 30
0.0
 11
190.0000000000015
 21
296.0
 31
0.0
 70
   160
  1
<>
 71
     5
 42
-1.0
  3
Standard
100
AcDbAlignedDimension
 13
257.5000000000015
 23
350.0
 33
0.0
 14
122.5000000000015
 24
350.0
 34
0.0
100
AcDbRotatedDimension
1001
ACAD
1000
DSTYLE
1002
{
1070
   344
1005
0
1070
   343
1005
0
1070
   173
1070
     1
1070
   289
1070
     2
1070
   279
1070
     2
1070
   288
1070
     1
1070
    77
1070
     3
1070
   172
1070
     1
1070
   174
1070
     0
1070
    74
1070
     0
1070
    73
1070
     0
1070
   284
1070
     8
1070
    78
1070
     8
1070
   140
1040
4.0
1070
    40
1040
1.0
1070
    42
1040
2.0
1070
    44
1040
2.0
1070
    43
1040
10.0
1070
   271
1070
     2
1070
    41
1040
4.0
1002
}
  0
DIMENSION
  5
11D
330
1F
100
AcDbEntity
  8
1
  6
Continuous
 62
     7
100
AcDbDimension
  2
Dim4
 10
320.0
 20
364.9999999999999
 30
0.0
 11
314.0000000000001
 21
354.0
 31
0.0
 70
   160
  1
<>
 71
     5
 42
-1.0
  3
Standard
100
AcDbAlignedDimension
 13
275.0000000000015
 23
364.9999999999999
 33
0.0
 14
289.6000000000001
 24
343.0
 34
0.0
 50
90.00000000000011
100
AcDbRotatedDimension
1001
ACAD
1000
DSTYLE
1002
{
1070
   344
1005
0
1070
   343
1005
0
1070
   173
1070
     1
1070
   289
1070
     2
1070
   279
1070
     2
1070
   288
1070
     1
1070
    77
1070
     3
1070
   172
1070
     1
1070
   174
1070
     0
1070
    74
1070
     0
1070
    73
1070
     0
1070
   284
1070
     8
1070
    78
1070
     8
1070
   140
1040
4.0
1070
    40
1040
1.0
1070
    42
1040
2.0
1070
    44
1040
2.0
1070
    43
1040
10.0
1070
   271
1070
     2
1070
    41
1040
4.0
1002
}
  0
LINE
  5
11E
330
1F
100
AcDbEntity
  8
1
  6
Continuous
 62
     7
100
AcDbLine
 10
181.6856085069242
 20
680.0
 30
0.0
 11
190.0
 21
680.0
 31
0.0
  0
ARC
  5
11F
330
1F
100
AcDbEntity
  8
1
  6
Continuous
 62
     7
100
AcDbCircle
 10
157.6454260255769
 20
640.1575863770881
 30
0.0
 40
15.0
100
AcDbArc
 50
144.2219754641567
 51
174.9999999607317
  0
ARC
  5
120
330
1F
100
AcDbEntity
  8
1
  6
Continuous
 62
     7
100
AcDbCircle
 10
254.9999999999989
 20
570.0000000000007
 30
0.0
 40
134.9999999999988
100
AcDbArc
 50
127.6584620062076
 51
144.2219754641569
  0
ARC
  5
121
330
1F
100
AcDbEntity
  8
1
  6
Continuous
 62
     7
100
AcDbCircle
 10
181.6856085069242
 20
665.0
 30
0.0
 40
15.0
100
AcDbArc
 50
90.00000000000011
 51
127.6584620062075
  0
LINE
  5
122
330
1F
100
AcDbEntity
  8
1
  6
Continuous
 62
     7
100
AcDbLine
 10
190.0
 20
675.0
 30
0.0
 11
181.6856085069242
 21
675.0
 31
0.0
  0
ARC
  5
123
330
1F
100
AcDbEntity
  8
1
  6
Continuous
 62
     7
100
AcDbCircle
 10
157.6454260255769
 20
640.1575863770881
 30
0.0
 40
10.0
100
AcDbArc
 50
144.2219754641571
 51
174.9999999607317
  0
LINE
  5
124
330
1F
100
AcDbEntity
  8
1
  6
Continuous
 62
     7
100
AcDbLine
 10
122.5
 20
582.0
 30
0.0
 11
122.5
 21
570.0
 31
0.0
  0
ARC
  5
125
330
1F
100
AcDbEntity
  8
1
  6
Continuous
 62
     7
100
AcDbCircle
 10
135.0134713878236
 20
588.0
 30
0.0
 40
3.0
100
AcDbArc
 50
269.9999999999998
 51
354.999999960733
  0
LINE
  5
126
330
1F
100
AcDbEntity
  8
1
  6
Continuous
 62
     7
100
AcDbLine
 10
134.751005395174
 20
582.0
 30
0.0
 11
122.5
 21
582.0
 31
0.0
  0
ARC
  5
127
330
1F
100
AcDbEntity
  8
1
  6
Continuous
 62
     7
100
AcDbCircle
 10
134.751005395174
 20
585.0
 30
0.0
 40
3.0
100
AcDbArc
 50
269.9999999999998
 51
354.999999960733
  0
LINE
  5
128
330
1F
100
AcDbEntity
  8
1
  6
Continuous
 62
     7
100
AcDbLine
 10
127.5
 20
577.0
 30
0.0
 11
127.5
 21
570.0
 31
0.0
  0
LINE
  5
129
330
1F
100
AcDbEntity
  8
1
  6
Continuous
 62
     7
100
AcDbLine
 10
142.7025055550966
 20
641.4649225285443
 30
0.0
 11
137.6561725514572
 21
583.785072815099
 31
0.0
  0
LINE
  5
12A
330
1F
100
AcDbEntity
  8
1
  6
Continuous
 62
     7
100
AcDbLine
 10
137.0625555942524
 20
577.0
 30
0.0
 11
127.5
 21
577.0
 31
0.0
  0
LINE
  5
12B
330
1F
100
AcDbEntity
  8
1
  6
Continuous
 62
     7
100
AcDbLine
 10
137.0625555942524
 20
577.0
 30
0.0
 11
136.4501349527805
 21
570.000000091941
 31
0.0
  0
LINE
  5
12C
330
1F
100
AcDbEntity
  8
1
  6
Continuous
 62
     7
100
AcDbLine
 10
147.6834790452567
 20
641.0291438113923
 30
0.0
 11
141.4692341327544
 21
570.0
 31
0.0
  0
LINE
  5
12D
330
1F
100
AcDbEntity
  8
1
  6
Continuous
 62
     7
100
AcDbLine
 10
169.6715728752538
 20
668.0768042118874
 30
0.0
 11
169.6715728752538
 21
570.0
 31
0.0
  0
LINE
  5
12E
330
1F
100
AcDbEntity
  8
1
  6
Continuous
 62
     7
100
AcDbLine
 10
171.4999999999997
 20
669.6380951243045
 30
0.0
 11
171.4999999999997
 21
570.0
 31
0.0
  0
ARC
  5
12F
330
1F
100
AcDbEntity
  8
1
  6
Continuous
 62
     7
100
AcDbCircle
 10
254.9999999999989
 20
570.0000000000007
 30
0.0
 40
129.9999999999988
100
AcDbArc
 50
129.9641143295114
 51
144.221975464157
  0
LINE
  5
130
330
1F
100
AcDbEntity
  8
1
  6
Continuous
 62
     7
100
AcDbLine
 10
173.5
 20
671.2805509463687
 30
0.0
 11
173.5
 21
570.0
 31
0.0
  0
LINE
  5
131
330
1F
100
AcDbEntity
  8
1
  6
Continuous
 62
     7
100
AcDbLine
 10
175.3284271247462
 20
672.7250722831731
 30
0.0
 11
175.3284271247462
 21
570.0
 31
0.0
  0
ARC
  5
132
330
1F
100
AcDbEntity
  8
1
  6
Continuous
 62
     7
100
AcDbCircle
 10
181.6856085069242
 20
665.0
 30
0.0
 40
10.0
100
AcDbArc
 50
89.99999999999991
 51
127.6584620062078
  0
ARC
  5
133
330
1F
100
AcDbEntity
  8
1
  6
Continuous
 62
     7
100
AcDbCircle
 10
254.9999999999989
 20
570.0000000000007
 30
0.0
 40
129.9999999999988
100
AcDbArc
 50
127.6584620062076
 51
128.8234758012022
  0
LINE
  5
134
330
1F
100
AcDbEntity
  8
1
  6
Continuous
 62
     7
100
AcDbLine
 10
135.0134713878236
 20
585.0
 30
0.0
 11
105.0
 21
585.0
 31
0.0
  0
LINE
  5
135
330
1F
100
AcDbEntity
  8
1
  6
Continuous
 62
     7
100
AcDbLine
 10
113.5
 20
584.9999999999998
 30
0.0
 11
113.5
 21
587.4999999999998
 31
0.0
  0
LINE
  5
136
330
1F
100
AcDbEntity
  8
1
  6
Continuous
 62
     7
100
AcDbLine
 10
113.5
 20
587.4999999999998
 30
0.0
 11
116.0
 21
589.9999999999998
 31
0.0
  0
LINE
  5
137
330
1F
100
AcDbEntity
  8
1
  6
Continuous
 62
     7
100
AcDbLine
 10
116.0
 20
589.9999999999998
 30
0.0
 11
129.0
 21
589.9999999999998
 31
0.0
  0
LINE
  5
138
330
1F
100
AcDbEntity
  8
1
  6
Continuous
 62
     7
100
AcDbLine
 10
131.5
 20
584.9999999999998
 30
0.0
 11
131.5
 21
587.4999999999998
 31
0.0
  0
LINE
  5
139
330
1F
100
AcDbEntity
  8
1
  6
Continuous
 62
     7
100
AcDbLine
 10
129.0
 20
589.9999999999998
 30
0.0
 11
131.5
 21
587.4999999999998
 31
0.0
  0
LINE
  5
13A
330
1F
100
AcDbEntity
  8
1
  6
Continuous
 62
     7
100
AcDbLine
 10
113.5
 20
587.4999999999998
 30
0.0
 11
131.5
 21
587.4999999999998
 31
0.0
  0
ARC
  5
13B
330
1F
100
AcDbEntity
  8
1
  6
Continuous
 62
     7
100
AcDbCircle
 10
119.4999999999951
 20
535.9999999999902
 30
0.0
 40
5.000000000004897
100
AcDbArc
 50
53.13010235417838
 51
126.8698976457321
  0
ARC
  5
13C
330
1F
100
AcDbEntity
  8
1
  6
Continuous
 62
     7
100
AcDbCircle
 10
119.5000000000098
 20
544.0000000000099
 30
0.0
 40
5.000000000013742
100
AcDbArc
 50
233.1301023541339
 51
306.8698976456861
  0
ARC
  5
13D
330
1F
100
AcDbEntity
  8
1
  6
Continuous
 62
     7
100
AcDbCircle
 10
125.4999999999994
 20
543.9999999999999
 30
0.0
 40
4.999999999999568
100
AcDbArc
 50
233.13010235416
 51
306.8698976458499
  0
LINE
  5
13E
330
1F
100
AcDbEntity
  8
1
  6
Continuous
 62
     7
100
AcDbLine
 10
90.40000000000006
 20
565.0
 30
0.0
 11
98.40000000000006
 21
573.0
 31
0.0
  0
LINE
  5
13F
330
1F
100
AcDbEntity
  8
1
  6
Continuous
 62
     7
100
AcDbLine
 10
90.40000000000006
 20
563.0
 30
0.0
 11
90.40000000000006
 21
565.0
 31
0.0
  0
LINE
  5
140
330
1F
100
AcDbEntity
  8
1
  6
Continuous
 62
     7
100
AcDbLine
 10
190.0000000000001
 20
563.0
 30
0.0
 11
90.40000000000006
 21
563.0
 31
0.0
  0
LINE
  5
141
330
1F
100
AcDbEntity
  8
1
  6
Continuous
 62
     7
100
AcDbLine
 10
115.9000000000001
 20
573.0
 30
0.0
 11
107.9000000000001
 21
565.0
 31
0.0
  0
LINE
  5
142
330
1F
100
AcDbEntity
  8
1
  6
Continuous
 62
     7
100
AcDbLine
 10
107.9000000000001
 20
564.9999999999995
 30
0.0
 11
107.9000000000001
 21
563.0
 31
0.0
  0
LINE
  5
143
330
1F
100
AcDbEntity
  8
1
  6
Continuous
 62
     7
100
AcDbLine
 10
120.9000000000001
 20
573.0
 30
0.0
 11
120.9000000000001
 21
570.0
 31
0.0
  0
LINE
  5
144
330
1F
100
AcDbEntity
  8
1
  6
Continuous
 62
     7
100
AcDbLine
 10
120.9000000000001
 20
570.0
 30
0.0
 11
190.0000000000001
 21
570.0
 31
0.0
  0
LINE
  5
145
330
1F
100
AcDbEntity
  8
1
  6
Continuous
 62
     7
100
AcDbLine
 10
120.9000000000001
 20
573.0
 30
0.0
 11
98.40000000000006
 21
573.0
 31
0.0
  0
LINE
  5
146
330
1F
100
AcDbEntity
  8
1
  6
Continuous
 62
     7
100
AcDbLine
 10
90.40000000000006
 20
565.0000000000003
 30
0.0
 11
107.8999999999992
 21
564.9999999999986
 31
0.0
  0
LINE
  5
147
330
1F
100
AcDbEntity
  8
1
  6
Continuous
 62
     7
100
AcDbLine
 10
105.0
 20
584.9999999999999
 30
0.0
 11
105.0
 21
573.0000000000003
 31
0.0
  0
LINE
  5
148
330
1F
100
AcDbEntity
  8
1
  6
Continuous
 62
     7
100
AcDbLine
 10
116.5
 20
563.0
 30
0.0
 11
116.5
 21
540.0
 31
0.0
  0
LINE
  5
149
330
1F
100
AcDbEntity
  8
1
  6
Continuous
 62
     7
100
AcDbLine
 10
128.5
 20
540.0000000000006
 30
0.0
 11
128.5
 21
563.0
 31
0.0
  0
LINE
  5
14A
330
1F
100
AcDbEntity
  8
1
  6
Continuous
 62
     7
100
AcDbLine
 10
190.0
 20
570.0
 30
0.0
 11
122.5
 21
570.0
 31
0.0
  0
LINE
  5
14B
330
1F
100
AcDbEntity
  8
1
  6
Continuous
 62
     7
100
AcDbLine
 10
198.3143914930773
 20
680.0
 30
0.0
 11
190.0000000000015
 21
680.0
 31
0.0
  0
ARC
  5
14C
330
1F
100
AcDbEntity
  8
1
  6
Continuous
 62
     7
100
AcDbCircle
 10
222.3545739744246
 20
640.1575863770881
 30
0.0
 40
15.0
100
AcDbArc
 50
5.000000039268349
 51
35.77802453584325
  0
ARC
  5
14D
330
1F
100
AcDbEntity
  8
1
  6
Continuous
 62
     7
100
AcDbCircle
 10
125.0000000000026
 20
570.0000000000007
 30
0.0
 40
134.9999999999988
100
AcDbArc
 50
35.77802453584308
 51
52.34153799379241
  0
ARC
  5
14E
330
1F
100
AcDbEntity
  8
1
  6
Continuous
 62
     7
100
AcDbCircle
 10
198.3143914930773
 20
665.0
 30
0.0
 40
15.0
100
AcDbArc
 50
52.34153799379253
 51
89.9999999999999
  0
LINE
  5
14F
330
1F
100
AcDbEntity
  8
1
  6
Continuous
 62
     7
100
AcDbLine
 10
190.0000000000015
 20
675.0
 30
0.0
 11
198.3143914930773
 21
675.0
 31
0.0
  0
ARC
  5
150
330
1F
100
AcDbEntity
  8
1
  6
Continuous
 62
     7
100
AcDbCircle
 10
222.3545739744246
 20
640.1575863770881
 30
0.0
 40
10.0
100
AcDbArc
 50
5.000000039268349
 51
35.77802453584287
  0
LINE
  5
151
330
1F
100
AcDbEntity
  8
1
  6
Continuous
 62
     7
100
AcDbLine
 10
257.5000000000015
 20
582.0
 30
0.0
 11
257.5000000000015
 21
570.0
 31
0.0
  0
ARC
  5
152
330
1F
100
AcDbEntity
  8
1
  6
Continuous
 62
     7
100
AcDbCircle
 10
244.9865286121779
 20
588.0
 30
0.0
 40
3.0
100
AcDbArc
 50
185.0000000392662
 51
269.9999999999998
  0
LINE
  5
153
330
1F
100
AcDbEntity
  8
1
  6
Continuous
 62
     7
100
AcDbLine
 10
245.2489946048275
 20
582.0
 30
0.0
 11
257.5000000000015
 21
582.0
 31
0.0
  0
ARC
  5
154
330
1F
100
AcDbEntity
  8
1
  6
Continuous
 62
     7
100
AcDbCircle
 10
245.2489946048275
 20
585.0
 30
0.0
 40
3.0
100
AcDbArc
 50
185.0000000392662
 51
269.9999999999998
  0
LINE
  5
155
330
1F
100
AcDbEntity
  8
1
  6
Continuous
 62
     7
100
AcDbLine
 10
252.5000000000015
 20
577.0
 30
0.0
 11
252.5000000000015
 21
570.0
 31
0.0
  0
LINE
  5
156
330
1F
100
AcDbEntity
  8
1
  6
Continuous
 62
     7
100
AcDbLine
 10
237.2974944449048
 20
641.4649225285443
 30
0.0
 11
242.3438274485442
 21
583.785072815099
 31
0.0
  0
LINE
  5
157
330
1F
100
AcDbEntity
  8
1
  6
Continuous
 62
     7
100
AcDbLine
 10
242.9374444057491
 20
577.0
 30
0.0
 11
252.5000000000015
 21
577.0
 31
0.0
  0
LINE
  5
158
330
1F
100
AcDbEntity
  8
1
  6
Continuous
 62
     7
100
AcDbLine
 10
242.9374444057491
 20
577.0
 30
0.0
 11
243.549865047221
 21
570.000000091941
 31
0.0
  0
LINE
  5
159
330
1F
100
AcDbEntity
  8
1
  6
Continuous
 62
     7
100
AcDbLine
 10
232.3165209547448
 20
641.0291438113923
 30
0.0
 11
238.5307658672471
 21
570.0
 31
0.0
  0
LINE
  5
15A
330
1F
100
AcDbEntity
  8
1
  6
Continuous
 62
     7
100
AcDbLine
 10
210.3284271247477
 20
668.0768042118874
 30
0.0
 11
210.3284271247477
 21
570.0
 31
0.0
  0
LINE
  5
15B
330
1F
100
AcDbEntity
  8
1
  6
Continuous
 62
     7
100
AcDbLine
 10
208.5000000000018
 20
669.6380951243045
 30
0.0
 11
208.5000000000018
 21
570.0
 31
0.0
  0
ARC
  5
15C
330
1F
100
AcDbEntity
  8
1
  6
Continuous
 62
     7
100
AcDbCircle
 10
125.0000000000026
 20
570.0000000000007
 30
0.0
 40
129.9999999999988
100
AcDbArc
 50
35.77802453584304
 51
50.03588567048863
  0
LINE
  5
15D
330
1F
100
AcDbEntity
  8
1
  6
Continuous
 62
     7
100
AcDbLine
 10
206.5000000000015
 20
671.2805509463687
 30
0.0
 11
206.5000000000015
 21
570.0
 31
0.0
  0
LINE
  5
15E
330
1F
100
AcDbEntity
  8
1
  6
Continuous
 62
     7
100
AcDbLine
 10
204.6715728752553
 20
672.7250722831731
 30
0.0
 11
204.6715728752553
 21
570.0
 31
0.0
  0
ARC
  5
15F
330
1F
100
AcDbEntity
  8
1
  6
Continuous
 62
     7
100
AcDbCircle
 10
198.3143914930773
 20
665.0
 30
0.0
 40
10.0
100
AcDbArc
 50
52.34153799379227
 51
89.99999999999991
  0
ARC
  5
160
330
1F
100
AcDbEntity
  8
1
  6
Continuous
 62
     7
100
AcDbCircle
 10
125.0000000000026
 20
570.0000000000007
 30
0.0
 40
129.9999999999988
100
AcDbArc
 50
51.17652419879773
 51
52.34153799379239
  0
LINE
  5
161
330
1F
100
AcDbEntity
  8
1
  6
Continuous
 62
     7
100
AcDbLine
 10
244.9865286121779
 20
585.0
 30
0.0
 11
275.0000000000015
 21
585.0
 31
0.0
  0
LINE
  5
162
330
1F
100
AcDbEntity
  8
1
  6
Continuous
 62
     7
100
AcDbLine
 10
266.5000000000015
 20
584.9999999999998
 30
0.0
 11
266.5000000000015
 21
587.4999999999998
 31
0.0
  0
LINE
  5
163
330
1F
100
AcDbEntity
  8
1
  6
Continuous
 62
     7
100
AcDbLine
 10
266.5000000000015
 20
587.4999999999998
 30
0.0
 11
264.0000000000015
 21
589.9999999999998
 31
0.0
  0
LINE
  5
164
330
1F
100
AcDbEntity
  8
1
  6
Continuous
 62
     7
100
AcDbLine
 10
264.0000000000015
 20
589.9999999999998
 30
0.0
 11
251.0000000000015
 21
589.9999999999998
 31
0.0
  0
LINE
  5
165
330
1F
100
AcDbEntity
  8
1
  6
Continuous
 62
     7
100
AcDbLine
 10
248.5000000000015
 20
584.9999999999998
 30
0.0
 11
248.5000000000015
 21
587.4999999999998
 31
0.0
  0
LINE
  5
166
330
1F
100
AcDbEntity
  8
1
  6
Continuous
 62
     7
100
AcDbLine
 10
251.0000000000015
 20
589.9999999999998
 30
0.0
 11
248.5000000000015
 21
587.4999999999998
 31
0.0
  0
LINE
  5
167
330
1F
100
AcDbEntity
  8
1
  6
Continuous
 62
     7
100
AcDbLine
 10
266.5000000000015
 20
587.4999999999998
 30
0.0
 11
248.5000000000015
 21
587.4999999999998
 31
0.0
  0
ARC
  5
168
330
1F
100
AcDbEntity
  8
1
  6
Continuous
 62
     7
100
AcDbCircle
 10
260.5000000000064
 20
535.9999999999902
 30
0.0
 40
5.000000000004897
100
AcDbArc
 50
53.13010235426802
 51
126.8698976458219
  0
ARC
  5
169
330
1F
100
AcDbEntity
  8
1
  6
Continuous
 62
     7
100
AcDbCircle
 10
260.4999999999917
 20
544.0000000000099
 30
0.0
 40
5.000000000013742
100
AcDbArc
 50
233.1301023543127
 51
306.8698976458653
  0
ARC
  5
16A
330
1F
100
AcDbEntity
  8
1
  6
Continuous
 62
     7
100
AcDbCircle
 10
254.500000000002
 20
543.9999999999999
 30
0.0
 40
4.999999999999568
100
AcDbArc
 50
233.1301023541494
 51
306.8698976458392
  0
LINE
  5
16B
330
1F
100
AcDbEntity
  8
1
  6
Continuous
 62
     7
100
AcDbLine
 10
289.6000000000014
 20
565.0
 30
0.0
 11
281.6000000000014
 21
573.0
 31
0.0
  0
LINE
  5
16C
330
1F
100
AcDbEntity
  8
1
  6
Continuous
 62
     7
100
AcDbLine
 10
289.6000000000014
 20
563.0
 30
0.0
 11
289.6000000000014
 21
565.0
 31
0.0
  0
LINE
  5
16D
330
1F
100
AcDbEntity
  8
1
  6
Continuous
 62
     7
100
AcDbLine
 10
190.0000000000014
 20
563.0
 30
0.0
 11
289.6000000000014
 21
563.0
 31
0.0
  0
LINE
  5
16E
330
1F
100
AcDbEntity
  8
1
  6
Continuous
 62
     7
100
AcDbLine
 10
264.1000000000014
 20
573.0
 30
0.0
 11
272.1000000000014
 21
565.0
 31
0.0
  0
LINE
  5
16F
330
1F
100
AcDbEntity
  8
1
  6
Continuous
 62
     7
100
AcDbLine
 10
272.1000000000014
 20
564.9999999999995
 30
0.0
 11
272.1000000000014
 21
563.0
 31
0.0
  0
LINE
  5
170
330
1F
100
AcDbEntity
  8
1
  6
Continuous
 62
     7
100
AcDbLine
 10
259.1000000000014
 20
573.0
 30
0.0
 11
259.1000000000014
 21
570.0
 31
0.0
  0
LINE
  5
171
330
1F
100
AcDbEntity
  8
1
  6
Continuous
 62
     7
100
AcDbLine
 10
259.1000000000014
 20
570.0
 30
0.0
 11
190.0000000000014
 21
570.0
 31
0.0
  0
LINE
  5
172
330
1F
100
AcDbEntity
  8
1
  6
Continuous
 62
     7
100
AcDbLine
 10
259.1000000000014
 20
573.0
 30
0.0
 11
281.6000000000014
 21
573.0
 31
0.0
  0
LINE
  5
173
330
1F
100
AcDbEntity
  8
1
  6
Continuous
 62
     7
100
AcDbLine
 10
289.6000000000014
 20
565.0000000000003
 30
0.0
 11
272.1000000000023
 21
564.9999999999986
 31
0.0
  0
LINE
  5
174
330
1F
100
AcDbEntity
  8
1
  6
Continuous
 62
     7
100
AcDbLine
 10
275.0000000000015
 20
584.9999999999999
 30
0.0
 11
275.0000000000015
 21
573.0000000000003
 31
0.0
  0
LINE
  5
175
330
1F
100
AcDbEntity
  8
1
  6
Continuous
 62
     7
100
AcDbLine
 10
263.5000000000015
 20
563.0
 30
0.0
 11
263.5000000000015
 21
540.0
 31
0.0
  0
LINE
  5
176
330
1F
100
AcDbEntity
  8
1
  6
Continuous
 62
     7
100
AcDbLine
 10
251.5000000000015
 20
540.0000000000006
 30
0.0
 11
251.5000000000015
 21
563.0
 31
0.0
  0
LINE
  5
177
330
1F
100
AcDbEntity
  8
1
  6
Continuous
 62
     7
100
AcDbLine
 10
190.0000000000015
 20
570.0
 30
0.0
 11
257.5000000000015
 21
570.0
 31
0.0
  0
LINE
  5
178
330
1F
100
AcDbEntity
  8
1
  6
Continuous
 62
     7
100
AcDbLine
 10
239.8628155345481
 20
635.0905948435654
 30
0.0
 11
243.6976682454857
 21
591.2580281301568
 31
0.0
  0
ARC
  5
179
330
1F
100
AcDbEntity
  8
1
  6
Continuous
 62
     7
100
AcDbCircle
 10
43.53749698164711
 20
595.8303185442006
 30
0.0
 40
199.9999999999998
100
AcDbArc
 50
359.5212030716534
 51
10.47879700688883
  0
ARC
  5
17A
330
1F
100
AcDbEntity
  8
1
  6
Continuous
 62
     7
100
AcDbCircle
 10
242.5305486906305
 20
594.1673779121335
 30
0.0
 40
1.0
100
AcDbArc
 50
340.3828918300389
 51
359.5212030717262
  0
ARC
  5
17B
330
1F
100
AcDbEntity
  8
1
  6
Continuous
 62
     7
100
AcDbCircle
 10
240.7090841513897
 20
590.9965608998657
 30
0.0
 40
3.0
100
AcDbArc
 50
294.4712206737817
 51
5.000000039266619
  0
ARC
  5
17C
330
1F
100
AcDbEntity
  8
1
  6
Continuous
 62
     7
100
AcDbCircle
 10
239.2186304402732
 20
632.0227764373492
 30
0.0
 40
1.0
100
AcDbArc
 50
10.47879700688979
 51
29.61710824024194
  0
ARC
  5
17D
330
1F
100
AcDbEntity
  8
1
  6
Continuous
 62
     7
100
AcDbCircle
 10
236.874231440452
 20
634.8291276132743
 30
0.0
 40
3.0
100
AcDbArc
 50
5.000000039266619
 51
75.52877940475862
  0
TEXT
  5
17E
330
1F
100
AcDbEntity
  8
1
  6
Continuous
 62
     7
100
AcDbText
 10
140.0
 20
700.0
 30
0.0
 40
12.0
  1
Ａ － Ｂ 断 面 図
 41
0.7727272727272727
100
AcDbText
  0
LINE
  5
17F
330
1F
100
AcDbEntity
  8
1
  6
Continuous
 62
     7
100
AcDbLine
 10
122.5000000000006
 20
165.0000000000009
 30
0.0
 11
116.5
 21
187.3923048454145
 31
0.0
  0
LINE
  5
180
330
1F
100
AcDbEntity
  8
1
  6
Continuous
 62
     7
100
AcDbLine
 10
122.5
 20
165.0000000000005
 30
0.0
 11
128.5
 21
187.3923048454121
 31
0.0
  0
LINE
  5
181
330
1F
100
AcDbEntity
  8
1
  6
Continuous
 62
     7
100
AcDbLine
 10
116.5
 20
187.3923048454137
 30
0.0
 11
128.5
 21
187.3923048454119
 31
0.0
  0
LINE
  5
182
330
1F
100
AcDbEntity
  8
1
  6
Continuous
 62
     7
100
AcDbLine
 10
116.5
 20
343.0
 30
0.0
 11
116.5
 21
187.3923048454145
 31
0.0
  0
LINE
  5
183
330
1F
100
AcDbEntity
  8
1
  6
Continuous
 62
     7
100
AcDbLine
 10
128.5
 20
187.3923048454121
 30
0.0
 11
128.5
 21
343.0000000000001
 31
0.0
  0
LINE
  5
184
330
1F
100
AcDbEntity
  8
1
  6
Continuous
 62
     7
100
AcDbLine
 10
257.5000000000009
 20
165.0000000000009
 30
0.0
 11
263.5000000000015
 21
187.3923048454145
 31
0.0
  0
LINE
  5
185
330
1F
100
AcDbEntity
  8
1
  6
Continuous
 62
     7
100
AcDbLine
 10
257.5000000000015
 20
165.0000000000006
 30
0.0
 11
251.5000000000015
 21
187.3923048454121
 31
0.0
  0
LINE
  5
186
330
1F
100
AcDbEntity
  8
1
  6
Continuous
 62
     7
100
AcDbLine
 10
263.5000000000015
 20
187.3923048454137
 30
0.0
 11
251.5000000000015
 21
187.3923048454119
 31
0.0
  0
LINE
  5
187
330
1F
100
AcDbEntity
  8
1
  6
Continuous
 62
     7
100
AcDbLine
 10
263.5000000000015
 20
343.0
 30
0.0
 11
263.5000000000015
 21
187.3923048454145
 31
0.0
  0
LINE
  5
188
330
1F
100
AcDbEntity
  8
1
  6
Continuous
 62
     7
100
AcDbLine
 10
251.5000000000015
 20
187.3923048454121
 30
0.0
 11
251.5000000000015
 21
343.0000000000001
 31
0.0
  0
DIMENSION
  5
19C
330
1F
100
AcDbEntity
  8
1
  6
Continuous
 62
     7
100
AcDbDimension
  2
Dim5
 10
350.0
 20
364.9999999999999
 30
0.0
 11
344.0000000000002
 21
265.0000000000007
 31
0.0
 70
   160
  1
<>
 71
     5
 42
-1.0
  3
Standard
100
AcDbAlignedDimension
 13
275.0000000000015
 23
364.9999999999999
 33
0.0
 14
257.500000000001
 24
165.0000000000014
 34
0.0
 50
89.99999999999991
100
AcDbRotatedDimension
1001
ACAD
1000
DSTYLE
1002
{
1070
   344
1005
0
1070
   343
1005
0
1070
   173
1070
     1
1070
   289
1070
     2
1070
   279
1070
     2
1070
   288
1070
     1
1070
    77
1070
     3
1070
   172
1070
     1
1070
   174
1070
     0
1070
    74
1070
     0
1070
    73
1070
     0
1070
   284
1070
     8
1070
    78
1070
     8
1070
   140
1040
4.0
1070
    40
1040
1.0
1070
    42
1040
2.0
1070
    44
1040
2.0
1070
    43
1040
10.0
1070
   271
1070
     2
1070
    41
1040
4.0
1002
}
  0
DIMENSION
  5
1B0
330
1F
100
AcDbEntity
  8
1
  6
Continuous
 62
     7
100
AcDbDimension
  2
Dim6
 10
320.0
 20
343.0
 30
0.0
 11
314.0000000000002
 21
254.0000000000007
 31
0.0
 70
   160
  1
<>
 71
     5
 42
-1.0
  3
Standard
100
AcDbAlignedDimension
 13
289.5999999999985
 23
343.0
 33
0.0
 14
257.500000000001
 24
165.0000000000014
 34
0.0
 50
89.99999999999994
100
AcDbRotatedDimension
1001
ACAD
1000
DSTYLE
1002
{
1070
   344
1005
0
1070
   343
1005
0
1070
   173
1070
     1
1070
   289
1070
     2
1070
   279
1070
     2
1070
   288
1070
     1
1070
    77
1070
     3
1070
   172
1070
     1
1070
   174
1070
     0
1070
    74
1070
     0
1070
    73
1070
     0
1070
   284
1070
     8
1070
    78
1070
     8
1070
   140
1040
4.0
1070
    40
1040
1.0
1070
    42
1040
2.0
1070
    44
1040
2.0
1070
    43
1040
10.0
1070
   271
1070
     2
1070
    41
1040
4.0
1002
}
  0
LINE
  5
1B1
330
1F
100
AcDbEntity
  8
1
  6
Continuous
 62
     7
100
AcDbLine
 10
451.9824623455879
 20
460.0
 30
0.0
 11
720.0
 21
460.0000000000001
 31
0.0
  0
ARC
  5
1B2
330
1F
100
AcDbEntity
  8
1
  6
Continuous
 62
     7
100
AcDbCircle
 10
451.9824623455879
 20
445.0
 30
0.0
 40
15.0
100
AcDbArc
 50
89.99999999999991
 51
170.0000000000015
  0
LINE
  5
1B3
330
1F
100
AcDbEntity
  8
1
  6
Continuous
 62
     7
100
AcDbLine
 10
515.0112028564677
 20
364.9999999999999
 30
0.0
 11
514.7487368597278
 21
362.0
 31
0.0
  0
LINE
  5
1B4
330
1F
100
AcDbEntity
  8
1
  6
Continuous
 62
     7
100
AcDbLine
 10
434.9887969596207
 20
365.0000000000002
 30
0.0
 11
515.0112028564677
 21
364.9999999999999
 31
0.0
  0
LINE
  5
1B5
330
1F
100
AcDbEntity
  8
1
  6
Continuous
 62
     7
100
AcDbLine
 10
720.0
 20
362.0
 30
0.0
 11
499.7487377105176
 21
362.0000000000001
 31
0.0
  0
LINE
  5
1B6
330
1F
100
AcDbEntity
  8
1
  6
Continuous
 62
     7
100
AcDbLine
 10
465.9999999999998
 20
364.9999999999997
 30
0.0
 11
465.9999999999998
 21
367.4999999999997
 31
0.0
  0
LINE
  5
1B7
330
1F
100
AcDbEntity
  8
1
  6
Continuous
 62
     7
100
AcDbLine
 10
465.9999999999998
 20
367.4999999999997
 30
0.0
 11
468.4999999999998
 21
369.9999999999997
 31
0.0
  0
LINE
  5
1B8
330
1F
100
AcDbEntity
  8
1
  6
Continuous
 62
     7
100
AcDbLine
 10
468.4999999999998
 20
369.9999999999997
 30
0.0
 11
481.4999999999998
 21
369.9999999999997
 31
0.0
  0
LINE
  5
1B9
330
1F
100
AcDbEntity
  8
1
  6
Continuous
 62
     7
100
AcDbLine
 10
483.9999999999998
 20
364.9999999999997
 30
0.0
 11
483.9999999999998
 21
367.4999999999997
 31
0.0
  0
LINE
  5
1BA
330
1F
100
AcDbEntity
  8
1
  6
Continuous
 62
     7
100
AcDbLine
 10
481.4999999999998
 20
369.9999999999997
 30
0.0
 11
483.9999999999998
 21
367.4999999999997
 31
0.0
  0
LINE
  5
1BB
330
1F
100
AcDbEntity
  8
1
  6
Continuous
 62
     7
100
AcDbLine
 10
465.9999999999998
 20
367.4999999999997
 30
0.0
 11
483.9999999999998
 21
367.4999999999997
 31
0.0
  0
ARC
  5
1BC
330
1F
100
AcDbEntity
  8
1
  6
Continuous
 62
     7
100
AcDbCircle
 10
471.999999999995
 20
315.9999999999902
 30
0.0
 40
5.000000000004897
100
AcDbArc
 50
53.13010235417826
 51
126.869897645733
  0
ARC
  5
1BD
330
1F
100
AcDbEntity
  8
1
  6
Continuous
 62
     7
100
AcDbCircle
 10
472.0000000000095
 20
324.0000000000098
 30
0.0
 40
5.000000000013742
100
AcDbArc
 50
233.1301023541336
 51
306.8698976456861
  0
ARC
  5
1BE
330
1F
100
AcDbEntity
  8
1
  6
Continuous
 62
     7
100
AcDbCircle
 10
477.9999999999992
 20
323.9999999999998
 30
0.0
 40
4.999999999999568
100
AcDbArc
 50
233.13010235416
 51
306.8698976458504
  0
LINE
  5
1BF
330
1F
100
AcDbEntity
  8
1
  6
Continuous
 62
     7
100
AcDbLine
 10
404.5
 20
343.0
 30
0.0
 11
720.0
 21
343.0
 31
0.0
  0
LINE
  5
1C0
330
1F
100
AcDbEntity
  8
1
  6
Continuous
 62
     7
100
AcDbLine
 10
404.5
 20
343.0
 30
0.0
 11
404.5
 21
345.0
 31
0.0
  0
LINE
  5
1C1
330
1F
100
AcDbEntity
  8
1
  6
Continuous
 62
     7
100
AcDbLine
 10
720.0
 20
353.0
 30
0.0
 11
412.5
 21
353.0
 31
0.0
  0
LINE
  5
1C2
330
1F
100
AcDbEntity
  8
1
  6
Continuous
 62
     7
100
AcDbLine
 10
404.5
 20
345.0
 30
0.0
 11
412.5
 21
353.0
 31
0.0
  0
LINE
  5
1C3
330
1F
100
AcDbEntity
  8
1
  6
Continuous
 62
     7
100
AcDbLine
 10
404.5
 20
345.0
 30
0.0
 11
720.0
 21
345.0
 31
0.0
  0
LINE
  5
1C4
330
1F
100
AcDbEntity
  8
1
  6
Continuous
 62
     7
100
AcDbLine
 10
429.9632538821372
 20
343.0000000000001
 30
0.0
 11
429.9632538821372
 21
345.0
 31
0.0
  0
LINE
  5
1C5
330
1F
100
AcDbEntity
  8
1
  6
Continuous
 62
     7
100
AcDbLine
 10
429.9632538821372
 20
345.0
 30
0.0
 11
433.5607200876043
 21
353.0
 31
0.0
  0
LINE
  5
1C6
330
1F
100
AcDbEntity
  8
1
  6
Continuous
 62
     7
100
AcDbLine
 10
505.7962553521768
 20
343.0
 30
0.0
 11
505.7962553521768
 21
345.0
 31
0.0
  0
LINE
  5
1C7
330
1F
100
AcDbEntity
  8
1
  6
Continuous
 62
     7
100
AcDbLine
 10
505.7962553521768
 20
345.0
 30
0.0
 11
502.4825468531894
 21
353.0
 31
0.0
  0
LINE
  5
1C8
330
1F
100
AcDbEntity
  8
1
  6
Continuous
 62
     7
100
AcDbLine
 10
420.5289809421254
 20
353.0
 30
0.0
 11
437.2103460504047
 21
447.6047226650036
 31
0.0
  0
LINE
  5
1C9
330
1F
100
AcDbEntity
  8
1
  6
Continuous
 62
     7
100
AcDbLine
 10
436.0386609605057
 20
352.9999999999999
 30
0.0
 11
434.9887969596207
 21
365.0000000000002
 31
0.0
  0
LINE
  5
1CA
330
1F
100
AcDbEntity
  8
1
  6
Continuous
 62
     7
100
AcDbLine
 10
468.9999999999998
 20
343.0000000000001
 30
0.0
 11
468.9999999999998
 21
320.0
 31
0.0
  0
LINE
  5
1CB
330
1F
100
AcDbEntity
  8
1
  6
Continuous
 62
     7
100
AcDbLine
 10
480.9999999999998
 20
320.0000000000005
 30
0.0
 11
480.9999999999998
 21
343.0
 31
0.0
  0
LINE
  5
1CC
330
1F
100
AcDbEntity
  8
1
  6
Continuous
 62
     7
100
AcDbLine
 10
499.7487377105165
 20
353.0
 30
0.0
 11
499.7487377105166
 21
362.0000000000001
 31
0.0
  0
LINE
  5
1CD
330
1F
100
AcDbEntity
  8
1
  6
Continuous
 62
     7
100
AcDbLine
 10
988.0175376544121
 20
460.0
 30
0.0
 11
720.0
 21
460.0000000000001
 31
0.0
  0
ARC
  5
1CE
330
1F
100
AcDbEntity
  8
1
  6
Continuous
 62
     7
100
AcDbCircle
 10
988.0175376544121
 20
445.0
 30
0.0
 40
15.0
100
AcDbArc
 50
9.999999999998533
 51
89.99999999999991
  0
LINE
  5
1CF
330
1F
100
AcDbEntity
  8
1
  6
Continuous
 62
     7
100
AcDbLine
 10
924.9887971435323
 20
364.9999999999999
 30
0.0
 11
925.2512631402722
 21
362.0
 31
0.0
  0
LINE
  5
1D0
330
1F
100
AcDbEntity
  8
1
  6
Continuous
 62
     7
100
AcDbLine
 10
1005.011203040379
 20
365.0000000000002
 30
0.0
 11
924.9887971435323
 21
364.9999999999999
 31
0.0
  0
LINE
  5
1D1
330
1F
100
AcDbEntity
  8
1
  6
Continuous
 62
     7
100
AcDbLine
 10
720.0
 20
362.0
 30
0.0
 11
940.2512622894824
 21
362.0000000000001
 31
0.0
  0
LINE
  5
1D2
330
1F
100
AcDbEntity
  8
1
  6
Continuous
 62
     7
100
AcDbLine
 10
974.0000000000002
 20
364.9999999999997
 30
0.0
 11
974.0000000000002
 21
367.4999999999997
 31
0.0
  0
LINE
  5
1D3
330
1F
100
AcDbEntity
  8
1
  6
Continuous
 62
     7
100
AcDbLine
 10
974.0000000000002
 20
367.4999999999997
 30
0.0
 11
971.5000000000002
 21
369.9999999999997
 31
0.0
  0
LINE
  5
1D4
330
1F
100
AcDbEntity
  8
1
  6
Continuous
 62
     7
100
AcDbLine
 10
971.5000000000002
 20
369.9999999999997
 30
0.0
 11
958.5000000000002
 21
369.9999999999997
 31
0.0
  0
LINE
  5
1D5
330
1F
100
AcDbEntity
  8
1
  6
Continuous
 62
     7
100
AcDbLine
 10
956.0000000000002
 20
364.9999999999997
 30
0.0
 11
956.0000000000002
 21
367.4999999999997
 31
0.0
  0
LINE
  5
1D6
330
1F
100
AcDbEntity
  8
1
  6
Continuous
 62
     7
100
AcDbLine
 10
958.5000000000002
 20
369.9999999999997
 30
0.0
 11
956.0000000000002
 21
367.4999999999997
 31
0.0
  0
LINE
  5
1D7
330
1F
100
AcDbEntity
  8
1
  6
Continuous
 62
     7
100
AcDbLine
 10
974.0000000000002
 20
367.4999999999997
 30
0.0
 11
956.0000000000002
 21
367.4999999999997
 31
0.0
  0
ARC
  5
1D8
330
1F
100
AcDbEntity
  8
1
  6
Continuous
 62
     7
100
AcDbCircle
 10
968.000000000005
 20
315.9999999999902
 30
0.0
 40
5.000000000004897
100
AcDbArc
 50
53.13010235426697
 51
126.8698976458217
  0
ARC
  5
1D9
330
1F
100
AcDbEntity
  8
1
  6
Continuous
 62
     7
100
AcDbCircle
 10
967.9999999999905
 20
324.0000000000098
 30
0.0
 40
5.000000000013742
100
AcDbArc
 50
233.1301023543131
 51
306.8698976458657
  0
ARC
  5
1DA
330
1F
100
AcDbEntity
  8
1
  6
Continuous
 62
     7
100
AcDbCircle
 10
962.0000000000008
 20
323.9999999999998
 30
0.0
 40
4.999999999999568
100
AcDbArc
 50
233.1301023541488
 51
306.8698976458392
  0
LINE
  5
1DB
330
1F
100
AcDbEntity
  8
1
  6
Continuous
 62
     7
100
AcDbLine
 10
1035.5
 20
343.0
 30
0.0
 11
720.0
 21
343.0
 31
0.0
  0
LINE
  5
1DC
330
1F
100
AcDbEntity
  8
1
  6
Continuous
 62
     7
100
AcDbLine
 10
1035.5
 20
343.0
 30
0.0
 11
1035.5
 21
345.0
 31
0.0
  0
LINE
  5
1DD
330
1F
100
AcDbEntity
  8
1
  6
Continuous
 62
     7
100
AcDbLine
 10
720.0
 20
353.0
 30
0.0
 11
1027.5
 21
353.0
 31
0.0
  0
LINE
  5
1DE
330
1F
100
AcDbEntity
  8
1
  6
Continuous
 62
     7
100
AcDbLine
 10
1035.5
 20
345.0
 30
0.0
 11
1027.5
 21
353.0
 31
0.0
  0
LINE
  5
1DF
330
1F
100
AcDbEntity
  8
1
  6
Continuous
 62
     7
100
AcDbLine
 10
1035.5
 20
345.0
 30
0.0
 11
720.0
 21
345.0
 31
0.0
  0
LINE
  5
1E0
330
1F
100
AcDbEntity
  8
1
  6
Continuous
 62
     7
100
AcDbLine
 10
1010.036746117863
 20
343.0000000000001
 30
0.0
 11
1010.036746117863
 21
345.0
 31
0.0
  0
LINE
  5
1E1
330
1F
100
AcDbEntity
  8
1
  6
Continuous
 62
     7
100
AcDbLine
 10
1010.036746117863
 20
345.0
 30
0.0
 11
1006.439279912396
 21
353.0
 31
0.0
  0
LINE
  5
1E2
330
1F
100
AcDbEntity
  8
1
  6
Continuous
 62
     7
100
AcDbLine
 10
934.2037446478232
 20
343.0
 30
0.0
 11
934.2037446478232
 21
345.0
 31
0.0
  0
LINE
  5
1E3
330
1F
100
AcDbEntity
  8
1
  6
Continuous
 62
     7
100
AcDbLine
 10
934.2037446478232
 20
345.0
 30
0.0
 11
937.5174531468106
 21
353.0
 31
0.0
  0
LINE
  5
1E4
330
1F
100
AcDbEntity
  8
1
  6
Continuous
 62
     7
100
AcDbLine
 10
1019.471019057875
 20
353.0
 30
0.0
 11
1002.789653949595
 21
447.6047226650036
 31
0.0
  0
LINE
  5
1E5
330
1F
100
AcDbEntity
  8
1
  6
Continuous
 62
     7
100
AcDbLine
 10
1003.961339039494
 20
352.9999999999999
 30
0.0
 11
1005.011203040379
 21
365.0000000000002
 31
0.0
  0
LINE
  5
1E6
330
1F
100
AcDbEntity
  8
1
  6
Continuous
 62
     7
100
AcDbLine
 10
971.0000000000002
 20
343.0000000000001
 30
0.0
 11
971.0000000000002
 21
320.0
 31
0.0
  0
LINE
  5
1E7
330
1F
100
AcDbEntity
  8
1
  6
Continuous
 62
     7
100
AcDbLine
 10
959.0000000000002
 20
320.0000000000005
 30
0.0
 11
959.0000000000002
 21
343.0
 31
0.0
  0
LINE
  5
1E8
330
1F
100
AcDbEntity
  8
1
  6
Continuous
 62
     7
100
AcDbLine
 10
940.2512622894835
 20
353.0
 30
0.0
 11
940.2512622894834
 21
362.0000000000001
 31
0.0
  0
CIRCLE
  5
1E9
330
1F
100
AcDbEntity
  8
1
  6
Continuous
 62
     7
100
AcDbCircle
 10
522.5
 20
393.0
 30
0.0
 40
20.0
  0
CIRCLE
  5
1EA
330
1F
100
AcDbEntity
  8
1
  6
Continuous
 62
     7
100
AcDbCircle
 10
522.5
 20
393.0
 30
0.0
 40
25.0
  0
CIRCLE
  5
1EB
330
1F
100
AcDbEntity
  8
1
  6
Continuous
 62
     7
100
AcDbCircle
 10
917.5000000000001
 20
393.0
 30
0.0
 40
20.0
  0
CIRCLE
  5
1EC
330
1F
100
AcDbEntity
  8
1
  6
Continuous
 62
     7
100
AcDbCircle
 10
917.5000000000001
 20
393.0
 30
0.0
 40
25.0
  0
INSERT
  5
24C
330
1F
100
AcDbEntity
  8
0
100
AcDbBlockReference
  2
*G18
 10
0.0
 20
0.0
 30
0.0
  0
INSERT
  5
2AC
330
1F
100
AcDbEntity
  8
0
100
AcDbBlockReference
  2
*G19
 10
0.0
 20
0.0
 30
0.0
  0
DIMENSION
  5
2C0
330
1F
100
AcDbEntity
  8
1
  6
Continuous
 62
     7
100
AcDbDimension
  2
Dim7
 10
420.0000000000002
 20
490.0
 30
0.0
 11
720.0000000000002
 21
496.0
 31
0.0
 70
   160
  1
<>
 71
     5
 42
-1.0
  3
Standard
100
AcDbAlignedDimension
 13
420.0
 23
350.0
 33
0.0
 14
1020.0
 24
349.9999999999976
 34
0.0
100
AcDbRotatedDimension
1001
ACAD
1000
DSTYLE
1002
{
1070
   344
1005
0
1070
   343
1005
0
1070
   173
1070
     1
1070
   289
1070
     2
1070
   279
1070
     2
1070
   288
1070
     1
1070
    77
1070
     3
1070
   172
1070
     1
1070
   174
1070
     0
1070
    74
1070
     0
1070
    73
1070
     0
1070
   284
1070
     8
1070
    78
1070
     8
1070
   140
1040
4.0
1070
    40
1040
1.0
1070
    42
1040
4.0
1070
    44
1040
4.0
1070
    43
1040
10.0
1070
   271
1070
     2
1070
    41
1040
4.0
1002
}
  0
LINE
  5
2C1
330
1F
100
AcDbEntity
  8
1
  6
Continuous
 62
     7
100
AcDbLine
 10
404.5
 20
192.4999999999998
 30
0.0
 11
404.5
 21
231.0499999999998
 31
0.0
  0
ARC
  5
2C2
330
1F
100
AcDbEntity
  8
1
  6
Continuous
 62
     7
100
AcDbCircle
 10
475.0
 20
259.9999999999998
 30
0.0
 40
32.10000000000002
100
AcDbArc
 50
45.0
 51
135.0
  0
LINE
  5
2C3
330
1F
100
AcDbEntity
  8
1
  6
Continuous
 62
     7
100
AcDbLine
 10
505.7962553521763
 20
274.5999999999999
 30
0.0
 11
497.6981276760882
 21
282.6981276760881
 31
0.0
  0
LINE
  5
2C4
330
1F
100
AcDbEntity
  8
1
  6
Continuous
 62
     7
100
AcDbLine
 10
505.7962553521763
 20
274.5999999999999
 30
0.0
 11
720.0
 21
274.5999999999999
 31
0.0
  0
LINE
  5
2C5
330
1F
100
AcDbEntity
  8
1
  6
Continuous
 62
     7
100
AcDbLine
 10
452.3018723239118
 20
282.6981276760881
 30
0.0
 11
429.9632538821432
 21
260.3595092343194
 31
0.0
  0
ARC
  5
2C6
330
1F
100
AcDbEntity
  8
1
  6
Continuous
 62
     7
100
AcDbCircle
 10
434.1000000000001
 20
231.0499999999998
 30
0.0
 40
29.6
100
AcDbArc
 50
98.03366572686123
 51
179.9999999999998
  0
LINE
  5
2C7
330
1F
100
AcDbEntity
  8
1
  6
Continuous
 62
     7
100
AcDbLine
 10
404.5
 20
192.4999999999999
 30
0.0
 11
404.5
 21
153.95
 31
0.0
  0
ARC
  5
2C8
330
1F
100
AcDbEntity
  8
1
  6
Continuous
 62
     7
100
AcDbCircle
 10
475.0
 20
125.0
 30
0.0
 40
32.10000000000002
100
AcDbArc
 50
224.9999999999996
 51
314.9999999999997
  0
LINE
  5
2C9
330
1F
100
AcDbEntity
  8
1
  6
Continuous
 62
     7
100
AcDbLine
 10
505.7962553521763
 20
110.3999999999999
 30
0.0
 11
497.6981276760882
 21
102.3018723239118
 31
0.0
  0
LINE
  5
2CA
330
1F
100
AcDbEntity
  8
1
  6
Continuous
 62
     7
100
AcDbLine
 10
505.7962553521763
 20
110.3999999999999
 30
0.0
 11
720.0
 21
110.3999999999999
 31
0.0
  0
LINE
  5
2CB
330
1F
100
AcDbEntity
  8
1
  6
Continuous
 62
     7
100
AcDbLine
 10
452.3018723239118
 20
102.3018723239118
 30
0.0
 11
429.9632538821432
 21
124.6404907656804
 31
0.0
  0
ARC
  5
2CC
330
1F
100
AcDbEntity
  8
1
  6
Continuous
 62
     7
100
AcDbCircle
 10
434.1000000000001
 20
153.95
 30
0.0
 40
29.6
100
AcDbArc
 50
179.9999999999998
 51
261.9663342731384
  0
LINE
  5
2CD
330
1F
100
AcDbEntity
  8
1
  6
Continuous
 62
     7
100
AcDbLine
 10
1035.5
 20
192.4999999999998
 30
0.0
 11
1035.5
 21
231.0499999999998
 31
0.0
  0
ARC
  5
2CE
330
1F
100
AcDbEntity
  8
1
  6
Continuous
 62
     7
100
AcDbCircle
 10
965.0
 20
259.9999999999998
 30
0.0
 40
32.10000000000002
100
AcDbArc
 50
45.0
 51
134.9999999999997
  0
LINE
  5
2CF
330
1F
100
AcDbEntity
  8
1
  6
Continuous
 62
     7
100
AcDbLine
 10
934.2037446478237
 20
274.5999999999999
 30
0.0
 11
942.301872323912
 21
282.6981276760881
 31
0.0
  0
LINE
  5
2D0
330
1F
100
AcDbEntity
  8
1
  6
Continuous
 62
     7
100
AcDbLine
 10
934.2037446478237
 20
274.5999999999999
 30
0.0
 11
720.0
 21
274.5999999999999
 31
0.0
  0
LINE
  5
2D1
330
1F
100
AcDbEntity
  8
1
  6
Continuous
 62
     7
100
AcDbLine
 10
987.6981276760882
 20
282.6981276760881
 30
0.0
 11
1010.036746117857
 21
260.3595092343194
 31
0.0
  0
ARC
  5
2D2
330
1F
100
AcDbEntity
  8
1
  6
Continuous
 62
     7
100
AcDbCircle
 10
1005.9
 20
231.0499999999998
 30
0.0
 40
29.6
100
AcDbArc
 50
0.0
 51
81.96633427313901
  0
LINE
  5
2D3
330
1F
100
AcDbEntity
  8
1
  6
Continuous
 62
     7
100
AcDbLine
 10
1035.5
 20
192.4999999999999
 30
0.0
 11
1035.5
 21
153.95
 31
0.0
  0
ARC
  5
2D4
330
1F
100
AcDbEntity
  8
1
  6
Continuous
 62
     7
100
AcDbCircle
 10
965.0
 20
125.0
 30
0.0
 40
32.10000000000002
100
AcDbArc
 50
224.9999999999999
 51
314.9999999999997
  0
LINE
  5
2D5
330
1F
100
AcDbEntity
  8
1
  6
Continuous
 62
     7
100
AcDbLine
 10
934.2037446478237
 20
110.3999999999999
 30
0.0
 11
942.301872323912
 21
102.3018723239118
 31
0.0
  0
LINE
  5
2D6
330
1F
100
AcDbEntity
  8
1
  6
Continuous
 62
     7
100
AcDbLine
 10
934.2037446478237
 20
110.3999999999999
 30
0.0
 11
720.0
 21
110.3999999999999
 31
0.0
  0
LINE
  5
2D7
330
1F
100
AcDbEntity
  8
1
  6
Continuous
 62
     7
100
AcDbLine
 10
987.6981276760882
 20
102.3018723239118
 30
0.0
 11
1010.036746117857
 21
124.6404907656804
 31
0.0
  0
ARC
  5
2D8
330
1F
100
AcDbEntity
  8
1
  6
Continuous
 62
     7
100
AcDbCircle
 10
1005.9
 20
153.95
 30
0.0
 40
29.6
100
AcDbArc
 50
278.0336657268606
 51
0.0
  0
CIRCLE
  5
2D9
330
1F
100
AcDbEntity
  8
1
  6
Continuous
 62
     7
100
AcDbCircle
 10
475.0
 20
260.0
 30
0.0
 40
6.5
  0
CIRCLE
  5
2DA
330
1F
100
AcDbEntity
  8
1
  6
Continuous
 62
     7
100
AcDbCircle
 10
475.0
 20
125.0
 30
0.0
 40
6.5
  0
CIRCLE
  5
2DB
330
1F
100
AcDbEntity
  8
1
  6
Continuous
 62
     7
100
AcDbCircle
 10
965.0
 20
260.0
 30
0.0
 40
6.5
  0
CIRCLE
  5
2DC
330
1F
100
AcDbEntity
  8
1
  6
Continuous
 62
     7
100
AcDbCircle
 10
965.0
 20
125.0
 30
0.0
 40
6.5
  0
CIRCLE
  5
2DD
330
1F
100
AcDbEntity
  8
1
  6
Continuous
 62
     7
100
AcDbCircle
 10
965.0
 20
260.0
 30
0.0
 40
12.0
  0
CIRCLE
  5
2DE
330
1F
100
AcDbEntity
  8
1
  6
Continuous
 62
     7
100
AcDbCircle
 10
965.0000000000001
 20
125.0
 30
0.0
 40
12.0
  0
CIRCLE
  5
2DF
330
1F
100
AcDbEntity
  8
1
  6
Continuous
 62
     7
100
AcDbCircle
 10
475.0
 20
259.9999999999999
 30
0.0
 40
12.0
  0
CIRCLE
  5
2E0
330
1F
100
AcDbEntity
  8
1
  6
Continuous
 62
     7
100
AcDbCircle
 10
474.9999999999994
 20
125.0
 30
0.0
 40
12.0
  0
LINE
  5
2E1
330
1F
100
AcDbEntity
  8
1
  6
Continuous
 62
     7
100
AcDbLine
 10
420.0
 20
676.0498650472196
 30
0.0
 11
420.0
 21
637.5
 31
0.0
  0
ARC
  5
2E2
330
1F
100
AcDbEntity
  8
1
  6
Continuous
 62
     7
100
AcDbCircle
 10
435.0
 20
676.0498650472196
 30
0.0
 40
15.0
100
AcDbArc
 50
89.99999999999991
 51
179.9999999999998
  0
ARC
  5
2E3
330
1F
100
AcDbEntity
  8
1
  6
Continuous
 62
     7
100
AcDbCircle
 10
475.0000001760495
 20
704.9999999999999
 30
0.0
 40
17.50000000000023
100
AcDbArc
 50
45.0
 51
135.0
  0
LINE
  5
2E4
330
1F
100
AcDbEntity
  8
1
  6
Continuous
 62
     7
100
AcDbLine
 10
499.7487377105165
 20
705.0
 30
0.0
 11
720.0
 21
705.0
 31
0.0
  0
LINE
  5
2E5
330
1F
100
AcDbEntity
  8
1
  6
Continuous
 62
     7
100
AcDbLine
 10
514.7487368597281
 20
690.0000010846647
 30
0.0
 11
720.0
 21
690.0000010846647
 31
0.0
  0
LINE
  5
2E6
330
1F
100
AcDbEntity
  8
1
  6
Continuous
 62
     7
100
AcDbLine
 10
436.3011269607393
 20
691.0498650472196
 30
0.0
 11
435.0
 21
691.0498650472196
 31
0.0
  0
LINE
  5
2E7
330
1F
100
AcDbEntity
  8
1
  6
Continuous
 62
     7
100
AcDbLine
 10
434.9887969596203
 20
689.7375350920152
 30
0.0
 11
462.6256315052848
 21
717.3743686707646
 31
0.0
  0
LINE
  5
2E8
330
1F
100
AcDbEntity
  8
1
  6
Continuous
 62
     7
100
AcDbLine
 10
434.9887969596203
 20
689.7375350920152
 30
0.0
 11
515.0112028564703
 21
689.7375350920152
 31
0.0
  0
LINE
  5
2E9
330
1F
100
AcDbEntity
  8
1
  6
Continuous
 62
     7
100
AcDbLine
 10
487.3743688468143
 20
717.3743686707646
 30
0.0
 11
515.0112028564703
 21
689.7375350920152
 31
0.0
  0
CIRCLE
  5
2EA
330
1F
100
AcDbEntity
  8
1
  6
Continuous
 62
     7
100
AcDbCircle
 10
474.9999999999999
 20
705.0
 30
0.0
 40
9.0
  0
CIRCLE
  5
2EB
330
1F
100
AcDbEntity
  8
1
  6
Continuous
 62
     7
100
AcDbCircle
 10
474.9999999999999
 20
705.0
 30
0.0
 40
6.5
  0
LINE
  5
2EC
330
1F
100
AcDbEntity
  8
1
  6
Continuous
 62
     7
100
AcDbLine
 10
420.0
 20
598.9501349527804
 30
0.0
 11
420.0
 21
637.5
 31
0.0
  0
ARC
  5
2ED
330
1F
100
AcDbEntity
  8
1
  6
Continuous
 62
     7
100
AcDbCircle
 10
435.0
 20
598.9501349527804
 30
0.0
 40
15.0
100
AcDbArc
 50
179.9999999999998
 51
269.9999999999998
  0
ARC
  5
2EE
330
1F
100
AcDbEntity
  8
1
  6
Continuous
 62
     7
100
AcDbCircle
 10
475.0000001760495
 20
570.0000000000001
 30
0.0
 40
17.50000000000023
100
AcDbArc
 50
224.9999999999996
 51
314.9999999999997
  0
LINE
  5
2EF
330
1F
100
AcDbEntity
  8
1
  6
Continuous
 62
     7
100
AcDbLine
 10
499.7487377105165
 20
570.0
 30
0.0
 11
720.0
 21
570.0
 31
0.0
  0
LINE
  5
2F0
330
1F
100
AcDbEntity
  8
1
  6
Continuous
 62
     7
100
AcDbLine
 10
436.3011269607393
 20
583.9501349527804
 30
0.0
 11
435.0
 21
583.9501349527804
 31
0.0
  0
LINE
  5
2F1
330
1F
100
AcDbEntity
  8
1
  6
Continuous
 62
     7
100
AcDbLine
 10
434.9887969596203
 20
585.2624649079848
 30
0.0
 11
462.6256315052848
 21
557.6256313292354
 31
0.0
  0
CIRCLE
  5
2F2
330
1F
100
AcDbEntity
  8
1
  6
Continuous
 62
     7
100
AcDbCircle
 10
474.9999999999999
 20
570.0
 30
0.0
 40
9.0
  0
CIRCLE
  5
2F3
330
1F
100
AcDbEntity
  8
1
  6
Continuous
 62
     7
100
AcDbCircle
 10
474.9999999999999
 20
570.0
 30
0.0
 40
6.5
  0
LINE
  5
2F4
330
1F
100
AcDbEntity
  8
1
  6
Continuous
 62
     7
100
AcDbLine
 10
1020.0
 20
676.0498650472196
 30
0.0
 11
1020.0
 21
637.5
 31
0.0
  0
ARC
  5
2F5
330
1F
100
AcDbEntity
  8
1
  6
Continuous
 62
     7
100
AcDbCircle
 10
1005.0
 20
676.0498650472196
 30
0.0
 40
15.0
100
AcDbArc
 50
0.0
 51
89.99999999999991
  0
ARC
  5
2F6
330
1F
100
AcDbEntity
  8
1
  6
Continuous
 62
     7
100
AcDbCircle
 10
964.9999998239505
 20
704.9999999999999
 30
0.0
 40
17.50000000000023
100
AcDbArc
 50
44.99999999999974
 51
135.0
  0
LINE
  5
2F7
330
1F
100
AcDbEntity
  8
1
  6
Continuous
 62
     7
100
AcDbLine
 10
940.2512622894835
 20
705.0
 30
0.0
 11
720.0
 21
705.0
 31
0.0
  0
LINE
  5
2F8
330
1F
100
AcDbEntity
  8
1
  6
Continuous
 62
     7
100
AcDbLine
 10
925.2512631402719
 20
690.0000010846647
 30
0.0
 11
720.0
 21
690.0000010846647
 31
0.0
  0
LINE
  5
2F9
330
1F
100
AcDbEntity
  8
1
  6
Continuous
 62
     7
100
AcDbLine
 10
1003.698873039261
 20
691.0498650472196
 30
0.0
 11
1005.0
 21
691.0498650472196
 31
0.0
  0
LINE
  5
2FA
330
1F
100
AcDbEntity
  8
1
  6
Continuous
 62
     7
100
AcDbLine
 10
1005.01120304038
 20
689.7375350920152
 30
0.0
 11
977.3743684947153
 21
717.3743686707646
 31
0.0
  0
LINE
  5
2FB
330
1F
100
AcDbEntity
  8
1
  6
Continuous
 62
     7
100
AcDbLine
 10
1005.01120304038
 20
689.7375350920152
 30
0.0
 11
924.9887971435297
 21
689.7375350920152
 31
0.0
  0
LINE
  5
2FC
330
1F
100
AcDbEntity
  8
1
  6
Continuous
 62
     7
100
AcDbLine
 10
952.6256311531857
 20
717.3743686707646
 30
0.0
 11
924.9887971435297
 21
689.7375350920152
 31
0.0
  0
CIRCLE
  5
2FD
330
1F
100
AcDbEntity
  8
1
  6
Continuous
 62
     7
100
AcDbCircle
 10
965.0
 20
705.0
 30
0.0
 40
9.0
  0
CIRCLE
  5
2FE
330
1F
100
AcDbEntity
  8
1
  6
Continuous
 62
     7
100
AcDbCircle
 10
965.0
 20
705.0
 30
0.0
 40
6.5
  0
LINE
  5
2FF
330
1F
100
AcDbEntity
  8
1
  6
Continuous
 62
     7
100
AcDbLine
 10
1020.0
 20
598.9501349527804
 30
0.0
 11
1020.0
 21
637.5
 31
0.0
  0
ARC
  5
300
330
1F
100
AcDbEntity
  8
1
  6
Continuous
 62
     7
100
AcDbCircle
 10
1005.0
 20
598.9501349527804
 30
0.0
 40
15.0
100
AcDbArc
 50
269.9999999999998
 51
0.0
  0
ARC
  5
301
330
1F
100
AcDbEntity
  8
1
  6
Continuous
 62
     7
100
AcDbCircle
 10
964.9999998239505
 20
570.0000000000001
 30
0.0
 40
17.50000000000023
100
AcDbArc
 50
224.9999999999996
 51
314.9999999999999
  0
LINE
  5
302
330
1F
100
AcDbEntity
  8
1
  6
Continuous
 62
     7
100
AcDbLine
 10
940.2512622894835
 20
570.0
 30
0.0
 11
720.0
 21
570.0
 31
0.0
  0
LINE
  5
303
330
1F
100
AcDbEntity
  8
1
  6
Continuous
 62
     7
100
AcDbLine
 10
1003.698873039261
 20
583.9501349527804
 30
0.0
 11
1005.0
 21
583.9501349527804
 31
0.0
  0
LINE
  5
304
330
1F
100
AcDbEntity
  8
1
  6
Continuous
 62
     7
100
AcDbLine
 10
1005.01120304038
 20
585.2624649079848
 30
0.0
 11
977.3743684947153
 21
557.6256313292354
 31
0.0
  0
CIRCLE
  5
305
330
1F
100
AcDbEntity
  8
1
  6
Continuous
 62
     7
100
AcDbCircle
 10
965.0
 20
570.0
 30
0.0
 40
9.0
  0
CIRCLE
  5
306
330
1F
100
AcDbEntity
  8
1
  6
Continuous
 62
     7
100
AcDbCircle
 10
965.0
 20
570.0
 30
0.0
 40
6.5
  0
LINE
  5
307
330
1F
100
AcDbEntity
  8
1
  6
Continuous
 62
     7
100
AcDbLine
 10
404.5
 20
637.5
 30
0.0
 11
404.5
 21
676.05
 31
0.0
  0
LINE
  5
308
330
1F
100
AcDbEntity
  8
1
  6
Continuous
 62
     7
100
AcDbLine
 10
412.5
 20
637.5
 30
0.0
 11
412.5
 21
676.05
 31
0.0
  0
LINE
  5
309
330
1F
100
AcDbEntity
  8
1
  6
Continuous
 62
     7
100
AcDbLine
 10
417.5
 20
637.5
 30
0.0
 11
417.5
 21
676.05
 31
0.0
  0
ARC
  5
30A
330
1F
100
AcDbEntity
  8
1
  6
Continuous
 62
     7
100
AcDbCircle
 10
434.1
 20
676.05
 30
0.0
 40
16.6
100
AcDbArc
 50
89.99999999999991
 51
179.9999999999998
  0
CIRCLE
  5
30B
330
1F
100
AcDbEntity
  8
1
  6
Continuous
 62
     7
100
AcDbCircle
 10
475.0
 20
705.0
 30
0.0
 40
6.5
  0
ARC
  5
30C
330
1F
100
AcDbEntity
  8
1
  6
Continuous
 62
     7
100
AcDbCircle
 10
475.0
 20
705.0
 30
0.0
 40
32.10000000000002
100
AcDbArc
 50
45.00000000000015
 51
135.0
  0
ARC
  5
30D
330
1F
100
AcDbEntity
  8
1
  6
Continuous
 62
     7
100
AcDbCircle
 10
475.0
 20
705.0
 30
0.0
 40
24.10000000000002
100
AcDbArc
 50
45.0
 51
135.0
  0
ARC
  5
30E
330
1F
100
AcDbEntity
  8
1
  6
Continuous
 62
     7
100
AcDbCircle
 10
475.0
 20
705.0
 30
0.0
 40
19.10000000000002
100
AcDbArc
 50
45.0
 51
135.0
  0
LINE
  5
30F
330
1F
100
AcDbEntity
  8
1
  6
Continuous
 62
     7
100
AcDbLine
 10
505.7962553521763
 20
719.6
 30
0.0
 11
497.6981276760881
 21
727.6981276760882
 31
0.0
  0
LINE
  5
310
330
1F
100
AcDbEntity
  8
1
  6
Continuous
 62
     7
100
AcDbLine
 10
505.7962553521763
 20
719.6
 30
0.0
 11
720.0
 21
719.6
 31
0.0
  0
LINE
  5
311
330
1F
100
AcDbEntity
  8
1
  6
Continuous
 62
     7
100
AcDbLine
 10
492.0412734265958
 20
722.0412734265958
 30
0.0
 11
502.4825468531915
 21
711.6
 31
0.0
  0
LINE
  5
312
330
1F
100
AcDbEntity
  8
1
  6
Continuous
 62
     7
100
AcDbLine
 10
502.4825468531915
 20
711.6
 30
0.0
 11
720.0
 21
711.6
 31
0.0
  0
LINE
  5
313
330
1F
100
AcDbEntity
  8
1
  6
Continuous
 62
     7
100
AcDbLine
 10
488.505739520663
 20
718.505739520663
 30
0.0
 11
500.4114790413262
 21
706.6
 31
0.0
  0
LINE
  5
314
330
1F
100
AcDbEntity
  8
1
  6
Continuous
 62
     7
100
AcDbLine
 10
500.4114790413262
 20
706.6
 30
0.0
 11
720.0
 21
706.6
 31
0.0
  0
LINE
  5
315
330
1F
100
AcDbEntity
  8
1
  6
Continuous
 62
     7
100
AcDbLine
 10
505.7962553521768
 20
719.6
 30
0.0
 11
502.4825468531895
 21
711.6
 31
0.0
  0
LINE
  5
316
330
1F
100
AcDbEntity
  8
1
  6
Continuous
 62
     7
100
AcDbLine
 10
452.3018723239118
 20
727.6981276760882
 30
0.0
 11
429.9632538821431
 21
705.3595092343196
 31
0.0
  0
LINE
  5
317
330
1F
100
AcDbEntity
  8
1
  6
Continuous
 62
     7
100
AcDbLine
 10
433.5607200875977
 20
697.6432669407893
 30
0.0
 11
457.9587265734042
 21
722.0412734265958
 31
0.0
  0
LINE
  5
318
330
1F
100
AcDbEntity
  8
1
  6
Continuous
 62
     7
100
AcDbLine
 10
435.6385209586775
 20
692.6500000000038
 30
0.0
 11
461.4942604793368
 21
718.5057395206632
 31
0.0
  0
ARC
  5
319
330
1F
100
AcDbEntity
  8
1
  6
Continuous
 62
     7
100
AcDbCircle
 10
434.1
 20
676.05
 30
0.0
 40
29.6
100
AcDbArc
 50
98.03366572686123
 51
179.9999999999998
  0
ARC
  5
31A
330
1F
100
AcDbEntity
  8
1
  6
Continuous
 62
     7
100
AcDbCircle
 10
434.1
 20
676.05
 30
0.0
 40
21.6
100
AcDbArc
 50
91.4306330494801
 51
179.9999999999998
  0
LINE
  5
31B
330
1F
100
AcDbEntity
  8
1
  6
Continuous
 62
     7
100
AcDbLine
 10
434.1
 20
692.65
 30
0.0
 11
435.6385209586761
 21
692.65
 31
0.0
  0
LINE
  5
31C
330
1F
100
AcDbEntity
  8
1
  6
Continuous
 62
     7
100
AcDbLine
 10
429.9632538821386
 20
705.3595092343126
 30
0.0
 11
433.5607200876057
 21
697.643266940798
 31
0.0
  0
LINE
  5
31D
330
1F
100
AcDbEntity
  8
1
  6
Continuous
 62
     7
100
AcDbLine
 10
404.5
 20
637.5000000000001
 30
0.0
 11
404.5
 21
598.9500000000002
 31
0.0
  0
LINE
  5
31E
330
1F
100
AcDbEntity
  8
1
  6
Continuous
 62
     7
100
AcDbLine
 10
412.5
 20
637.5000000000001
 30
0.0
 11
412.5
 21
598.9500000000002
 31
0.0
  0
LINE
  5
31F
330
1F
100
AcDbEntity
  8
1
  6
Continuous
 62
     7
100
AcDbLine
 10
417.5
 20
637.5000000000001
 30
0.0
 11
417.5
 21
598.9500000000002
 31
0.0
  0
ARC
  5
320
330
1F
100
AcDbEntity
  8
1
  6
Continuous
 62
     7
100
AcDbCircle
 10
434.1
 20
598.9500000000002
 30
0.0
 40
16.6
100
AcDbArc
 50
179.9999999999998
 51
269.9999999999998
  0
CIRCLE
  5
321
330
1F
100
AcDbEntity
  8
1
  6
Continuous
 62
     7
100
AcDbCircle
 10
475.0
 20
570.0000000000001
 30
0.0
 40
6.5
  0
ARC
  5
322
330
1F
100
AcDbEntity
  8
1
  6
Continuous
 62
     7
100
AcDbCircle
 10
475.0
 20
570.0000000000001
 30
0.0
 40
32.10000000000002
100
AcDbArc
 50
224.9999999999996
 51
314.9999999999995
  0
ARC
  5
323
330
1F
100
AcDbEntity
  8
1
  6
Continuous
 62
     7
100
AcDbCircle
 10
475.0
 20
570.0000000000001
 30
0.0
 40
24.10000000000002
100
AcDbArc
 50
224.9999999999996
 51
314.9999999999997
  0
ARC
  5
324
330
1F
100
AcDbEntity
  8
1
  6
Continuous
 62
     7
100
AcDbCircle
 10
475.0
 20
570.0000000000001
 30
0.0
 40
19.10000000000002
100
AcDbArc
 50
224.9999999999996
 51
314.9999999999997
  0
LINE
  5
325
330
1F
100
AcDbEntity
  8
1
  6
Continuous
 62
     7
100
AcDbLine
 10
505.7962553521763
 20
555.4000000000001
 30
0.0
 11
497.6981276760881
 21
547.3018723239119
 31
0.0
  0
LINE
  5
326
330
1F
100
AcDbEntity
  8
1
  6
Continuous
 62
     7
100
AcDbLine
 10
505.7962553521763
 20
555.4000000000001
 30
0.0
 11
720.0
 21
555.4000000000001
 31
0.0
  0
LINE
  5
327
330
1F
100
AcDbEntity
  8
1
  6
Continuous
 62
     7
100
AcDbLine
 10
492.0412734265958
 20
552.9587265734043
 30
0.0
 11
502.4825468531915
 21
563.4000000000001
 31
0.0
  0
LINE
  5
328
330
1F
100
AcDbEntity
  8
1
  6
Continuous
 62
     7
100
AcDbLine
 10
502.4825468531915
 20
563.4000000000001
 30
0.0
 11
720.0
 21
563.4000000000001
 31
0.0
  0
LINE
  5
329
330
1F
100
AcDbEntity
  8
1
  6
Continuous
 62
     7
100
AcDbLine
 10
488.505739520663
 20
556.4942604793371
 30
0.0
 11
500.4114790413262
 21
568.4000000000001
 31
0.0
  0
LINE
  5
32A
330
1F
100
AcDbEntity
  8
1
  6
Continuous
 62
     7
100
AcDbLine
 10
500.4114790413262
 20
568.4000000000001
 30
0.0
 11
720.0
 21
568.4000000000001
 31
0.0
  0
LINE
  5
32B
330
1F
100
AcDbEntity
  8
1
  6
Continuous
 62
     7
100
AcDbLine
 10
505.7962553521768
 20
555.4000000000001
 30
0.0
 11
502.4825468531895
 21
563.4000000000001
 31
0.0
  0
LINE
  5
32C
330
1F
100
AcDbEntity
  8
1
  6
Continuous
 62
     7
100
AcDbLine
 10
452.3018723239118
 20
547.3018723239119
 30
0.0
 11
429.9632538821431
 21
569.6404907656805
 31
0.0
  0
LINE
  5
32D
330
1F
100
AcDbEntity
  8
1
  6
Continuous
 62
     7
100
AcDbLine
 10
433.5607200875977
 20
577.3567330592108
 30
0.0
 11
457.9587265734042
 21
552.9587265734043
 31
0.0
  0
LINE
  5
32E
330
1F
100
AcDbEntity
  8
1
  6
Continuous
 62
     7
100
AcDbLine
 10
435.6385209586775
 20
582.3499999999963
 30
0.0
 11
461.4942604793368
 21
556.494260479337
 31
0.0
  0
ARC
  5
32F
330
1F
100
AcDbEntity
  8
1
  6
Continuous
 62
     7
100
AcDbCircle
 10
434.1
 20
598.9500000000002
 30
0.0
 40
29.6
100
AcDbArc
 50
179.9999999999998
 51
261.9663342731384
  0
ARC
  5
330
330
1F
100
AcDbEntity
  8
1
  6
Continuous
 62
     7
100
AcDbCircle
 10
434.1
 20
598.9500000000002
 30
0.0
 40
21.6
100
AcDbArc
 50
179.9999999999998
 51
268.5693669505196
  0
LINE
  5
331
330
1F
100
AcDbEntity
  8
1
  6
Continuous
 62
     7
100
AcDbLine
 10
434.1
 20
582.3500000000001
 30
0.0
 11
435.6385209586761
 21
582.3500000000001
 31
0.0
  0
LINE
  5
332
330
1F
100
AcDbEntity
  8
1
  6
Continuous
 62
     7
100
AcDbLine
 10
429.9632538821386
 20
569.6404907656876
 30
0.0
 11
433.5607200876057
 21
577.3567330592022
 31
0.0
  0
LINE
  5
333
330
1F
100
AcDbEntity
  8
1
  6
Continuous
 62
     7
100
AcDbLine
 10
1035.5
 20
637.5
 30
0.0
 11
1035.5
 21
676.05
 31
0.0
  0
LINE
  5
334
330
1F
100
AcDbEntity
  8
1
  6
Continuous
 62
     7
100
AcDbLine
 10
1027.5
 20
637.5
 30
0.0
 11
1027.5
 21
676.05
 31
0.0
  0
LINE
  5
335
330
1F
100
AcDbEntity
  8
1
  6
Continuous
 62
     7
100
AcDbLine
 10
1022.5
 20
637.5
 30
0.0
 11
1022.5
 21
676.05
 31
0.0
  0
ARC
  5
336
330
1F
100
AcDbEntity
  8
1
  6
Continuous
 62
     7
100
AcDbCircle
 10
1005.9
 20
676.05
 30
0.0
 40
16.6
100
AcDbArc
 50
0.0
 51
89.99999999999991
  0
CIRCLE
  5
337
330
1F
100
AcDbEntity
  8
1
  6
Continuous
 62
     7
100
AcDbCircle
 10
965.0
 20
705.0
 30
0.0
 40
6.5
  0
ARC
  5
338
330
1F
100
AcDbEntity
  8
1
  6
Continuous
 62
     7
100
AcDbCircle
 10
965.0
 20
705.0
 30
0.0
 40
32.10000000000002
100
AcDbArc
 50
45.0
 51
134.9999999999997
  0
ARC
  5
339
330
1F
100
AcDbEntity
  8
1
  6
Continuous
 62
     7
100
AcDbCircle
 10
965.0
 20
705.0
 30
0.0
 40
24.10000000000002
100
AcDbArc
 50
45.0
 51
135.0
  0
ARC
  5
33A
330
1F
100
AcDbEntity
  8
1
  6
Continuous
 62
     7
100
AcDbCircle
 10
965.0
 20
705.0
 30
0.0
 40
19.10000000000002
100
AcDbArc
 50
45.0
 51
135.0000000000003
  0
LINE
  5
33B
330
1F
100
AcDbEntity
  8
1
  6
Continuous
 62
     7
100
AcDbLine
 10
934.2037446478237
 20
719.6
 30
0.0
 11
942.301872323912
 21
727.6981276760882
 31
0.0
  0
LINE
  5
33C
330
1F
100
AcDbEntity
  8
1
  6
Continuous
 62
     7
100
AcDbLine
 10
934.2037446478237
 20
719.6
 30
0.0
 11
720.0
 21
719.6
 31
0.0
  0
LINE
  5
33D
330
1F
100
AcDbEntity
  8
1
  6
Continuous
 62
     7
100
AcDbLine
 10
947.9587265734042
 20
722.0412734265958
 30
0.0
 11
937.5174531468085
 21
711.6
 31
0.0
  0
LINE
  5
33E
330
1F
100
AcDbEntity
  8
1
  6
Continuous
 62
     7
100
AcDbLine
 10
937.5174531468085
 20
711.6
 30
0.0
 11
720.0
 21
711.6
 31
0.0
  0
LINE
  5
33F
330
1F
100
AcDbEntity
  8
1
  6
Continuous
 62
     7
100
AcDbLine
 10
951.4942604793368
 20
718.505739520663
 30
0.0
 11
939.5885209586738
 21
706.6
 31
0.0
  0
LINE
  5
340
330
1F
100
AcDbEntity
  8
1
  6
Continuous
 62
     7
100
AcDbLine
 10
939.5885209586738
 20
706.6
 30
0.0
 11
720.0
 21
706.6
 31
0.0
  0
LINE
  5
341
330
1F
100
AcDbEntity
  8
1
  6
Continuous
 62
     7
100
AcDbLine
 10
934.2037446478232
 20
719.6
 30
0.0
 11
937.5174531468106
 21
711.6
 31
0.0
  0
LINE
  5
342
330
1F
100
AcDbEntity
  8
1
  6
Continuous
 62
     7
100
AcDbLine
 10
987.6981276760882
 20
727.6981276760882
 30
0.0
 11
1010.036746117857
 21
705.3595092343196
 31
0.0
  0
LINE
  5
343
330
1F
100
AcDbEntity
  8
1
  6
Continuous
 62
     7
100
AcDbLine
 10
1006.439279912402
 20
697.6432669407893
 30
0.0
 11
982.0412734265958
 21
722.0412734265958
 31
0.0
  0
LINE
  5
344
330
1F
100
AcDbEntity
  8
1
  6
Continuous
 62
     7
100
AcDbLine
 10
1004.361479041323
 20
692.6500000000038
 30
0.0
 11
978.5057395206632
 21
718.5057395206632
 31
0.0
  0
ARC
  5
345
330
1F
100
AcDbEntity
  8
1
  6
Continuous
 62
     7
100
AcDbCircle
 10
1005.9
 20
676.05
 30
0.0
 40
29.6
100
AcDbArc
 50
0.0
 51
81.96633427313901
  0
ARC
  5
346
330
1F
100
AcDbEntity
  8
1
  6
Continuous
 62
     7
100
AcDbCircle
 10
1005.9
 20
676.05
 30
0.0
 40
21.6
100
AcDbArc
 50
0.0
 51
88.56936695052052
  0
LINE
  5
347
330
1F
100
AcDbEntity
  8
1
  6
Continuous
 62
     7
100
AcDbLine
 10
1005.9
 20
692.65
 30
0.0
 11
1004.361479041324
 21
692.65
 31
0.0
  0
LINE
  5
348
330
1F
100
AcDbEntity
  8
1
  6
Continuous
 62
     7
100
AcDbLine
 10
1010.036746117861
 20
705.3595092343126
 30
0.0
 11
1006.439279912394
 21
697.643266940798
 31
0.0
  0
LINE
  5
349
330
1F
100
AcDbEntity
  8
1
  6
Continuous
 62
     7
100
AcDbLine
 10
1035.5
 20
637.5000000000001
 30
0.0
 11
1035.5
 21
598.9500000000002
 31
0.0
  0
LINE
  5
34A
330
1F
100
AcDbEntity
  8
1
  6
Continuous
 62
     7
100
AcDbLine
 10
1027.5
 20
637.5000000000001
 30
0.0
 11
1027.5
 21
598.9500000000002
 31
0.0
  0
LINE
  5
34B
330
1F
100
AcDbEntity
  8
1
  6
Continuous
 62
     7
100
AcDbLine
 10
1022.5
 20
637.5000000000001
 30
0.0
 11
1022.5
 21
598.9500000000002
 31
0.0
  0
ARC
  5
34C
330
1F
100
AcDbEntity
  8
1
  6
Continuous
 62
     7
100
AcDbCircle
 10
1005.9
 20
598.9500000000002
 30
0.0
 40
16.6
100
AcDbArc
 50
269.9999999999998
 51
0.0
  0
CIRCLE
  5
34D
330
1F
100
AcDbEntity
  8
1
  6
Continuous
 62
     7
100
AcDbCircle
 10
965.0
 20
570.0000000000001
 30
0.0
 40
6.5
  0
ARC
  5
34E
330
1F
100
AcDbEntity
  8
1
  6
Continuous
 62
     7
100
AcDbCircle
 10
965.0
 20
570.0000000000001
 30
0.0
 40
32.10000000000002
100
AcDbArc
 50
224.9999999999999
 51
314.9999999999997
  0
ARC
  5
34F
330
1F
100
AcDbEntity
  8
1
  6
Continuous
 62
     7
100
AcDbCircle
 10
965.0
 20
570.0000000000001
 30
0.0
 40
24.10000000000002
100
AcDbArc
 50
224.9999999999996
 51
314.9999999999997
  0
ARC
  5
350
330
1F
100
AcDbEntity
  8
1
  6
Continuous
 62
     7
100
AcDbCircle
 10
965.0
 20
570.0000000000001
 30
0.0
 40
19.10000000000002
100
AcDbArc
 50
224.9999999999994
 51
314.9999999999997
  0
LINE
  5
351
330
1F
100
AcDbEntity
  8
1
  6
Continuous
 62
     7
100
AcDbLine
 10
934.2037446478237
 20
555.4000000000001
 30
0.0
 11
942.301872323912
 21
547.3018723239119
 31
0.0
  0
LINE
  5
352
330
1F
100
AcDbEntity
  8
1
  6
Continuous
 62
     7
100
AcDbLine
 10
934.2037446478237
 20
555.4000000000001
 30
0.0
 11
720.0
 21
555.4000000000001
 31
0.0
  0
LINE
  5
353
330
1F
100
AcDbEntity
  8
1
  6
Continuous
 62
     7
100
AcDbLine
 10
947.9587265734042
 20
552.9587265734043
 30
0.0
 11
937.5174531468085
 21
563.4000000000001
 31
0.0
  0
LINE
  5
354
330
1F
100
AcDbEntity
  8
1
  6
Continuous
 62
     7
100
AcDbLine
 10
937.5174531468085
 20
563.4000000000001
 30
0.0
 11
720.0
 21
563.4000000000001
 31
0.0
  0
LINE
  5
355
330
1F
100
AcDbEntity
  8
1
  6
Continuous
 62
     7
100
AcDbLine
 10
951.4942604793368
 20
556.4942604793371
 30
0.0
 11
939.5885209586738
 21
568.4000000000001
 31
0.0
  0
LINE
  5
356
330
1F
100
AcDbEntity
  8
1
  6
Continuous
 62
     7
100
AcDbLine
 10
939.5885209586738
 20
568.4000000000001
 30
0.0
 11
720.0
 21
568.4000000000001
 31
0.0
  0
LINE
  5
357
330
1F
100
AcDbEntity
  8
1
  6
Continuous
 62
     7
100
AcDbLine
 10
934.2037446478232
 20
555.4000000000001
 30
0.0
 11
937.5174531468106
 21
563.4000000000001
 31
0.0
  0
LINE
  5
358
330
1F
100
AcDbEntity
  8
1
  6
Continuous
 62
     7
100
AcDbLine
 10
987.6981276760882
 20
547.3018723239119
 30
0.0
 11
1010.036746117857
 21
569.6404907656805
 31
0.0
  0
LINE
  5
359
330
1F
100
AcDbEntity
  8
1
  6
Continuous
 62
     7
100
AcDbLine
 10
1006.439279912402
 20
577.3567330592108
 30
0.0
 11
982.0412734265958
 21
552.9587265734043
 31
0.0
  0
LINE
  5
35A
330
1F
100
AcDbEntity
  8
1
  6
Continuous
 62
     7
100
AcDbLine
 10
1004.361479041323
 20
582.3499999999963
 30
0.0
 11
978.5057395206632
 21
556.494260479337
 31
0.0
  0
ARC
  5
35B
330
1F
100
AcDbEntity
  8
1
  6
Continuous
 62
     7
100
AcDbCircle
 10
1005.9
 20
598.9500000000002
 30
0.0
 40
29.6
100
AcDbArc
 50
278.0336657268606
 51
0.0
  0
ARC
  5
35C
330
1F
100
AcDbEntity
  8
1
  6
Continuous
 62
     7
100
AcDbCircle
 10
1005.9
 20
598.9500000000002
 30
0.0
 40
21.6
100
AcDbArc
 50
271.4306330494791
 51
0.0
  0
LINE
  5
35D
330
1F
100
AcDbEntity
  8
1
  6
Continuous
 62
     7
100
AcDbLine
 10
1005.9
 20
582.3500000000001
 30
0.0
 11
1004.361479041324
 21
582.3500000000001
 31
0.0
  0
LINE
  5
35E
330
1F
100
AcDbEntity
  8
1
  6
Continuous
 62
     7
100
AcDbLine
 10
1010.036746117861
 20
569.6404907656876
 30
0.0
 11
1006.439279912394
 21
577.3567330592022
 31
0.0
  0
ELLIPSE
  5
35F
330
1F
100
AcDbEntity
  8
1
  6
Continuous
 62
     7
100
AcDbEllipse
 10
522.5000001760498
 20
585.7197581095351
 30
0.0
 11
20.0
 21
0.0
 31
0.0
210
0.0
220
0.0
230
1.0
 40
0.0846132024573478
 41
0.0
 42
6.283185307179586
  0
ARC
  5
360
330
1F
100
AcDbEntity
  8
1
  6
Continuous
 62
     7
100
AcDbCircle
 10
544.5000001760498
 20
588.5482074817137
 30
0.0
 40
3.0
100
AcDbArc
 50
269.9999999999998
 51
347.7684304422572
  0
LINE
  5
361
330
1F
100
AcDbEntity
  8
1
  6
Continuous
 62
     7
100
AcDbLine
 10
544.4107103840677
 20
585.5482074817137
 30
0.0
 11
544.5000001760498
 21
585.5482074817137
 31
0.0
  0
ARC
  5
362
330
1F
100
AcDbEntity
  8
1
  6
Continuous
 62
     7
100
AcDbCircle
 10
500.5000001760498
 20
588.5482074817137
 30
0.0
 40
3.0
100
AcDbArc
 50
192.9565785055494
 51
269.9999999999998
  0
ELLIPSE
  5
363
330
1F
100
AcDbEntity
  8
1
  6
Continuous
 62
     7
100
AcDbEllipse
 10
522.5000001760498
 20
587.7121475060918
 30
0.0
 11
25.0
 21
-1.136868377216160E-13
 31
0.0
210
0.0
220
0.0
230
1.0
 40
0.0865576009751203
 41
6.150976269351982
 42
9.554368310355514
  0
ELLIPSE
  5
364
330
1F
100
AcDbEntity
  8
1
  6
Continuous
 62
     7
100
AcDbEllipse
 10
522.5000001760498
 20
585.7197581095351
 30
0.0
 11
22.0
 21
0.0
 31
0.0
210
0.0
220
0.0
230
1.0
 40
0.0871561103037276
 41
3.230823907507339
 42
6.19591884446112
  0
LINE
  5
365
330
1F
100
AcDbEntity
  8
1
  6
Continuous
 62
     7
100
AcDbLine
 10
500.5000001760498
 20
585.5482074817137
 30
0.0
 11
500.5883996551269
 21
585.5482074817137
 31
0.0
  0
ELLIPSE
  5
366
330
1F
100
AcDbEntity
  8
1
  6
Continuous
 62
     7
100
AcDbEllipse
 10
917.5000001760498
 20
585.7197581095351
 30
0.0
 11
-20.0
 21
6.462178297730347E-14
 31
0.0
210
0.0
220
0.0
230
1.0
 40
0.0846132024573478
 41
0.0
 42
6.283185307179586
  0
ARC
  5
367
330
1F
100
AcDbEntity
  8
1
  6
Continuous
 62
     7
100
AcDbCircle
 10
895.5000001760498
 20
588.5482074817137
 30
0.0
 40
3.0
100
AcDbArc
 50
192.2315695577421
 51
269.9999999999998
  0
LINE
  5
368
330
1F
100
AcDbEntity
  8
1
  6
Continuous
 62
     7
100
AcDbLine
 10
895.5892899680316
 20
585.5482074817137
 30
0.0
 11
895.5000001760498
 21
585.5482074817137
 31
0.0
  0
ARC
  5
369
330
1F
100
AcDbEntity
  8
1
  6
Continuous
 62
     7
100
AcDbCircle
 10
939.5000001760498
 20
588.5482074817137
 30
0.0
 40
3.0
100
AcDbArc
 50
269.9999999999998
 51
347.0434214944494
  0
ELLIPSE
  5
36A
330
1F
100
AcDbEntity
  8
1
  6
Continuous
 62
     7
100
AcDbEllipse
 10
917.5000001760498
 20
587.7121475060918
 30
0.0
 11
-25.0
 21
-3.024507374088631E-14
 31
0.0
210
0.0
220
0.0
230
1.0
 40
0.0865576009751203
 41
3.012002304003658
 42
6.415394345007191
  0
ELLIPSE
  5
36B
330
1F
100
AcDbEntity
  8
1
  6
Continuous
 62
     7
100
AcDbEllipse
 10
917.5000001760498
 20
585.7197581095351
 30
0.0
 11
-22.0
 21
7.108396127503382E-14
 31
0.0
210
0.0
220
0.0
230
1.0
 40
0.0871561103037276
 41
0.0872664627184667
 42
3.052361399672248
  0
LINE
  5
36C
330
1F
100
AcDbEntity
  8
1
  6
Continuous
 62
     7
100
AcDbLine
 10
939.5000001760498
 20
585.5482074817137
 30
0.0
 11
939.4116006969725
 21
585.5482074817137
 31
0.0
  0
LINE
  5
36D
330
1F
100
AcDbEntity
  8
1
  6
Continuous
 62
     7
100
AcDbLine
 10
434.9887969596201
 20
585.2624649079848
 30
0.0
 11
501.1402011106666
 21
585.2624649079848
 31
0.0
  0
LINE
  5
36E
330
1F
100
AcDbEntity
  8
1
  6
Continuous
 62
     7
100
AcDbLine
 10
487.3743688468143
 20
557.6256313292353
 30
0.0
 11
513.71120780571
 21
583.9624698774935
 31
0.0
  0
LINE
  5
36F
330
1F
100
AcDbEntity
  8
1
  6
Continuous
 62
     7
100
AcDbLine
 10
542.888559080047
 20
584.9999989153353
 30
0.0
 11
720.0
 21
584.9999989153353
 31
0.0
  0
LINE
  5
370
330
1F
100
AcDbEntity
  8
1
  6
Continuous
 62
     7
100
AcDbLine
 10
952.6256311531853
 20
557.6256313292353
 30
0.0
 11
926.2876978842509
 21
583.9635641875151
 31
0.0
  0
LINE
  5
371
330
1F
100
AcDbEntity
  8
1
  6
Continuous
 62
     7
100
AcDbLine
 10
1005.011203040379
 20
585.2624649079848
 30
0.0
 11
936.818516702865
 21
585.2624649079848
 31
0.0
  0
LINE
  5
372
330
1F
100
AcDbEntity
  8
1
  6
Continuous
 62
     7
100
AcDbLine
 10
897.1121344179122
 20
584.9999989153353
 30
0.0
 11
720.0
 21
584.9999989153353
 31
0.0
  0
DIMENSION
  5
386
330
1F
100
AcDbEntity
  8
1
  6
Continuous
 62
     7
100
AcDbDimension
  2
Dim8
 10
404.4999999999995
 20
520.0
 30
0.0
 11
719.9999999999995
 21
526.0
 31
0.0
 70
   160
  1
<>
 71
     5
 42
-1.0
  3
Standard
100
AcDbAlignedDimension
 13
404.5
 23
598.9500000000002
 33
0.0
 14
1035.5
 24
598.9499976639847
 34
0.0
100
AcDbRotatedDimension
1001
ACAD
1000
DSTYLE
1002
{
1070
   344
1005
0
1070
   343
1005
0
1070
   173
1070
     1
1070
   289
1070
     2
1070
   279
1070
     2
1070
   288
1070
     1
1070
    77
1070
     3
1070
   172
1070
     1
1070
   174
1070
     0
1070
    74
1070
     0
1070
    73
1070
     0
1070
   284
1070
     8
1070
    78
1070
     8
1070
   140
1040
4.0
1070
    40
1040
1.0
1070
    42
1040
2.0
1070
    44
1040
2.0
1070
    43
1040
10.0
1070
   271
1070
     2
1070
    41
1040
4.0
1002
}
  0
DIMENSION
  5
39A
330
1F
100
AcDbEntity
  8
1
  6
Continuous
 62
     7
100
AcDbDimension
  2
Dim9
 10
380.0
 20
705.0
 30
0.0
 11
374.0000000000001
 21
637.5
 31
0.0
 70
   160
  1
<>
 71
     5
 42
-1.0
  3
Standard
100
AcDbAlignedDimension
 13
494.0918842224871
 23
705.0
 33
0.0
 14
494.0918842224869
 24
570.0
 34
0.0
 50
89.99999999999989
100
AcDbRotatedDimension
1001
ACAD
1000
DSTYLE
1002
{
1070
   344
1005
0
1070
   343
1005
0
1070
   173
1070
     1
1070
   289
1070
     2
1070
   279
1070
     2
1070
   288
1070
     1
1070
    77
1070
     3
1070
   172
1070
     1
1070
   174
1070
     0
1070
    74
1070
     0
1070
    73
1070
     0
1070
   284
1070
     8
1070
    78
1070
     8
1070
   140
1040
4.0
1070
    40
1040
1.0
1070
    42
1040
4.0
1070
    44
1040
4.0
1070
    43
1040
10.0
1070
   271
1070
     2
1070
    41
1040
4.0
1002
}
  0
DIMENSION
  5
3AE
330
1F
100
AcDbEntity
  8
1
  6
Continuous
 62
     7
100
AcDbDimension
  2
Dim10
 10
350.0
 20
705.0
 30
0.0
 11
344.0000000000006
 21
637.5
 31
0.0
 70
   160
  1
<>
 71
     5
 42
-1.0
  3
Standard
100
AcDbAlignedDimension
 13
494.0918842224871
 23
705.0
 33
0.0
 14
494.0918842224869
 24
570.0
 34
0.0
 50
89.99999999999989
100
AcDbRotatedDimension
1001
ACAD
1000
DSTYLE
1002
{
1070
   344
1005
0
1070
   343
1005
0
1070
   173
1070
     1
1070
   289
1070
     2
1070
   279
1070
     2
1070
   288
1070
     1
1070
    77
1070
     3
1070
   172
1070
     1
1070
   174
1070
     0
1070
    74
1070
     0
1070
    73
1070
     0
1070
   284
1070
     8
1070
    78
1070
     8
1070
   140
1040
4.0
1070
    40
1040
1.0
1070
    42
1040
4.0
1070
    44
1040
4.0
1070
    43
1040
10.0
1070
   271
1070
     2
1070
    41
1040
4.0
1002
}
  0
DIMENSION
  5
3C2
330
1F
100
AcDbEntity
  8
1
  6
Continuous
 62
     7
100
AcDbDimension
  2
Dim11
 10
380.0
 20
460.0
 30
0.0
 11
374.0000000000002
 21
401.5
 31
0.0
 70
   160
  1
<>
 71
     5
 42
-1.0
  3
Standard
100
AcDbAlignedDimension
 13
451.9824623455879
 23
460.0
 33
0.0
 14
404.5
 24
343.0
 34
0.0
 50
89.9999999999999
100
AcDbRotatedDimension
1001
ACAD
1000
DSTYLE
1002
{
1070
   344
1005
0
1070
   343
1005
0
1070
   173
1070
     1
1070
   289
1070
     2
1070
   279
1070
     2
1070
   288
1070
     1
1070
    77
1070
     3
1070
   172
1070
     1
1070
   174
1070
     0
1070
    74
1070
     0
1070
    73
1070
     0
1070
   284
1070
     8
1070
    78
1070
     8
1070
   140
1040
4.0
1070
    40
1040
1.0
1070
    42
1040
2.0
1070
    44
1040
2.0
1070
    43
1040
10.0
1070
   271
1070
     2
1070
    41
1040
4.0
1002
}
  0
DIMENSION
  5
3D6
330
1F
100
AcDbEntity
  8
1
  6
Continuous
 62
     7
100
AcDbDimension
  2
Dim12
 10
475.0000000000003
 20
760.0
 30
0.0
 11
720.0000000000003
 21
766.0
 31
0.0
 70
   160
  1
481
 71
     5
 42
-1.0
  3
Standard
100
AcDbAlignedDimension
 13
475.0
 23
556.500000642597
 33
0.0
 14
965.0
 24
556.500000642597
 34
0.0
100
AcDbRotatedDimension
1001
ACAD
1000
DSTYLE
1002
{
1070
   344
1005
0
1070
   343
1005
0
1070
   173
1070
     1
1070
   289
1070
     2
1070
   279
1070
     2
1070
   288
1070
     1
1070
    77
1070
     3
1070
   172
1070
     1
1070
   174
1070
     0
1070
    74
1070
     0
1070
    73
1070
     0
1070
   284
1070
     8
1070
    78
1070
     8
1070
   140
1040
4.0
1070
    40
1040
1.0
1070
    42
1040
4.0
1070
    44
1040
4.0
1070
    43
1040
10.0
1070
   271
1070
     2
1070
    41
1040
4.0
1002
}
  0
INSERT
  5
3E3
330
1F
100
AcDbEntity
  8
0
100
AcDbBlockReference
  2
*G26
 10
0.0
 20
0.0
 30
0.0
  0
TEXT
  5
3E4
330
1F
100
AcDbEntity
  8
1
  6
Continuous
 62
     7
100
AcDbText
 10
716.2666630864153
 20
467.5935778247189
 30
0.0
 40
8.0
  1
Ａ
100
AcDbText
  0
LINE
  5
3E5
330
1F
100
AcDbEntity
  8
1
  6
Continuous
 62
     7
100
AcDbLine
 10
720.0
 20
464.9639786935265
 30
0.0
 11
720.0
 21
337.4406851805441
 31
0.0
  0
TEXT
  5
3E6
330
1F
100
AcDbEntity
  8
1
  6
Continuous
 62
     7
100
AcDbText
 10
716.2666630864153
 20
328.2370882213709
 30
0.0
 40
8.0
  1
Ｂ
100
AcDbText
  0
TEXT
  5
3E7
330
1F
100
AcDbEntity
  8
1
  6
Continuous
 62
     7
100
AcDbText
 10
896.4906285813913
 20
14.39941130669706
 30
0.0
 40
12.0
  1
ＡＢ工法（未舗装対応）
 50
-0.0902727571335045
100
AcDbText
  0
TEXT
  5
3E8
330
1F
100
AcDbEntity
  8
1
  6
Continuous
 62
     7
100
AcDbText
 10
646.0000000000002
 20
44.0
 30
0.0
 40
12.0
  1
PH-ＸNAB
 41
0.5714285714285714
100
AcDbText
  0
VIEWPORT
  5
2A
330
1B
100
AcDbEntity
 67
     1
  8
0
100
AcDbViewport
 10
594.5
 20
420.5
 30
0.0
 40
1189.0
 41
841.0
 68
     1
 69
     1
 12
594.5
 22
420.5
 13
0.0
 23
0.0
 14
0.5
 24
0.5
 15
0.5
 25
0.5
 16
0.0
 26
0.0
 36
1.0
 17
0.0
 27
0.0
 37
0.0
 42
50.0
 43
0.0
 44
0.0
 45
9.0
 50
0.0
 51
0.0
 72
   100
 90
    32800
  1

281
     0
 71
     1
 74
     0
110
0.0
120
0.0
130
0.0
111
1.0
121
0.0
131
0.0
112
0.0
122
1.0
132
0.0
 79
     0
146
0.0
  0
ENDSEC
  0
SECTION
  2
OBJECTS
  0
DICTIONARY
  5
C
330
0
100
AcDbDictionary
281
     1
  3
ACAD_GROUP
350
D
  3
ACAD_LAYOUT
350
1A
  3
ACAD_MLINESTYLE
350
17
  3
ACAD_PLOTSETTINGS
350
19
  3
ACAD_PLOTSTYLENAME
350
E
  3
AcDbVariableDictionary
350
3E9
  0
DICTIONARY
  5
D
102
{ACAD_REACTORS
330
C
102
}
330
C
100
AcDbDictionary
281
     1
  0
DICTIONARY
  5
1A
102
{ACAD_REACTORS
330
C
102
}
330
C
100
AcDbDictionary
281
     1
  3
Layout1
350
1E
  3
Layout2
350
26
  3
Model
350
22
  0
DICTIONARY
  5
17
102
{ACAD_REACTORS
330
C
102
}
330
C
100
AcDbDictionary
281
     1
  3
Standard
350
18
  0
DICTIONARY
  5
19
102
{ACAD_REACTORS
330
C
102
}
330
C
100
AcDbDictionary
281
     1
  0
ACDBDICTIONARYWDFLT
  5
E
102
{ACAD_REACTORS
330
C
102
}
330
C
100
AcDbDictionary
281
     1
  3
Normal
350
F
100
AcDbDictionaryWithDefault
340
F
  0
DICTIONARY
  5
3E9
102
{ACAD_REACTORS
330
C
102
}
330
C
100
AcDbDictionary
281
     1
  3
DIMASSOC
350
3EA
  0
LAYOUT
  5
1E
102
{ACAD_REACTORS
330
1A
102
}
330
1A
100
AcDbPlotSettings
  1

  2

  4

  6

 40
0.0
 41
0.0
 42
0.0
 43
0.0
 44
0.0
 45
0.0
 46
0.0
 47
0.0
 48
0.0
 49
0.0
140
0.0
141
0.0
142
1.0
143
1.0
 70
   688
 72
     0
 73
     0
 74
     5
  7

 75
    16
147
1.0
148
0.0
149
0.0
100
AcDbLayout
  1
Layout1
 70
     1
 71
     1
 10
0.0
 20
0.0
 11
1189.0
 21
841.0
 12
0.0
 22
0.0
 32
0.0
 14
0.0
 24
0.0
 34
0.0
 15
1189.0
 25
841.0
 35
0.0
146
0.0
 13
0.0
 23
0.0
 33
0.0
 16
1.0
 26
0.0
 36
0.0
 17
0.0
 27
1.0
 37
0.0
 76
     0
330
1B
331
2A
  0
LAYOUT
  5
26
102
{ACAD_REACTORS
330
1A
102
}
330
1A
100
AcDbPlotSettings
  1

  2

  4

  6

 40
0.0
 41
0.0
 42
0.0
 43
0.0
 44
0.0
 45
0.0
 46
0.0
 47
0.0
 48
0.0
 49
0.0
140
0.0
141
0.0
142
1.0
143
1.0
 70
   688
 72
     0
 73
     0
 74
     5
  7

 75
    16
147
1.0
148
0.0
149
0.0
100
AcDbLayout
  1
Layout2
 70
     1
 71
     2
 10
0.0
 20
0.0
 11
0.0
 21
0.0
 12
0.0
 22
0.0
 32
0.0
 14
0.0
 24
0.0
 34
0.0
 15
0.0
 25
0.0
 35
0.0
146
0.0
 13
0.0
 23
0.0
 33
0.0
 16
1.0
 26
0.0
 36
0.0
 17
0.0
 27
1.0
 37
0.0
 76
     0
330
23
  0
LAYOUT
  5
22
102
{ACAD_REACTORS
330
1A
102
}
330
1A
100
AcDbPlotSettings
  1

  2

  4

  6

 40
0.0
 41
0.0
 42
0.0
 43
0.0
 44
0.0
 45
0.0
 46
0.0
 47
0.0
 48
0.0
 49
0.0
140
0.0
141
0.0
142
1.0
143
1.0
 70
  1712
 72
     0
 73
     0
 74
     0
  7

 75
     0
147
1.0
148
0.0
149
0.0
100
AcDbLayout
  1
Model
 70
     1
 71
     0
 10
0.0
 20
0.0
 11
1189.0
 21
841.0
 12
0.0
 22
0.0
 32
0.0
 14
0.0
 24
0.0
 34
0.0
 15
1189.0
 25
841.0
 35
0.0
146
0.0
 13
0.0
 23
0.0
 33
0.0
 16
1.0
 26
0.0
 36
0.0
 17
0.0
 27
1.0
 37
0.0
 76
     0
330
1F
  0
MLINESTYLE
  5
18
102
{ACAD_REACTORS
330
17
102
}
330
17
100
AcDbMlineStyle
  2
Standard
 70
     0
  3

 62
   256
 51
90.0
 52
90.0
 71
     2
 49
0.5
 62
   256
  6
BYLAYER
 49
-0.5
 62
   256
  6
BYLAYER
  0
ACDBPLACEHOLDER
  5
F
102
{ACAD_REACTORS
330
E
102
}
330
E
  0
DICTIONARYVAR
  5
3EA
102
{ACAD_REACTORS
330
3E9
102
}
330
3E9
100
DictionaryVariables
280
     0
  1
1
  0
ENDSEC
  0
EOF
