  0
SECTION
  2
HEADER
  9
$ACADVER
  1
AC1021
  9
$ACADMAINTVER
 70
    25
  9
$DWGCODEPAGE
  3
ANSI_932
  9
$INSBASE
 10
0.0
 20
0.0
 30
0.0
  9
$EXTMIN
 10
0.0
 20
0.0
 30
0.0
  9
$EXTMAX
 10
1189.0
 20
841.0
 30
0.0
  9
$LIMMIN
 10
0.0
 20
0.0
  9
$LIMMAX
 10
1189.0
 20
841.0
  9
$ORTHOMODE
 70
     0
  9
$REGENMODE
 70
     1
  9
$FILLMODE
 70
     1
  9
$QTEXTMODE
 70
     0
  9
$MIRRTEXT
 70
     1
  9
$LTSCALE
 40
0.25
  9
$ATTMODE
 70
     1
  9
$TEXTSIZE
 40
5.0
  9
$TRACEWID
 40
0.05
  9
$TEXTSTYLE
  7
Standard
  9
$CLAYER
  8
0
  9
$CELTYPE
  6
ByLayer
  9
$CECOLOR
 62
   256
  9
$CELTSCALE
 40
1.0
  9
$DISPSILH
 70
     0
  9
$DIMSCALE
 40
1.0
  9
$DIMASZ
 40
4.0
  9
$DIMEXO
 40
2.0
  9
$DIMDLI
 40
10.0
  9
$DIMRND
 40
0.0
  9
$DIMDLE
 40
0.0
  9
$DIMEXE
 40
2.0
  9
$DIMTP
 40
0.0
  9
$DIMTM
 40
0.0
  9
$DIMTXT
 40
4.0
  9
$DIMCEN
 40
0.09
  9
$DIMTSZ
 40
0.0
  9
$DIMTOL
 70
     0
  9
$DIMLIM
 70
     0
  9
$DIMTIH
 70
     0
  9
$DIMTOH
 70
     0
  9
$DIMSE1
 70
     0
  9
$DIMSE2
 70
     0
  9
$DIMTAD
 70
     3
  9
$DIMZIN
 70
     8
  9
$DIMBLK
  1

  9
$DIMASO
 70
     1
  9
$DIMSHO
 70
     1
  9
$DIMPOST
  1

  9
$DIMAPOST
  1

  9
$DIMALT
 70
     0
  9
$DIMALTD
 70
     2
  9
$DIMALTF
 40
25.4
  9
$DIMLFAC
 40
1.0
  9
$DIMTOFL
 70
     1
  9
$DIMTVP
 40
0.7
  9
$DIMTIX
 70
     0
  9
$DIMSOXD
 70
     0
  9
$DIMSAH
 70
     0
  9
$DIMBLK1
  1

  9
$DIMBLK2
  1

  9
$DIMSTYLE
  2
Standard
  9
$DIMCLRD
 70
     0
  9
$DIMCLRE
 70
     0
  9
$DIMCLRT
 70
     0
  9
$DIMTFAC
 40
0.5
  9
$DIMGAP
 40
0.09
  9
$DIMJUST
 70
     0
  9
$DIMSD1
 70
     0
  9
$DIMSD2
 70
     0
  9
$DIMTOLJ
 70
     1
  9
$DIMTZIN
 70
     8
  9
$DIMALTZ
 70
     0
  9
$DIMALTTZ
 70
     0
  9
$DIMUPT
 70
     1
  9
$DIMDEC
 70
     2
  9
$DIMTDEC
 70
     4
  9
$DIMALTU
 70
     2
  9
$DIMALTTD
 70
     2
  9
$DIMTXSTY
  7
Standard
  9
$DIMAUNIT
 70
     0
  9
$DIMADEC
 70
     0
  9
$DIMALTRND
 40
0.0
  9
$DIMAZIN
 70
     0
  9
$DIMDSEP
 70
    46
  9
$DIMATFIT
 70
     2
  9
$DIMFRAC
 70
     0
  9
$DIMLDRBLK
  1

  9
$DIMLUNIT
 70
     2
  9
$DIMLWD
 70
    -2
  9
$DIMLWE
 70
    -2
  9
$DIMTMOVE
 70
     2
  9
$DIMFXL
 40
1.0
  9
$DIMFXLON
 70
     0
  9
$DIMJOGANG
 40
0.7853981633974483
  9
$DIMTFILL
 70
     0
  9
$DIMTFILLCLR
 70
     0
  9
$DIMARCSYM
 70
     0
  9
$DIMLTYPE
  6

  9
$DIMLTEX1
  6

  9
$DIMLTEX2
  6

  9
$LUNITS
 70
     2
  9
$LUPREC
 70
     4
  9
$SKETCHINC
 40
0.1
  9
$FILLETRAD
 40
0.5
  9
$AUNITS
 70
     0
  9
$AUPREC
 70
     0
  9
$MENU
  1
.
  9
$ELEVATION
 40
0.0
  9
$PELEVATION
 40
0.0
  9
$THICKNESS
 40
0.0
  9
$LIMCHECK
 70
     0
  9
$CHAMFERA
 40
0.5
  9
$CHAMFERB
 40
0.5
  9
$CHAMFERC
 40
1.0
  9
$CHAMFERD
 40
0.0
  9
$SKPOLY
 70
     0
  9
$TDCREATE
 40
2457059.844305555
  9
$TDUCREATE
 40
2457059.469305555
  9
$TDUPDATE
 40
2457059.844305555
  9
$TDUUPDATE
 40
2457059.469305555
  9
$TDINDWG
 40
0.0000000116
  9
$TDUSRTIMER
 40
0.0000000116
  9
$USRTIMER
 70
     1
  9
$ANGBASE
 50
0.0
  9
$ANGDIR
 70
     0
  9
$PDMODE
 70
     0
  9
$PDSIZE
 40
0.0
  9
$PLINEWID
 40
0.0
  9
$SPLFRAME
 70
     0
  9
$SPLINETYPE
 70
     6
  9
$SPLINESEGS
 70
     8
  9
$HANDSEED
  5
57A
  9
$SURFTAB1
 70
     6
  9
$SURFTAB2
 70
     6
  9
$SURFTYPE
 70
     6
  9
$SURFU
 70
     6
  9
$SURFV
 70
     6
  9
$UCSBASE
  2

  9
$UCSNAME
  2

  9
$UCSORG
 10
0.0
 20
0.0
 30
0.0
  9
$UCSXDIR
 10
1.0
 20
0.0
 30
0.0
  9
$UCSYDIR
 10
0.0
 20
1.0
 30
0.0
  9
$UCSORTHOREF
  2

  9
$UCSORTHOVIEW
 70
     0
  9
$UCSORGTOP
 10
0.0
 20
0.0
 30
0.0
  9
$UCSORGBOTTOM
 10
0.0
 20
0.0
 30
0.0
  9
$UCSORGLEFT
 10
0.0
 20
0.0
 30
0.0
  9
$UCSORGRIGHT
 10
0.0
 20
0.0
 30
0.0
  9
$UCSORGFRONT
 10
0.0
 20
0.0
 30
0.0
  9
$UCSORGBACK
 10
0.0
 20
0.0
 30
0.0
  9
$PUCSBASE
  2

  9
$PUCSNAME
  2

  9
$PUCSORG
 10
0.0
 20
0.0
 30
0.0
  9
$PUCSXDIR
 10
1.0
 20
0.0
 30
0.0
  9
$PUCSYDIR
 10
0.0
 20
1.0
 30
0.0
  9
$PUCSORTHOREF
  2

  9
$PUCSORTHOVIEW
 70
     0
  9
$PUCSORGTOP
 10
0.0
 20
0.0
 30
0.0
  9
$PUCSORGBOTTOM
 10
0.0
 20
0.0
 30
0.0
  9
$PUCSORGLEFT
 10
0.0
 20
0.0
 30
0.0
  9
$PUCSORGRIGHT
 10
0.0
 20
0.0
 30
0.0
  9
$PUCSORGFRONT
 10
0.0
 20
0.0
 30
0.0
  9
$PUCSORGBACK
 10
0.0
 20
0.0
 30
0.0
  9
$USERI1
 70
     0
  9
$USERI2
 70
     0
  9
$USERI3
 70
     0
  9
$USERI4
 70
     0
  9
$USERI5
 70
     0
  9
$USERR1
 40
0.0
  9
$USERR2
 40
0.0
  9
$USERR3
 40
0.0
  9
$USERR4
 40
0.0
  9
$USERR5
 40
0.0
  9
$WORLDVIEW
 70
     1
  9
$SHADEDGE
 70
     3
  9
$SHADEDIF
 70
    70
  9
$TILEMODE
 70
     1
  9
$MAXACTVP
 70
    64
  9
$PINSBASE
 10
0.0
 20
0.0
 30
0.0
  9
$PLIMCHECK
 70
     0
  9
$PEXTMIN
 10
0.0
 20
0.0
 30
0.0
  9
$PEXTMAX
 10
1189.0
 20
841.0
 30
0.0
  9
$PLIMMIN
 10
0.0
 20
0.0
  9
$PLIMMAX
 10
1189.0
 20
841.0
  9
$UNITMODE
 70
     0
  9
$VISRETAIN
 70
     1
  9
$PLINEGEN
 70
     0
  9
$PSLTSCALE
 70
     1
  9
$TREEDEPTH
 70
  3020
  9
$CMLSTYLE
  2
Standard
  9
$CMLJUST
 70
     0
  9
$CMLSCALE
 40
1.0
  9
$PROXYGRAPHICS
 70
     1
  9
$MEASUREMENT
 70
     1
  9
$CELWEIGHT
370
    -1
  9
$ENDCAPS
280
     0
  9
$JOINSTYLE
280
     0
  9
$LWDISPLAY
290
     0
  9
$INSUNITS
 70
     4
  9
$HYPERLINKBASE
  1

  9
$STYLESHEET
  1

  9
$XEDIT
290
     1
  9
$CEPSNTYPE
380
     0
  9
$PSTYLEMODE
290
     1
  9
$FINGERPRINTGUID
  2
{77CABB65-FE12-44E0-8FA7-D17B5707F2DB}
  9
$VERSIONGUID
  2
{FAEB1C32-E019-11D5-929B-00C0DF256EC4}
  9
$EXTNAMES
290
     1
  9
$PSVPSCALE
 40
0.0
  9
$OLESTARTUP
290
     0
  9
$SORTENTS
280
   127
  9
$INDEXCTL
280
     0
  9
$HIDETEXT
280
     1
  9
$XCLIPFRAME
290
     0
  9
$HALOGAP
280
     0
  9
$OBSCOLOR
 70
   257
  9
$OBSLTYPE
280
     0
  9
$INTERSECTIONDISPLAY
280
     0
  9
$INTERSECTIONCOLOR
 70
   257
  9
$DIMASSOC
280
     1
  9
$PROJECTNAME
  1

  9
$CAMERADISPLAY
290
     0
  9
$LENSLENGTH
 40
50.0
  9
$CAMERAHEIGHT
 40
0.0
  9
$STEPSPERSEC
 40
2.0
  9
$STEPSIZE
 40
6.0
  9
$3DDWFPREC
 40
2.0
  9
$PSOLWIDTH
 40
0.25
  9
$PSOLHEIGHT
 40
4.0
  9
$LOFTANG1
 40
1.570796326794897
  9
$LOFTANG2
 40
1.570796326794897
  9
$LOFTMAG1
 40
0.0
  9
$LOFTMAG2
 40
0.0
  9
$LOFTPARAM
 70
     7
  9
$LOFTNORMALS
280
     1
  9
$LATITUDE
 40
37.795
  9
$LONGITUDE
 40
-122.394
  9
$NORTHDIRECTION
 40
0.0
  9
$TIMEZONE
 70
 -8000
  9
$LIGHTGLYPHDISPLAY
280
     1
  9
$TILEMODELIGHTSYNCH
280
     1
  9
$SOLIDHIST
280
     1
  9
$SHOWHIST
280
     1
  9
$DWFFRAME
280
     2
  9
$DGNFRAME
280
     2
  9
$REALWORLDSCALE
290
     1
  9
$INTERFERECOLOR
 62
   256
  9
$CSHADOW
280
     0
  9
$SHADOWPLANELOCATION
 40
0.0
  0
ENDSEC
  0
SECTION
  2
CLASSES
  0
CLASS
  1
ACDBDICTIONARYWDFLT
  2
AcDbDictionaryWithDefault
  3
ObjectDBX Classes
 90
        0
 91
        4
280
     0
281
     0
  0
CLASS
  1
VISUALSTYLE
  2
AcDbVisualStyle
  3
ObjectDBX Classes
 90
     4095
 91
        4
280
     0
281
     0
  0
CLASS
  1
SCALE
  2
AcDbScale
  3
ObjectDBX Classes
 90
     1153
 91
        4
280
     0
281
     0
  0
CLASS
  1
DICTIONARYVAR
  2
AcDbDictionaryVar
  3
ObjectDBX Classes
 90
        0
 91
        4
280
     0
281
     0
  0
ENDSEC
  0
SECTION
  2
TABLES
  0
TABLE
  2
VPORT
  5
8
330
0
100
AcDbSymbolTable
 70
     1
  0
VPORT
  5
29
330
8
100
AcDbSymbolTableRecord
100
AcDbViewportTableRecord
  2
*Active
 70
     0
 10
0.0
 20
0.0
 11
1.0
 21
1.0
 12
10.42990654205607
 22
4.5
 13
0.0
 23
0.0
 14
0.5
 24
0.5
 15
0.5
 25
0.5
 16
0.0
 26
0.0
 36
1.0
 17
0.0
 27
0.0
 37
0.0
 40
9.0
 41
1.972972972850329
 42
50.0
 43
0.0
 44
0.0
 50
0.0
 51
0.0
 71
     0
 72
   100
 73
     1
 74
     3
 75
     0
 76
     0
 77
     0
 78
     0
281
     0
 65
     1
110
0.0
120
0.0
130
0.0
111
1.0
121
0.0
131
0.0
112
0.0
122
1.0
132
0.0
 79
     0
146
0.0
 60
     3
 61
     5
292
     1
282
     1
141
0.0
142
0.0
 63
   256
  0
ENDTAB
  0
TABLE
  2
LTYPE
  5
5
330
0
100
AcDbSymbolTable
 70
     9
  0
LTYPE
  5
14
330
5
100
AcDbSymbolTableRecord
100
AcDbLinetypeTableRecord
  2
ByBlock
 70
     0
  3

 72
    65
 73
     0
 40
0.0
  0
LTYPE
  5
15
330
5
100
AcDbSymbolTableRecord
100
AcDbLinetypeTableRecord
  2
ByLayer
 70
     0
  3

 72
    65
 73
     0
 40
0.0
  0
LTYPE
  5
16
330
5
100
AcDbSymbolTableRecord
100
AcDbLinetypeTableRecord
  2
Continuous
 70
     0
  3
Solid line
 72
    65
 73
     0
 40
0.0
  0
LTYPE
  5
79
330
5
100
AcDbSymbolTableRecord
100
AcDbLinetypeTableRecord
  2
DOT
 70
     0
  3
DOT
 72
    65
 73
     2
 40
4.0
 49
6.0
 74
     0
 49
-2.0
 74
     0
  0
LTYPE
  5
7A
330
5
100
AcDbSymbolTableRecord
100
AcDbLinetypeTableRecord
  2
HIDDEN
 70
     0
  3
HIDDEN
 72
    65
 73
     2
 40
4.2
 49
8.4
 74
     0
 49
-4.2
 74
     0
  0
LTYPE
  5
7B
330
5
100
AcDbSymbolTableRecord
100
AcDbLinetypeTableRecord
  2
DASHDOT
 70
     0
  3
DASHDOT
 72
    65
 73
     4
 40
14.5
 49
30.0
 74
     0
 49
-9.0
 74
     0
 49
2.5
 74
     0
 49
-9.0
 74
     0
  0
LTYPE
  5
7C
330
5
100
AcDbSymbolTableRecord
100
AcDbLinetypeTableRecord
  2
PHANTOM
 70
     0
  3
PHANTOM
 72
    65
 73
     6
 40
12.0
 49
30.0
 74
     0
 49
-9.0
 74
     0
 49
2.5
 74
     0
 49
-5.0
 74
     0
 49
2.5
 74
     0
 49
-9.0
 74
     0
  0
LTYPE
  5
7D
330
5
100
AcDbSymbolTableRecord
100
AcDbLinetypeTableRecord
  2
ACAD_ISO14W100
 70
     0
  3
ACAD_ISO14W100
 72
    65
 73
     8
 40
1.5
 49
12.0
 74
     0
 49
-3.0
 74
     0
 49
0.5
 74
     0
 49
-3.0
 74
     0
 49
0.5
 74
     0
 49
-3.0
 74
     0
 49
0.5
 74
     0
 49
-3.0
 74
     0
  0
LTYPE
  5
7E
330
5
100
AcDbSymbolTableRecord
100
AcDbLinetypeTableRecord
  2
ACAD_ISO06W100
 70
     0
  3
ACAD_ISO06W100
 72
    65
 73
     8
 40
13.5
 49
24.0
 74
     0
 49
-3.0
 74
     0
 49
0.5
 74
     0
 49
-3.0
 74
     0
 49
0.5
 74
     0
 49
-3.0
 74
     0
 49
0.5
 74
     0
 49
-3.0
 74
     0
  0
LTYPE
  5
7F
330
5
100
AcDbSymbolTableRecord
100
AcDbLinetypeTableRecord
  2
ACAD_ISO11W100
 70
     0
  3
ACAD_ISO11W100
 72
    65
 73
     6
 40
15.5
 49
12.0
 74
     0
 49
-3.0
 74
     0
 49
12.0
 74
     0
 49
-3.0
 74
     0
 49
0.5
 74
     0
 49
-3.0
 74
     0
  0
LTYPE
  5
80
330
5
100
AcDbSymbolTableRecord
100
AcDbLinetypeTableRecord
  2
ACAD_ISO13W100
 70
     0
  3
ACAD_ISO13W100
 72
    65
 73
     8
 40
13.0
 49
12.0
 74
     0
 49
-3.0
 74
     0
 49
12.0
 74
     0
 49
-3.0
 74
     0
 49
0.5
 74
     0
 49
-3.0
 74
     0
 49
0.5
 74
     0
 49
-3.0
 74
     0
  0
ENDTAB
  0
TABLE
  2
LAYER
  5
2
330
0
100
AcDbSymbolTable
 70
    22
  0
LAYER
  5
10
330
2
100
AcDbSymbolTableRecord
100
AcDbLayerTableRecord
  2
0
 70
     0
 62
     7
  6
Continuous
370
    -3
390
F
347
0
  0
LAYER
  5
81
330
2
100
AcDbSymbolTableRecord
100
AcDbLayerTableRecord
  2
1
 70
     0
 62
     7
  6
Continuous
370
    -3
390
F
347
0
  0
LAYER
  5
82
330
2
100
AcDbSymbolTableRecord
100
AcDbLayerTableRecord
  2
2
 70
     0
 62
   134
  6
Continuous
370
    -3
390
F
347
0
  0
LAYER
  5
83
330
2
100
AcDbSymbolTableRecord
100
AcDbLayerTableRecord
  2
3
 70
     0
 62
   214
  6
Continuous
370
    -3
390
F
347
0
  0
LAYER
  5
84
330
2
100
AcDbSymbolTableRecord
100
AcDbLayerTableRecord
  2
4
 70
     0
 62
    54
  6
Continuous
370
    -3
390
F
347
0
  0
LAYER
  5
85
330
2
100
AcDbSymbolTableRecord
100
AcDbLayerTableRecord
  2
5
 70
     0
 62
    94
  6
Continuous
370
    -3
390
F
347
0
  0
LAYER
  5
86
330
2
100
AcDbSymbolTableRecord
100
AcDbLayerTableRecord
  2
6
 70
     0
 62
    14
  6
Continuous
370
    -3
390
F
347
0
  0
LAYER
  5
87
330
2
100
AcDbSymbolTableRecord
100
AcDbLayerTableRecord
  2
7
 70
     0
 62
     4
  6
Continuous
370
    -3
390
F
347
0
  0
LAYER
  5
88
330
2
100
AcDbSymbolTableRecord
100
AcDbLayerTableRecord
  2
8
 70
     0
 62
     6
  6
Continuous
370
    -3
390
F
347
0
  0
LAYER
  5
89
330
2
100
AcDbSymbolTableRecord
100
AcDbLayerTableRecord
  2
9
 70
     0
 62
     2
  6
Continuous
370
    -3
390
F
347
0
  0
LAYER
  5
8A
330
2
100
AcDbSymbolTableRecord
100
AcDbLayerTableRecord
  2
10
 70
     0
 62
     3
  6
Continuous
370
    -3
390
F
347
0
  0
LAYER
  5
8B
330
2
100
AcDbSymbolTableRecord
100
AcDbLayerTableRecord
  2
11
 70
     0
 62
   251
  6
Continuous
370
    -3
390
F
347
0
  0
LAYER
  5
8C
330
2
100
AcDbSymbolTableRecord
100
AcDbLayerTableRecord
  2
12
 70
     0
 62
   136
  6
Continuous
370
    -3
390
F
347
0
  0
LAYER
  5
8D
330
2
100
AcDbSymbolTableRecord
100
AcDbLayerTableRecord
  2
13
 70
     0
 62
   216
  6
Continuous
370
    -3
390
F
347
0
  0
LAYER
  5
8E
330
2
100
AcDbSymbolTableRecord
100
AcDbLayerTableRecord
  2
14
 70
     0
 62
    56
  6
Continuous
370
    -3
390
F
347
0
  0
LAYER
  5
8F
330
2
100
AcDbSymbolTableRecord
100
AcDbLayerTableRecord
  2
15
 70
     0
 62
    96
  6
Continuous
370
    -3
390
F
347
0
  0
LAYER
  5
90
330
2
100
AcDbSymbolTableRecord
100
AcDbLayerTableRecord
  2
16
 70
     0
 62
    16
  6
Continuous
370
    -3
390
F
347
0
  0
LAYER
  5
91
330
2
100
AcDbSymbolTableRecord
100
AcDbLayerTableRecord
  2
17
 70
     0
 62
   132
  6
Continuous
370
    -3
390
F
347
0
  0
LAYER
  5
92
330
2
100
AcDbSymbolTableRecord
100
AcDbLayerTableRecord
  2
18
 70
     0
 62
   212
  6
Continuous
370
    -3
390
F
347
0
  0
LAYER
  5
93
330
2
100
AcDbSymbolTableRecord
100
AcDbLayerTableRecord
  2
19
 70
     0
 62
    52
  6
Continuous
370
    -3
390
F
347
0
  0
LAYER
  5
94
330
2
100
AcDbSymbolTableRecord
100
AcDbLayerTableRecord
  2
20
 70
     0
 62
   250
  6
Continuous
370
    -3
390
F
347
0
  0
LAYER
  5
95
330
2
100
AcDbSymbolTableRecord
100
AcDbLayerTableRecord
  2
128
 70
     0
 62
     7
  6
Continuous
370
    -3
390
F
347
0
  0
ENDTAB
  0
TABLE
  2
STYLE
  5
3
330
0
100
AcDbSymbolTable
 70
     2
  0
STYLE
  5
11
330
3
100
AcDbSymbolTableRecord
100
AcDbTextStyleTableRecord
  2
Standard
 70
     0
 40
0.0
 41
1.0
 50
0.0
 71
     0
 42
0.2
  3
txt
  4
bigfont
  0
STYLE
  5
3D
330
3
100
AcDbSymbolTableRecord
100
AcDbTextStyleTableRecord
  2
T_STANDARD
 70
     4
 40
10.0
 41
1.0
 50
0.0
 71
     0
 42
10.0
  3
txt
  4
bigfont
  0
ENDTAB
  0
TABLE
  2
VIEW
  5
6
330
0
100
AcDbSymbolTable
 70
     0
  0
ENDTAB
  0
TABLE
  2
UCS
  5
7
330
0
100
AcDbSymbolTable
 70
     0
  0
ENDTAB
  0
TABLE
  2
APPID
  5
9
330
0
100
AcDbSymbolTable
 70
     2
  0
APPID
  5
12
330
9
100
AcDbSymbolTableRecord
100
AcDbRegAppTableRecord
  2
ACAD
 70
     0
  0
APPID
  5
3C
330
9
100
AcDbSymbolTableRecord
100
AcDbRegAppTableRecord
  2
ODA
 70
     0
  0
ENDTAB
  0
TABLE
  2
DIMSTYLE
  5
A
330
0
100
AcDbSymbolTable
 70
     1
100
AcDbDimStyleTable
  0
DIMSTYLE
105
27
102
{ACAD_REACTORS
330
FF
330
10D
330
1E8
330
25E
330
33D
330
349
330
3AC
330
3BC
330
50F
330
523
330
537
330
54B
330
55F
330
575
102
}
330
A
100
AcDbSymbolTableRecord
100
AcDbDimStyleTableRecord
  2
Standard
 70
     0
340
11
  0
ENDTAB
  0
TABLE
  2
BLOCK_RECORD
  5
1
330
0
100
AcDbSymbolTable
 70
    30
  0
BLOCK_RECORD
  5
1F
330
1
100
AcDbSymbolTableRecord
100
AcDbBlockTableRecord
  2
*Model_Space
340
22
 70
     0
280
     1
281
     0
  0
BLOCK_RECORD
  5
1B
330
1
100
AcDbSymbolTableRecord
100
AcDbBlockTableRecord
  2
*Paper_Space
340
1E
 70
     0
280
     1
281
     0
  0
BLOCK_RECORD
  5
23
330
1
100
AcDbSymbolTableRecord
100
AcDbBlockTableRecord
  2
*Paper_Space0
340
26
 70
     0
280
     1
281
     0
  0
BLOCK_RECORD
  5
3E
330
1
100
AcDbSymbolTableRecord
100
AcDbBlockTableRecord
  2
_ORIGIN
340
0
 70
     0
280
     1
281
     0
  0
BLOCK_RECORD
  5
43
330
1
100
AcDbSymbolTableRecord
100
AcDbBlockTableRecord
  2
_DOTBLANK
340
0
 70
     0
280
     1
281
     0
  0
BLOCK_RECORD
  5
48
330
1
100
AcDbSymbolTableRecord
100
AcDbBlockTableRecord
  2
_DOT
340
0
 70
     0
280
     1
281
     0
  0
BLOCK_RECORD
  5
4D
330
1
100
AcDbSymbolTableRecord
100
AcDbBlockTableRecord
  2
_OPEN
340
0
 70
     0
280
     1
281
     0
  0
BLOCK_RECORD
  5
53
330
1
100
AcDbSymbolTableRecord
100
AcDbBlockTableRecord
  2
_CLOSED
340
0
 70
     0
280
     1
281
     0
  0
BLOCK_RECORD
  5
5A
330
1
100
AcDbSymbolTableRecord
100
AcDbBlockTableRecord
  2
_CLOSEDBLANK
340
0
 70
     0
280
     1
281
     0
  0
BLOCK_RECORD
  5
60
330
1
100
AcDbSymbolTableRecord
100
AcDbBlockTableRecord
  2
_BOXBLANK
340
0
 70
     0
280
     1
281
     0
  0
BLOCK_RECORD
  5
68
330
1
100
AcDbSymbolTableRecord
100
AcDbBlockTableRecord
  2
_BOXFILLED
340
0
 70
     0
280
     1
281
     0
  0
BLOCK_RECORD
  5
6D
330
1
100
AcDbSymbolTableRecord
100
AcDbBlockTableRecord
  2
_INTEGRAL
340
0
 70
     0
280
     1
281
     0
  0
BLOCK_RECORD
  5
72
330
1
100
AcDbSymbolTableRecord
100
AcDbBlockTableRecord
  2
_OBLIQUE
340
0
 70
     0
280
     1
281
     0
  0
BLOCK_RECORD
  5
76
330
1
100
AcDbSymbolTableRecord
100
AcDbBlockTableRecord
  2
_NONE
340
0
 70
     0
280
     1
281
     0
  0
BLOCK_RECORD
  5
EE
330
1
100
AcDbSymbolTableRecord
100
AcDbBlockTableRecord
  2
Dim1
340
0
 70
     0
280
     1
281
     0
  0
BLOCK_RECORD
  5
102
330
1
100
AcDbSymbolTableRecord
100
AcDbBlockTableRecord
  2
Dim2
340
0
 70
     0
280
     1
281
     0
  0
BLOCK_RECORD
  5
1D7
330
1
100
AcDbSymbolTableRecord
100
AcDbBlockTableRecord
  2
Dim3
340
0
 70
     0
280
     1
281
     0
  0
BLOCK_RECORD
  5
1EB
330
1
100
AcDbSymbolTableRecord
100
AcDbBlockTableRecord
  2
*G15
340
0
102
{BLKREFS
331
24A
102
}
 70
     0
280
     1
281
     0
  0
BLOCK_RECORD
  5
24B
330
1
100
AcDbSymbolTableRecord
100
AcDbBlockTableRecord
  2
Dim4
340
0
 70
     0
280
     1
281
     0
  0
BLOCK_RECORD
  5
261
330
1
100
AcDbSymbolTableRecord
100
AcDbBlockTableRecord
  2
*G17
340
0
102
{BLKREFS
331
2C0
102
}
 70
     0
280
     1
281
     0
  0
BLOCK_RECORD
  5
32A
330
1
100
AcDbSymbolTableRecord
100
AcDbBlockTableRecord
  2
Dim5
340
0
 70
     0
280
     1
281
     0
  0
BLOCK_RECORD
  5
33E
330
1
100
AcDbSymbolTableRecord
100
AcDbBlockTableRecord
  2
Dim6
340
0
 70
     0
280
     1
281
     0
  0
BLOCK_RECORD
  5
39D
330
1
100
AcDbSymbolTableRecord
100
AcDbBlockTableRecord
  2
Dim7
340
0
 70
     0
280
     1
281
     0
  0
BLOCK_RECORD
  5
3AD
330
1
100
AcDbSymbolTableRecord
100
AcDbBlockTableRecord
  2
Dim8
340
0
 70
     0
280
     1
281
     0
  0
BLOCK_RECORD
  5
3CD
330
1
100
AcDbSymbolTableRecord
100
AcDbBlockTableRecord
  2
*G22
340
0
102
{BLKREFS
331
3D6
102
}
 70
     0
280
     1
281
     0
  0
BLOCK_RECORD
  5
3DD
330
1
100
AcDbSymbolTableRecord
100
AcDbBlockTableRecord
  2
*G23
340
0
102
{BLKREFS
331
3E6
102
}
 70
     0
280
     1
281
     0
  0
BLOCK_RECORD
  5
4FC
330
1
100
AcDbSymbolTableRecord
100
AcDbBlockTableRecord
  2
Dim9
340
0
 70
     0
280
     1
281
     0
  0
BLOCK_RECORD
  5
510
330
1
100
AcDbSymbolTableRecord
100
AcDbBlockTableRecord
  2
Dim10
340
0
 70
     0
280
     1
281
     0
  0
BLOCK_RECORD
  5
524
330
1
100
AcDbSymbolTableRecord
100
AcDbBlockTableRecord
  2
Dim11
340
0
 70
     0
280
     1
281
     0
  0
BLOCK_RECORD
  5
538
330
1
100
AcDbSymbolTableRecord
100
AcDbBlockTableRecord
  2
Dim12
340
0
 70
     0
280
     1
281
     0
  0
BLOCK_RECORD
  5
54C
330
1
100
AcDbSymbolTableRecord
100
AcDbBlockTableRecord
  2
Dim13
340
0
 70
     0
280
     1
281
     0
  0
BLOCK_RECORD
  5
562
330
1
100
AcDbSymbolTableRecord
100
AcDbBlockTableRecord
  2
Dim14
340
0
 70
     0
280
     1
281
     0
  0
ENDTAB
  0
ENDSEC
  0
SECTION
  2
BLOCKS
  0
BLOCK
  5
20
330
1F
100
AcDbEntity
  8
0
100
AcDbBlockBegin
  2
*Model_Space
 70
     0
 10
0.0
 20
0.0
 30
0.0
  3
*Model_Space
  1

  0
ENDBLK
  5
21
330
1F
100
AcDbEntity
  8
0
100
AcDbBlockEnd
  0
BLOCK
  5
1C
330
1B
100
AcDbEntity
 67
     1
  8
0
100
AcDbBlockBegin
  2
*Paper_Space
 70
     0
 10
0.0
 20
0.0
 30
0.0
  3
*Paper_Space
  1

  0
ENDBLK
  5
1D
330
1B
100
AcDbEntity
 67
     1
  8
0
100
AcDbBlockEnd
  0
BLOCK
  5
24
330
23
100
AcDbEntity
  8
0
100
AcDbBlockBegin
  2
*Paper_Space0
 70
     0
 10
0.0
 20
0.0
 30
0.0
  3
*Paper_Space0
  1

  0
ENDBLK
  5
25
330
23
100
AcDbEntity
  8
0
100
AcDbBlockEnd
  0
BLOCK
  5
41
330
3E
100
AcDbEntity
  8
0
100
AcDbBlockBegin
  2
_ORIGIN
 70
     0
 10
0.0
 20
0.0
 30
0.0
  3
_ORIGIN
  1

  0
CIRCLE
  5
3F
330
3E
100
AcDbEntity
  8
0
100
AcDbCircle
 10
0.0
 20
0.0
 30
0.0
 40
0.5
  0
LINE
  5
40
330
3E
100
AcDbEntity
  8
0
100
AcDbLine
 10
0.0
 20
0.0
 30
0.0
 11
-1.0
 21
0.0
 31
0.0
  0
ENDBLK
  5
42
330
3E
100
AcDbEntity
  8
0
100
AcDbBlockEnd
  0
BLOCK
  5
46
330
43
100
AcDbEntity
  8
0
100
AcDbBlockBegin
  2
_DOTBLANK
 70
     0
 10
0.0
 20
0.0
 30
0.0
  3
_DOTBLANK
  1

  0
CIRCLE
  5
44
330
43
100
AcDbEntity
  8
0
100
AcDbCircle
 10
0.0
 20
0.0
 30
0.0
 40
0.5
  0
LINE
  5
45
330
43
100
AcDbEntity
  8
0
100
AcDbLine
 10
-0.5
 20
0.0
 30
0.0
 11
-1.0
 21
0.0
 31
0.0
  0
ENDBLK
  5
47
330
43
100
AcDbEntity
  8
0
100
AcDbBlockEnd
  0
BLOCK
  5
4B
330
48
100
AcDbEntity
  8
0
100
AcDbBlockBegin
  2
_DOT
 70
     0
 10
0.0
 20
0.0
 30
0.0
  3
_DOT
  1

  0
LWPOLYLINE
  5
49
330
48
100
AcDbEntity
  8
0
100
AcDbPolyline
 90
        2
 70
     1
 43
0.5
 10
-0.25
 20
0.0
 42
1.0
 10
0.25
 20
0.0
 42
1.0
  0
LINE
  5
4A
330
48
100
AcDbEntity
  8
0
100
AcDbLine
 10
-0.5
 20
0.0
 30
0.0
 11
-1.0
 21
0.0
 31
0.0
  0
ENDBLK
  5
4C
330
48
100
AcDbEntity
  8
0
100
AcDbBlockEnd
  0
BLOCK
  5
51
330
4D
100
AcDbEntity
  8
0
100
AcDbBlockBegin
  2
_OPEN
 70
     0
 10
0.0
 20
0.0
 30
0.0
  3
_OPEN
  1

  0
LINE
  5
4E
330
4D
100
AcDbEntity
  8
0
100
AcDbLine
 10
-1.0
 20
0.1666666666666667
 30
0.0
 11
0.0
 21
0.0
 31
0.0
  0
LINE
  5
4F
330
4D
100
AcDbEntity
  8
0
100
AcDbLine
 10
-1.0
 20
-0.1666666666666667
 30
0.0
 11
0.0
 21
0.0
 31
0.0
  0
LINE
  5
50
330
4D
100
AcDbEntity
  8
0
100
AcDbLine
 10
0.0
 20
0.0
 30
0.0
 11
-1.0
 21
0.0
 31
0.0
  0
ENDBLK
  5
52
330
4D
100
AcDbEntity
  8
0
100
AcDbBlockEnd
  0
BLOCK
  5
58
330
53
100
AcDbEntity
  8
0
100
AcDbBlockBegin
  2
_CLOSED
 70
     0
 10
0.0
 20
0.0
 30
0.0
  3
_CLOSED
  1

  0
LINE
  5
54
330
53
100
AcDbEntity
  8
0
100
AcDbLine
 10
-1.0
 20
0.1666666666666667
 30
0.0
 11
0.0
 21
0.0
 31
0.0
  0
LINE
  5
55
330
53
100
AcDbEntity
  8
0
100
AcDbLine
 10
0.0
 20
0.0
 30
0.0
 11
-1.0
 21
-0.1666666666666667
 31
0.0
  0
LINE
  5
56
330
53
100
AcDbEntity
  8
0
100
AcDbLine
 10
-1.0
 20
0.1666666666666667
 30
0.0
 11
-1.0
 21
-0.1666666666666667
 31
0.0
  0
LINE
  5
57
330
53
100
AcDbEntity
  8
0
100
AcDbLine
 10
0.0
 20
0.0
 30
0.0
 11
-1.0
 21
0.0
 31
0.0
  0
ENDBLK
  5
59
330
53
100
AcDbEntity
  8
0
100
AcDbBlockEnd
  0
BLOCK
  5
5E
330
5A
100
AcDbEntity
  8
0
100
AcDbBlockBegin
  2
_CLOSEDBLANK
 70
     0
 10
0.0
 20
0.0
 30
0.0
  3
_CLOSEDBLANK
  1

  0
LINE
  5
5B
330
5A
100
AcDbEntity
  8
0
100
AcDbLine
 10
-1.0
 20
0.1666666666666667
 30
0.0
 11
0.0
 21
0.0
 31
0.0
  0
LINE
  5
5C
330
5A
100
AcDbEntity
  8
0
100
AcDbLine
 10
0.0
 20
0.0
 30
0.0
 11
-1.0
 21
-0.1666666666666667
 31
0.0
  0
LINE
  5
5D
330
5A
100
AcDbEntity
  8
0
100
AcDbLine
 10
-1.0
 20
0.1666666666666667
 30
0.0
 11
-1.0
 21
-0.1666666666666667
 31
0.0
  0
ENDBLK
  5
5F
330
5A
100
AcDbEntity
  8
0
100
AcDbBlockEnd
  0
BLOCK
  5
66
330
60
100
AcDbEntity
  8
0
100
AcDbBlockBegin
  2
_BOXBLANK
 70
     0
 10
0.0
 20
0.0
 30
0.0
  3
_BOXBLANK
  1

  0
LINE
  5
61
330
60
100
AcDbEntity
  8
0
100
AcDbLine
 10
-0.5
 20
-0.5
 30
0.0
 11
0.5
 21
-0.5
 31
0.0
  0
LINE
  5
62
330
60
100
AcDbEntity
  8
0
100
AcDbLine
 10
0.5
 20
-0.5
 30
0.0
 11
0.5
 21
0.5
 31
0.0
  0
LINE
  5
63
330
60
100
AcDbEntity
  8
0
100
AcDbLine
 10
0.5
 20
0.5
 30
0.0
 11
-0.5
 21
0.5
 31
0.0
  0
LINE
  5
64
330
60
100
AcDbEntity
  8
0
100
AcDbLine
 10
-0.5
 20
0.5
 30
0.0
 11
-0.5
 21
-0.5
 31
0.0
  0
LINE
  5
65
330
60
100
AcDbEntity
  8
0
100
AcDbLine
 10
-0.5
 20
0.0
 30
0.0
 11
-1.0
 21
0.0
 31
0.0
  0
ENDBLK
  5
67
330
60
100
AcDbEntity
  8
0
100
AcDbBlockEnd
  0
BLOCK
  5
6B
330
68
100
AcDbEntity
  8
0
100
AcDbBlockBegin
  2
_BOXFILLED
 70
     0
 10
0.0
 20
0.0
 30
0.0
  3
_BOXFILLED
  1

  0
SOLID
  5
69
330
68
100
AcDbEntity
  8
0
100
AcDbTrace
 10
-0.5
 20
0.5
 30
0.0
 11
0.5
 21
0.5
 31
0.0
 12
-0.5
 22
-0.5
 32
0.0
 13
0.5
 23
-0.5
 33
0.0
  0
LINE
  5
6A
330
68
100
AcDbEntity
  8
0
100
AcDbLine
 10
-0.5
 20
0.0
 30
0.0
 11
-1.0
 21
0.0
 31
0.0
  0
ENDBLK
  5
6C
330
68
100
AcDbEntity
  8
0
100
AcDbBlockEnd
  0
BLOCK
  5
70
330
6D
100
AcDbEntity
  8
0
100
AcDbBlockBegin
  2
_INTEGRAL
 70
     0
 10
0.0
 20
0.0
 30
0.0
  3
_INTEGRAL
  1

  0
ARC
  5
6E
330
6D
100
AcDbEntity
  8
0
100
AcDbCircle
 10
0.444888
 20
-0.0913346
 30
0.0
 40
0.4541666
100
AcDbArc
 50
84.16951033439696
 51
265.6909581978302
  0
ARC
  5
6F
330
6D
100
AcDbEntity
  8
0
100
AcDbCircle
 10
-0.444888
 20
0.0913346
 30
0.0
 40
0.4541666
100
AcDbArc
 50
317.4098226892151
 51
138.9312705526484
  0
ENDBLK
  5
71
330
6D
100
AcDbEntity
  8
0
100
AcDbBlockEnd
  0
BLOCK
  5
74
330
72
100
AcDbEntity
  8
0
100
AcDbBlockBegin
  2
_OBLIQUE
 70
     0
 10
0.0
 20
0.0
 30
0.0
  3
_OBLIQUE
  1

  0
LINE
  5
73
330
72
100
AcDbEntity
  8
0
100
AcDbLine
 10
-0.5
 20
-0.5
 30
0.0
 11
0.5
 21
0.5
 31
0.0
  0
ENDBLK
  5
75
330
72
100
AcDbEntity
  8
0
100
AcDbBlockEnd
  0
BLOCK
  5
77
330
76
100
AcDbEntity
  8
0
100
AcDbBlockBegin
  2
_NONE
 70
     0
 10
0.0
 20
0.0
 30
0.0
  3
_NONE
  1

  0
ENDBLK
  5
78
330
76
100
AcDbEntity
  8
0
100
AcDbBlockEnd
  0
BLOCK
  5
EF
330
EE
100
AcDbEntity
  8
0
100
AcDbBlockBegin
  2
Dim1
 70
     0
 10
0.0
 20
0.0
 30
0.0
  3
Dim1
  1

  0
ARC
  5
F1
330
EE
100
AcDbEntity
  8
1
  6
Continuous
 62
     7
100
AcDbCircle
 10
525.999999397183
 20
622.5
 30
0.0
 40
135.999999397183
100
AcDbArc
 50
149.9999998783862
 51
210.0000000327748
  0
LINE
  5
F2
330
EE
100
AcDbEntity
  8
1
  6
Continuous
 62
     7
100
AcDbLine
 10
408.2205451488883
 20
690.4999999485856
 30
0.0
 11
406.1499927716663
 21
682.772593342668
 31
0.0
  0
LINE
  5
F3
330
EE
100
AcDbEntity
  8
1
  6
Continuous
 62
     7
100
AcDbLine
 10
408.2205451488883
 20
690.4999999485856
 30
0.0
 11
402.5636908873889
 21
684.8431457111002
 31
0.0
  0
LINE
  5
F4
330
EE
100
AcDbEntity
  8
1
  6
Continuous
 62
     7
100
AcDbLine
 10
406.1499927716663
 20
682.772593342668
 30
0.0
 11
402.5636908873889
 21
684.8431457111002
 31
0.0
  0
LINE
  5
F5
330
EE
100
AcDbEntity
  8
1
  6
Continuous
 62
     7
100
AcDbLine
 10
407.2546193190482
 20
688.8269673431602
 30
0.0
 11
406.2193431304372
 21
684.9632640402014
 31
0.0
  0
LINE
  5
F6
330
EE
100
AcDbEntity
  8
1
  6
Continuous
 62
     7
100
AcDbLine
 10
407.2546193190482
 20
688.8269673431602
 30
0.0
 11
404.4261921882985
 21
685.9985402244175
 31
0.0
  0
LINE
  5
F7
330
EE
100
AcDbEntity
  8
1
  6
Continuous
 62
     7
100
AcDbLine
 10
406.2193431304372
 20
684.9632640402014
 30
0.0
 11
404.4261921882985
 21
685.9985402244175
 31
0.0
  0
LINE
  5
F8
330
EE
100
AcDbEntity
  8
1
  6
Continuous
 62
     7
100
AcDbLine
 10
408.2205450434525
 20
554.5000002340346
 30
0.0
 11
402.5636907907242
 21
560.156854480291
 31
0.0
  0
LINE
  5
F9
330
EE
100
AcDbEntity
  8
1
  6
Continuous
 62
     7
100
AcDbLine
 10
408.2205450434525
 20
554.5000002340346
 30
0.0
 11
406.149992678212
 21
562.2274068431627
 31
0.0
  0
LINE
  5
FA
330
EE
100
AcDbEntity
  8
1
  6
Continuous
 62
     7
100
AcDbLine
 10
402.5636907907242
 20
560.156854480291
 30
0.0
 11
406.149992678212
 21
562.2274068431627
 31
0.0
  0
LINE
  5
FB
330
EE
100
AcDbEntity
  8
1
  6
Continuous
 62
     7
100
AcDbLine
 10
407.2546192162064
 20
556.1730328409576
 30
0.0
 11
404.4261920898422
 21
559.0014599640858
 31
0.0
  0
LINE
  5
FC
330
EE
100
AcDbEntity
  8
1
  6
Continuous
 62
     7
100
AcDbLine
 10
407.2546192162064
 20
556.1730328409576
 30
0.0
 11
406.2193430335861
 21
560.0367361455217
 31
0.0
  0
LINE
  5
FD
330
EE
100
AcDbEntity
  8
1
  6
Continuous
 62
     7
100
AcDbLine
 10
404.4261920898422
 20
559.0014599640858
 30
0.0
 11
406.2193430335861
 21
560.0367361455217
 31
0.0
  0
MTEXT
  5
FE
330
EE
100
AcDbEntity
  8
1
  6
Continuous
 62
     7
100
AcDbMText
 10
384.0
 20
622.5000001100879
 30
0.0
 40
12.0
 41
0.0
 46
0.0
 71
     8
 72
     1
  1
60°
 11
7.752650245698030E-10
 21
1.0
 31
0.0
 73
     1
 44
1.0
  0
ENDBLK
  5
F0
330
EE
100
AcDbEntity
  8
0
100
AcDbBlockEnd
  0
BLOCK
  5
103
330
102
100
AcDbEntity
  8
0
100
AcDbBlockBegin
  2
Dim2
 70
     0
 10
0.0
 20
0.0
 30
0.0
  3
Dim2
  1

  0
LINE
  5
105
330
102
100
AcDbEntity
  8
1
  6
Continuous
 62
     7
100
AcDbLine
 10
542.4996205927712
 20
643.1829785115743
 30
0.0
 11
501.8354102494791
 21
629.7259850011573
 31
0.0
  0
LINE
  5
106
330
102
100
AcDbEntity
  8
1
  6
Continuous
 62
     7
100
AcDbLine
 10
501.8354102494791
 20
629.7259850011573
 30
0.0
 11
508.5210325624057
 21
634.1194408492223
 31
0.0
  0
LINE
  5
107
330
102
100
AcDbEntity
  8
1
  6
Continuous
 62
     7
100
AcDbLine
 10
501.8354102494791
 20
629.7259850011573
 30
0.0
 11
509.8220569366142
 21
630.1880182195237
 31
0.0
  0
LINE
  5
108
330
102
100
AcDbEntity
  8
1
  6
Continuous
 62
     7
100
AcDbLine
 10
508.5210325624057
 20
634.1194408492223
 30
0.0
 11
509.8220569366142
 21
630.1880182195237
 31
0.0
  0
LINE
  5
109
330
102
100
AcDbEntity
  8
1
  6
Continuous
 62
     7
100
AcDbLine
 10
503.6694438744868
 20
630.3329211344612
 30
0.0
 11
507.0122550309501
 21
632.5296490584938
 31
0.0
  0
LINE
  5
10A
330
102
100
AcDbEntity
  8
1
  6
Continuous
 62
     7
100
AcDbLine
 10
503.6694438744868
 20
630.3329211344612
 30
0.0
 11
507.6627672180543
 21
630.5639377436444
 31
0.0
  0
LINE
  5
10B
330
102
100
AcDbEntity
  8
1
  6
Continuous
 62
     7
100
AcDbLine
 10
507.0122550309501
 20
632.5296490584938
 30
0.0
 11
507.6627672180543
 21
630.5639377436444
 31
0.0
  0
MTEXT
  5
10C
330
102
100
AcDbEntity
  8
1
  6
Continuous
 62
     7
100
AcDbMText
 10
520.2824758556059
 20
642.1506757344907
 30
0.0
 40
12.0
 41
0.0
 46
0.0
 71
     8
 72
     1
  1
R23
 11
0.9493656630208237
 21
0.3141732609198812
 31
0.0
 73
     1
 44
1.0
  0
ENDBLK
  5
104
330
102
100
AcDbEntity
  8
0
100
AcDbBlockEnd
  0
BLOCK
  5
1D8
330
1D7
100
AcDbEntity
  8
0
100
AcDbBlockBegin
  2
Dim3
 70
     0
 10
0.0
 20
0.0
 30
0.0
  3
Dim3
  1

  0
ARC
  5
1DA
330
1D7
100
AcDbEntity
  8
1
  6
Continuous
 62
     7
100
AcDbCircle
 10
450.0000000226903
 20
350.0
 30
0.0
 40
79.99999999999997
100
AcDbArc
 50
56.99999975335947
 51
89.9999999837491
  0
LINE
  5
1DB
330
1D7
100
AcDbEntity
  8
1
  6
Continuous
 62
     7
100
AcDbLine
 10
493.5711231127098
 20
417.0936452480738
 30
0.0
 11
485.9626709929903
 21
419.5657812358254
 31
0.0
  0
LINE
  5
1DC
330
1D7
100
AcDbEntity
  8
1
  6
Continuous
 62
     7
100
AcDbLine
 10
493.5711231127098
 20
417.0936452480738
 30
0.0
 11
488.218078287431
 21
423.0388038749361
 31
0.0
  0
LINE
  5
1DD
330
1D7
100
AcDbEntity
  8
1
  6
Continuous
 62
     7
100
AcDbLine
 10
485.9626709929903
 20
419.5657812358254
 30
0.0
 11
488.218078287431
 21
423.0388038749361
 31
0.0
  0
LINE
  5
1DE
330
1D7
100
AcDbEntity
  8
1
  6
Continuous
 62
     7
100
AcDbLine
 10
491.950935994585
 20
418.1458070749005
 30
0.0
 11
488.1467099347253
 21
419.3818750687763
 31
0.0
  0
LINE
  5
1DF
330
1D7
100
AcDbEntity
  8
1
  6
Continuous
 62
     7
100
AcDbLine
 10
491.950935994585
 20
418.1458070749005
 30
0.0
 11
489.2744135819456
 21
421.1183863883317
 31
0.0
  0
LINE
  5
1E0
330
1D7
100
AcDbEntity
  8
1
  6
Continuous
 62
     7
100
AcDbLine
 10
488.1467099347253
 20
419.3818750687763
 30
0.0
 11
489.2744135819456
 21
421.1183863883317
 31
0.0
  0
LINE
  5
1E1
330
1D7
100
AcDbEntity
  8
1
  6
Continuous
 62
     7
100
AcDbLine
 10
450.0000000453808
 20
430.0
 30
0.0
 11
457.7274066562807
 21
432.0705523586284
 31
0.0
  0
LINE
  5
1E2
330
1D7
100
AcDbEntity
  8
1
  6
Continuous
 62
     7
100
AcDbLine
 10
450.0000000453808
 20
430.0
 30
0.0
 11
457.7274066551061
 21
427.9294476369881
 31
0.0
  0
LINE
  5
1E3
330
1D7
100
AcDbEntity
  8
1
  6
Continuous
 62
     7
100
AcDbLine
 10
457.7274066562807
 20
432.0705523586284
 30
0.0
 11
457.7274066551061
 21
427.9294476369881
 31
0.0
  0
LINE
  5
1E4
330
1D7
100
AcDbEntity
  8
1
  6
Continuous
 62
     7
100
AcDbLine
 10
451.931851697959
 20
429.9999999994521
 30
0.0
 11
455.7955550034089
 21
431.0352761787663
 31
0.0
  0
LINE
  5
1E5
330
1D7
100
AcDbEntity
  8
1
  6
Continuous
 62
     7
100
AcDbLine
 10
451.931851697959
 20
429.9999999994521
 30
0.0
 11
455.7955550028216
 21
428.9647238179462
 31
0.0
  0
LINE
  5
1E6
330
1D7
100
AcDbEntity
  8
1
  6
Continuous
 62
     7
100
AcDbLine
 10
455.7955550034089
 20
431.0352761787663
 30
0.0
 11
455.7955550028216
 21
428.9647238179462
 31
0.0
  0
MTEXT
  5
1E7
330
1D7
100
AcDbEntity
  8
1
  6
Continuous
 62
     7
100
AcDbMText
 10
474.4253198564007
 20
432.458497142629
 30
0.0
 40
12.0
 41
0.0
 46
0.0
 71
     8
 72
     1
  1
33°
 11
0.9588197342166167
 21
-0.2840153469036075
 31
0.0
 73
     1
 44
1.0
  0
ENDBLK
  5
1D9
330
1D7
100
AcDbEntity
  8
0
100
AcDbBlockEnd
  0
BLOCK
  5
1EC
330
1EB
100
AcDbEntity
  8
0
100
AcDbBlockBegin
  2
*G15
 70
     1
 10
0.0
 20
0.0
 30
0.0
  3
*G15
  1

  0
LINE
  5
1EE
330
1EB
100
AcDbEntity
  8
1
  6
Continuous
 62
     7
100
AcDbLine
 10
575.8284271247462
 20
361.201010126778
 30
0.0
 11
592.7989898732234
 21
378.1715728752552
 31
0.0
  0
LINE
  5
1EF
330
1EB
100
AcDbEntity
  8
1
  6
Continuous
 62
     7
100
AcDbLine
 10
580.3046279793946
 20
362.3816646801458
 30
0.0
 11
578.6568548287544
 21
364.0294378307862
 31
0.0
  0
LINE
  5
1F0
330
1EB
100
AcDbEntity
  8
1
  6
Continuous
 62
     7
100
AcDbLine
 10
581.4852819535006
 20
366.8578649555324
 30
0.0
 11
584.0279800333094
 21
364.3151668757264
 31
0.0
  0
LINE
  5
1F1
330
1EB
100
AcDbEntity
  8
1
  6
Continuous
 62
     7
100
AcDbLine
 10
584.3137090782468
 20
369.6862920802786
 30
0.0
 11
587.142136202993
 21
366.8578649555324
 31
0.0
  0
LINE
  5
1F2
330
1EB
100
AcDbEntity
  8
1
  6
Continuous
 62
     7
100
AcDbLine
 10
587.142136202993
 20
372.5147192050248
 30
0.0
 11
589.684834046313
 21
369.9720213616974
 31
0.0
  0
LINE
  5
1F3
330
1EB
100
AcDbEntity
  8
1
  6
Continuous
 62
     7
100
AcDbLine
 10
589.9705633277392
 20
375.343146329771
 30
0.0
 11
591.6183359727596
 21
373.6953736847533
 31
0.0
  0
LINE
  5
1F4
330
1EB
100
AcDbEntity
  8
1
  6
Continuous
 62
     7
100
AcDbLine
 10
570.1715728752527
 20
361.2010101267771
 30
0.0
 11
592.7989898732243
 21
383.8284271247488
 31
0.0
  0
LINE
  5
1F5
330
1EB
100
AcDbEntity
  8
1
  6
Continuous
 62
     7
100
AcDbLine
 10
573.200011148801
 20
361.0010001365009
 30
0.0
 11
571.5857870168888
 21
362.615224268413
 31
0.0
  0
LINE
  5
1F6
330
1EB
100
AcDbEntity
  8
1
  6
Continuous
 62
     7
100
AcDbLine
 10
577.2426412663813
 20
362.615224268413
 30
0.0
 11
574.4142141416351
 21
365.4436513931592
 31
0.0
  0
LINE
  5
1F7
330
1EB
100
AcDbEntity
  8
1
  6
Continuous
 62
     7
100
AcDbLine
 10
580.0710683911275
 20
365.4436513931592
 30
0.0
 11
577.2426412663813
 21
368.2720785179054
 31
0.0
  0
LINE
  5
1F8
330
1EB
100
AcDbEntity
  8
1
  6
Continuous
 62
     7
100
AcDbLine
 10
580.0710683911275
 20
371.1005056426516
 30
0.0
 11
582.8994955158737
 21
368.2720785179054
 31
0.0
  0
LINE
  5
1F9
330
1EB
100
AcDbEntity
  8
1
  6
Continuous
 62
     7
100
AcDbLine
 10
582.8994955158737
 20
373.9289327673978
 30
0.0
 11
585.7279226406199
 21
371.1005056426516
 31
0.0
  0
LINE
  5
1FA
330
1EB
100
AcDbEntity
  8
1
  6
Continuous
 62
     7
100
AcDbLine
 10
585.7279226406199
 20
376.7573598921441
 30
0.0
 11
588.5563497653661
 21
373.9289327673978
 31
0.0
  0
LINE
  5
1FB
330
1EB
100
AcDbEntity
  8
1
  6
Continuous
 62
     7
100
AcDbLine
 10
588.5563497653661
 20
379.5857870168903
 30
0.0
 11
591.3847768901123
 21
376.7573598921441
 31
0.0
  0
LINE
  5
1FC
330
1EB
100
AcDbEntity
  8
1
  6
Continuous
 62
     7
100
AcDbLine
 10
591.3847768901123
 20
382.4142141416365
 30
0.0
 11
592.9989998864402
 21
380.799991145301
 31
0.0
  0
LINE
  5
1FD
330
1EB
100
AcDbEntity
  8
1
  6
Continuous
 62
     7
100
AcDbLine
 10
565.6953728526756
 20
362.3816643536924
 30
0.0
 11
591.6183356463089
 21
388.3046271473256
 31
0.0
  0
LINE
  5
1FE
330
1EB
100
AcDbEntity
  8
1
  6
Continuous
 62
     7
100
AcDbLine
 10
567.3431463297695
 20
364.0294378307861
 30
0.0
 11
570.1715734545157
 21
361.2010107060399
 31
0.0
  0
LINE
  5
1FF
330
1EB
100
AcDbEntity
  8
1
  6
Continuous
 62
     7
100
AcDbLine
 10
573.000000579262
 20
364.0294378307861
 30
0.0
 11
570.1715734545157
 21
366.8578649555323
 31
0.0
  0
LINE
  5
200
330
1EB
100
AcDbEntity
  8
1
  6
Continuous
 62
     7
100
AcDbLine
 10
575.8284277040082
 20
366.8578649555323
 30
0.0
 11
573.000000579262
 21
369.6862920802785
 31
0.0
  0
LINE
  5
201
330
1EB
100
AcDbEntity
  8
1
  6
Continuous
 62
     7
100
AcDbLine
 10
578.6568548287544
 20
369.6862920802785
 30
0.0
 11
575.8284277040082
 21
372.5147192050247
 31
0.0
  0
LINE
  5
202
330
1EB
100
AcDbEntity
  8
1
  6
Continuous
 62
     7
100
AcDbLine
 10
581.4852819535006
 20
372.5147192050247
 30
0.0
 11
578.6568548287544
 21
375.3431463297709
 31
0.0
  0
LINE
  5
203
330
1EB
100
AcDbEntity
  8
1
  6
Continuous
 62
     7
100
AcDbLine
 10
584.3137090782468
 20
375.3431463297709
 30
0.0
 11
581.4852819535006
 21
378.1715734545172
 31
0.0
  0
LINE
  5
204
330
1EB
100
AcDbEntity
  8
1
  6
Continuous
 62
     7
100
AcDbLine
 10
584.3137090782468
 20
381.0000005792634
 30
0.0
 11
587.142136202993
 21
378.1715734545172
 31
0.0
  0
LINE
  5
205
330
1EB
100
AcDbEntity
  8
1
  6
Continuous
 62
     7
100
AcDbLine
 10
587.142136202993
 20
383.8284277040096
 30
0.0
 11
589.9705633277392
 21
381.0000005792634
 31
0.0
  0
LINE
  5
206
330
1EB
100
AcDbEntity
  8
1
  6
Continuous
 62
     7
100
AcDbLine
 10
589.9705633277392
 20
386.6568548287558
 30
0.0
 11
592.7989896801356
 21
383.828428476362
 31
0.0
  0
LINE
  5
207
330
1EB
100
AcDbEntity
  8
1
  6
Continuous
 62
     7
100
AcDbLine
 10
561.9720206641925
 20
364.3151664147015
 30
0.0
 11
589.6848335852999
 21
392.0279793358088
 31
0.0
  0
LINE
  5
208
330
1EB
100
AcDbEntity
  8
1
  6
Continuous
 62
     7
100
AcDbLine
 10
565.9289327673964
 20
362.6152242684129
 30
0.0
 11
563.1005056426502
 21
365.4436513931591
 31
0.0
  0
LINE
  5
209
330
1EB
100
AcDbEntity
  8
1
  6
Continuous
 62
     7
100
AcDbLine
 10
568.7573598921426
 20
365.4436513931591
 30
0.0
 11
565.9289327673964
 21
368.2720785179054
 31
0.0
  0
LINE
  5
20A
330
1EB
100
AcDbEntity
  8
1
  6
Continuous
 62
     7
100
AcDbLine
 10
571.5857870168888
 20
368.2720785179054
 30
0.0
 11
568.7573598921426
 21
371.1005056426516
 31
0.0
  0
LINE
  5
20B
330
1EB
100
AcDbEntity
  8
1
  6
Continuous
 62
     7
100
AcDbLine
 10
574.4142141416351
 20
371.1005056426516
 30
0.0
 11
571.5857870168888
 21
373.9289327673978
 31
0.0
  0
LINE
  5
20C
330
1EB
100
AcDbEntity
  8
1
  6
Continuous
 62
     7
100
AcDbLine
 10
577.2426412663813
 20
373.9289327673978
 30
0.0
 11
574.4142141416351
 21
376.757359892144
 31
0.0
  0
LINE
  5
20D
330
1EB
100
AcDbEntity
  8
1
  6
Continuous
 62
     7
100
AcDbLine
 10
580.0710683911275
 20
376.757359892144
 30
0.0
 11
577.2426412663813
 21
379.5857870168902
 31
0.0
  0
LINE
  5
20E
330
1EB
100
AcDbEntity
  8
1
  6
Continuous
 62
     7
100
AcDbLine
 10
582.8994955158737
 20
379.5857870168902
 30
0.0
 11
580.0710683911275
 21
382.4142141416364
 31
0.0
  0
LINE
  5
20F
330
1EB
100
AcDbEntity
  8
1
  6
Continuous
 62
     7
100
AcDbLine
 10
582.8994955158737
 20
385.2426412663826
 30
0.0
 11
585.7279226406199
 21
382.4142141416364
 31
0.0
  0
LINE
  5
210
330
1EB
100
AcDbEntity
  8
1
  6
Continuous
 62
     7
100
AcDbLine
 10
585.7279226406199
 20
388.0710683911288
 30
0.0
 11
588.5563497653661
 21
385.2426412663826
 31
0.0
  0
LINE
  5
211
330
1EB
100
AcDbEntity
  8
1
  6
Continuous
 62
     7
100
AcDbLine
 10
588.5563497653661
 20
390.8994955158751
 30
0.0
 11
591.3847768901123
 21
388.0710683911288
 31
0.0
  0
LINE
  5
212
330
1EB
100
AcDbEntity
  8
1
  6
Continuous
 62
     7
100
AcDbLine
 10
558.8578643762692
 20
366.8578643762701
 30
0.0
 11
587.1421356237312
 21
395.142135623732
 31
0.0
  0
LINE
  5
213
330
1EB
100
AcDbEntity
  8
1
  6
Continuous
 62
     7
100
AcDbLine
 10
564.5147192050233
 20
366.8578649555322
 30
0.0
 11
561.6862920802771
 21
369.6862920802785
 31
0.0
  0
LINE
  5
214
330
1EB
100
AcDbEntity
  8
1
  6
Continuous
 62
     7
100
AcDbLine
 10
567.3431463297695
 20
369.6862920802785
 30
0.0
 11
564.5147192050233
 21
372.5147192050247
 31
0.0
  0
LINE
  5
215
330
1EB
100
AcDbEntity
  8
1
  6
Continuous
 62
     7
100
AcDbLine
 10
570.1715734545157
 20
372.5147192050247
 30
0.0
 11
567.3431463297695
 21
375.3431463297709
 31
0.0
  0
LINE
  5
216
330
1EB
100
AcDbEntity
  8
1
  6
Continuous
 62
     7
100
AcDbLine
 10
573.000000579262
 20
375.3431463297709
 30
0.0
 11
570.1715734545157
 21
378.1715734545171
 31
0.0
  0
LINE
  5
217
330
1EB
100
AcDbEntity
  8
1
  6
Continuous
 62
     7
100
AcDbLine
 10
575.8284277040082
 20
378.1715734545171
 30
0.0
 11
573.000000579262
 21
381.0000005792633
 31
0.0
  0
LINE
  5
218
330
1EB
100
AcDbEntity
  8
1
  6
Continuous
 62
     7
100
AcDbLine
 10
578.6568548287544
 20
381.0000005792633
 30
0.0
 11
575.8284277040082
 21
383.8284277040095
 31
0.0
  0
LINE
  5
219
330
1EB
100
AcDbEntity
  8
1
  6
Continuous
 62
     7
100
AcDbLine
 10
581.4852819535006
 20
383.8284277040095
 30
0.0
 11
578.6568548287544
 21
386.6568548287557
 31
0.0
  0
LINE
  5
21A
330
1EB
100
AcDbEntity
  8
1
  6
Continuous
 62
     7
100
AcDbLine
 10
584.3137090782468
 20
386.6568548287557
 30
0.0
 11
581.4852819535006
 21
389.485281953502
 31
0.0
  0
LINE
  5
21B
330
1EB
100
AcDbEntity
  8
1
  6
Continuous
 62
     7
100
AcDbLine
 10
584.3137090782468
 20
392.3137090782482
 30
0.0
 11
587.142136202993
 21
389.485281953502
 31
0.0
  0
LINE
  5
21C
330
1EB
100
AcDbEntity
  8
1
  6
Continuous
 62
     7
100
AcDbLine
 10
556.3151664147028
 20
369.9720206641964
 30
0.0
 11
584.027979335805
 21
397.6848335852985
 31
0.0
  0
LINE
  5
21D
330
1EB
100
AcDbEntity
  8
1
  6
Continuous
 62
     7
100
AcDbLine
 10
560.272078517904
 20
368.2720785179053
 30
0.0
 11
557.4436513931579
 21
371.1005056426515
 31
0.0
  0
LINE
  5
21E
330
1EB
100
AcDbEntity
  8
1
  6
Continuous
 62
     7
100
AcDbLine
 10
563.1005056426502
 20
371.1005056426515
 30
0.0
 11
560.2720785179041
 21
373.9289327673977
 31
0.0
  0
LINE
  5
21F
330
1EB
100
AcDbEntity
  8
1
  6
Continuous
 62
     7
100
AcDbLine
 10
565.9289327673964
 20
373.9289327673977
 30
0.0
 11
563.1005056426503
 21
376.7573598921439
 31
0.0
  0
LINE
  5
220
330
1EB
100
AcDbEntity
  8
1
  6
Continuous
 62
     7
100
AcDbLine
 10
568.7573598921426
 20
376.7573598921439
 30
0.0
 11
565.9289327673965
 21
379.5857870168902
 31
0.0
  0
LINE
  5
221
330
1EB
100
AcDbEntity
  8
1
  6
Continuous
 62
     7
100
AcDbLine
 10
571.5857870168888
 20
379.5857870168902
 30
0.0
 11
568.7573598921427
 21
382.4142141416364
 31
0.0
  0
LINE
  5
222
330
1EB
100
AcDbEntity
  8
1
  6
Continuous
 62
     7
100
AcDbLine
 10
574.4142141416351
 20
382.4142141416364
 30
0.0
 11
571.585787016889
 21
385.2426412663826
 31
0.0
  0
LINE
  5
223
330
1EB
100
AcDbEntity
  8
1
  6
Continuous
 62
     7
100
AcDbLine
 10
577.2426412663813
 20
385.2426412663826
 30
0.0
 11
574.4142141416352
 21
388.0710683911288
 31
0.0
  0
LINE
  5
224
330
1EB
100
AcDbEntity
  8
1
  6
Continuous
 62
     7
100
AcDbLine
 10
580.0710683911275
 20
388.0710683911288
 30
0.0
 11
577.2426412663814
 21
390.899495515875
 31
0.0
  0
LINE
  5
225
330
1EB
100
AcDbEntity
  8
1
  6
Continuous
 62
     7
100
AcDbLine
 10
580.0710683911276
 20
393.7279226406212
 30
0.0
 11
582.8994955158738
 21
390.899495515875
 31
0.0
  0
LINE
  5
226
330
1EB
100
AcDbEntity
  8
1
  6
Continuous
 62
     7
100
AcDbLine
 10
582.8994955158738
 20
396.5563497653674
 30
0.0
 11
585.72792264062
 21
393.7279226406212
 31
0.0
  0
LINE
  5
227
330
1EB
100
AcDbEntity
  8
1
  6
Continuous
 62
     7
100
AcDbLine
 10
554.38166435369
 20
373.6953728526763
 30
0.0
 11
580.3046271473252
 21
399.6183356463113
 31
0.0
  0
LINE
  5
228
330
1EB
100
AcDbEntity
  8
1
  6
Continuous
 62
     7
100
AcDbLine
 10
558.8578649555309
 20
372.5147192050246
 30
0.0
 11
556.0294378307848
 21
375.3431463297708
 31
0.0
  0
LINE
  5
229
330
1EB
100
AcDbEntity
  8
1
  6
Continuous
 62
     7
100
AcDbLine
 10
561.6862920802771
 20
375.3431463297708
 30
0.0
 11
558.857864955531
 21
378.171573454517
 31
0.0
  0
LINE
  5
22A
330
1EB
100
AcDbEntity
  8
1
  6
Continuous
 62
     7
100
AcDbLine
 10
564.5147192050233
 20
378.171573454517
 30
0.0
 11
561.6862920802772
 21
381.0000005792633
 31
0.0
  0
LINE
  5
22B
330
1EB
100
AcDbEntity
  8
1
  6
Continuous
 62
     7
100
AcDbLine
 10
567.3431463297695
 20
381.0000005792633
 30
0.0
 11
564.5147192050234
 21
383.8284277040095
 31
0.0
  0
LINE
  5
22C
330
1EB
100
AcDbEntity
  8
1
  6
Continuous
 62
     7
100
AcDbLine
 10
570.1715734545157
 20
383.8284277040095
 30
0.0
 11
567.3431463297696
 21
386.6568548287557
 31
0.0
  0
LINE
  5
22D
330
1EB
100
AcDbEntity
  8
1
  6
Continuous
 62
     7
100
AcDbLine
 10
573.000000579262
 20
386.6568548287557
 30
0.0
 11
570.1715734545159
 21
389.4852819535019
 31
0.0
  0
LINE
  5
22E
330
1EB
100
AcDbEntity
  8
1
  6
Continuous
 62
     7
100
AcDbLine
 10
575.8284277040082
 20
389.4852819535019
 30
0.0
 11
573.0000005792621
 21
392.3137090782481
 31
0.0
  0
LINE
  5
22F
330
1EB
100
AcDbEntity
  8
1
  6
Continuous
 62
     7
100
AcDbLine
 10
578.6568548287544
 20
392.3137090782481
 30
0.0
 11
575.8284277040083
 21
395.1421362029943
 31
0.0
  0
LINE
  5
230
330
1EB
100
AcDbEntity
  8
1
  6
Continuous
 62
     7
100
AcDbLine
 10
581.4852819535006
 20
395.1421362029943
 30
0.0
 11
578.6568548287545
 21
397.9705633277405
 31
0.0
  0
LINE
  5
231
330
1EB
100
AcDbEntity
  8
1
  6
Continuous
 62
     7
100
AcDbLine
 10
553.2010101267767
 20
378.1715728752552
 30
0.0
 11
575.8284271247462
 21
400.7989898732246
 31
0.0
  0
LINE
  5
232
330
1EB
100
AcDbEntity
  8
1
  6
Continuous
 62
     7
100
AcDbLine
 10
554.6152242684117
 20
373.9289327673977
 30
0.0
 11
554.1076633189115
 21
374.4364937168984
 31
0.0
  0
LINE
  5
233
330
1EB
100
AcDbEntity
  8
1
  6
Continuous
 62
     7
100
AcDbLine
 10
557.4436513931579
 20
376.7573598921439
 30
0.0
 11
554.6152242684118
 21
379.5857870168902
 31
0.0
  0
LINE
  5
234
330
1EB
100
AcDbEntity
  8
1
  6
Continuous
 62
     7
100
AcDbLine
 10
560.2720785179041
 20
379.5857870168902
 30
0.0
 11
557.443651393158
 21
382.4142141416364
 31
0.0
  0
LINE
  5
235
330
1EB
100
AcDbEntity
  8
1
  6
Continuous
 62
     7
100
AcDbLine
 10
563.1005056426503
 20
382.4142141416364
 30
0.0
 11
560.2720785179042
 21
385.2426412663826
 31
0.0
  0
LINE
  5
236
330
1EB
100
AcDbEntity
  8
1
  6
Continuous
 62
     7
100
AcDbLine
 10
565.9289327673965
 20
385.2426412663826
 30
0.0
 11
563.1005056426504
 21
388.0710683911288
 31
0.0
  0
LINE
  5
237
330
1EB
100
AcDbEntity
  8
1
  6
Continuous
 62
     7
100
AcDbLine
 10
568.7573598921427
 20
388.0710683911288
 30
0.0
 11
565.9289327673966
 21
390.899495515875
 31
0.0
  0
LINE
  5
238
330
1EB
100
AcDbEntity
  8
1
  6
Continuous
 62
     7
100
AcDbLine
 10
571.585787016889
 20
390.899495515875
 30
0.0
 11
568.7573598921429
 21
393.7279226406212
 31
0.0
  0
LINE
  5
239
330
1EB
100
AcDbEntity
  8
1
  6
Continuous
 62
     7
100
AcDbLine
 10
574.4142141416352
 20
393.7279226406212
 30
0.0
 11
571.5857870168891
 21
396.5563497653674
 31
0.0
  0
LINE
  5
23A
330
1EB
100
AcDbEntity
  8
1
  6
Continuous
 62
     7
100
AcDbLine
 10
577.2426412663814
 20
396.5563497653674
 30
0.0
 11
574.4142141416353
 21
399.3847768901136
 31
0.0
  0
LINE
  5
23B
330
1EB
100
AcDbEntity
  8
1
  6
Continuous
 62
     7
100
AcDbLine
 10
580.0710683911276
 20
399.3847768901136
 30
0.0
 11
579.5635098336822
 21
399.8923354475591
 31
0.0
  0
LINE
  5
23C
330
1EB
100
AcDbEntity
  8
1
  6
Continuous
 62
     7
100
AcDbLine
 10
553.2010101267766
 20
383.8284271247475
 30
0.0
 11
570.1715728752538
 21
400.7989898732246
 31
0.0
  0
LINE
  5
23D
330
1EB
100
AcDbEntity
  8
1
  6
Continuous
 62
     7
100
AcDbLine
 10
556.0294378307848
 20
381.0000005792632
 30
0.0
 11
553.2010107060387
 21
383.8284277040094
 31
0.0
  0
LINE
  5
23E
330
1EB
100
AcDbEntity
  8
1
  6
Continuous
 62
     7
100
AcDbLine
 10
558.857864955531
 20
383.8284277040094
 30
0.0
 11
556.0294378307849
 21
386.6568548287556
 31
0.0
  0
LINE
  5
23F
330
1EB
100
AcDbEntity
  8
1
  6
Continuous
 62
     7
100
AcDbLine
 10
561.6862920802772
 20
386.6568548287556
 30
0.0
 11
558.8578649555311
 21
389.4852819535018
 31
0.0
  0
LINE
  5
240
330
1EB
100
AcDbEntity
  8
1
  6
Continuous
 62
     7
100
AcDbLine
 10
564.5147192050234
 20
389.4852819535018
 30
0.0
 11
561.6862920802773
 21
392.3137090782481
 31
0.0
  0
LINE
  5
241
330
1EB
100
AcDbEntity
  8
1
  6
Continuous
 62
     7
100
AcDbLine
 10
567.3431463297696
 20
392.3137090782481
 30
0.0
 11
564.5147192050235
 21
395.1421362029943
 31
0.0
  0
LINE
  5
242
330
1EB
100
AcDbEntity
  8
1
  6
Continuous
 62
     7
100
AcDbLine
 10
570.1715734545159
 20
395.1421362029943
 30
0.0
 11
567.3431463297698
 21
397.9705633277405
 31
0.0
  0
LINE
  5
243
330
1EB
100
AcDbEntity
  8
1
  6
Continuous
 62
     7
100
AcDbLine
 10
573.0000005792621
 20
397.9705633277405
 30
0.0
 11
570.1715738889626
 21
400.7989900180403
 31
0.0
  0
LINE
  5
244
330
1EB
100
AcDbEntity
  8
1
  6
Continuous
 62
     7
100
AcDbLine
 10
554.6152242684117
 20
385.2426412663825
 30
0.0
 11
553.681483719045
 21
386.1763818157498
 31
0.0
  0
LINE
  5
245
330
1EB
100
AcDbEntity
  8
1
  6
Continuous
 62
     7
100
AcDbLine
 10
557.4436513931579
 20
388.0710683911287
 30
0.0
 11
555.2666221467414
 21
390.2480976375457
 31
0.0
  0
LINE
  5
246
330
1EB
100
AcDbEntity
  8
1
  6
Continuous
 62
     7
100
AcDbLine
 10
560.2720785179041
 20
390.8994955158749
 30
0.0
 11
557.5145396792019
 21
393.6570343545777
 31
0.0
  0
LINE
  5
247
330
1EB
100
AcDbEntity
  8
1
  6
Continuous
 62
     7
100
AcDbLine
 10
563.1005056426503
 20
393.7279226406211
 30
0.0
 11
560.3429669203842
 21
396.4854613628877
 31
0.0
  0
LINE
  5
248
330
1EB
100
AcDbEntity
  8
1
  6
Continuous
 62
     7
100
AcDbLine
 10
565.9289327673965
 20
396.5563497653673
 30
0.0
 11
563.7519038853202
 21
398.7333786474443
 31
0.0
  0
LINE
  5
249
330
1EB
100
AcDbEntity
  8
1
  6
Continuous
 62
     7
100
AcDbLine
 10
568.7573598921427
 20
399.3847768901135
 30
0.0
 11
567.8236200116502
 21
400.3185167706065
 31
0.0
  0
ENDBLK
  5
1ED
330
1EB
100
AcDbEntity
  8
0
100
AcDbBlockEnd
  0
BLOCK
  5
24C
330
24B
100
AcDbEntity
  8
0
100
AcDbBlockBegin
  2
Dim4
 70
     0
 10
0.0
 20
0.0
 30
0.0
  3
Dim4
  1

  0
LINE
  5
24E
330
24B
100
AcDbEntity
  8
1
  6
Continuous
 62
     7
100
AcDbLine
 10
420.0
 20
381.000000000002
 30
0.0
 11
420.0
 21
350.0000000000001
 31
0.0
  0
LINE
  5
24F
330
24B
100
AcDbEntity
  8
1
  6
Continuous
 62
     7
100
AcDbLine
 10
418.0
 20
381.000000000002
 30
0.0
 11
878.3206773618539
 21
381.0000000000005
 31
0.0
  0
LINE
  5
250
330
24B
100
AcDbEntity
  8
1
  6
Continuous
 62
     7
100
AcDbLine
 10
418.0
 20
350.0000000000001
 30
0.0
 11
448.0000000453807
 21
350.0
 31
0.0
  0
LINE
  5
251
330
24B
100
AcDbEntity
  8
1
  6
Continuous
 62
     7
100
AcDbLine
 10
420.0
 20
381.000000000002
 30
0.0
 11
422.0705523608201
 21
373.2725933896895
 31
0.0
  0
LINE
  5
252
330
24B
100
AcDbEntity
  8
1
  6
Continuous
 62
     7
100
AcDbLine
 10
420.0
 20
381.000000000002
 30
0.0
 11
417.9294476391798
 21
373.2725933896895
 31
0.0
  0
LINE
  5
253
330
24B
100
AcDbEntity
  8
1
  6
Continuous
 62
     7
100
AcDbLine
 10
422.0705523608201
 20
373.2725933896895
 30
0.0
 11
417.9294476391798
 21
373.2725933896895
 31
0.0
  0
LINE
  5
254
330
24B
100
AcDbEntity
  8
1
  6
Continuous
 62
     7
100
AcDbLine
 10
420.0
 20
379.0681483474239
 30
0.0
 11
421.0352761804101
 21
375.2044450422677
 31
0.0
  0
LINE
  5
255
330
24B
100
AcDbEntity
  8
1
  6
Continuous
 62
     7
100
AcDbLine
 10
420.0
 20
379.0681483474239
 30
0.0
 11
418.9647238195899
 21
375.2044450422677
 31
0.0
  0
LINE
  5
256
330
24B
100
AcDbEntity
  8
1
  6
Continuous
 62
     7
100
AcDbLine
 10
421.0352761804101
 20
375.2044450422677
 30
0.0
 11
418.9647238195899
 21
375.2044450422677
 31
0.0
  0
LINE
  5
257
330
24B
100
AcDbEntity
  8
1
  6
Continuous
 62
     7
100
AcDbLine
 10
420.0
 20
350.0000000000001
 30
0.0
 11
417.9294476391798
 21
357.7274066103126
 31
0.0
  0
LINE
  5
258
330
24B
100
AcDbEntity
  8
1
  6
Continuous
 62
     7
100
AcDbLine
 10
420.0
 20
350.0000000000001
 30
0.0
 11
422.0705523608202
 21
357.7274066103126
 31
0.0
  0
LINE
  5
259
330
24B
100
AcDbEntity
  8
1
  6
Continuous
 62
     7
100
AcDbLine
 10
417.9294476391798
 20
357.7274066103126
 30
0.0
 11
422.0705523608202
 21
357.7274066103126
 31
0.0
  0
LINE
  5
25A
330
24B
100
AcDbEntity
  8
1
  6
Continuous
 62
     7
100
AcDbLine
 10
420.0
 20
351.9318516525782
 30
0.0
 11
418.9647238195899
 21
355.7955549577345
 31
0.0
  0
LINE
  5
25B
330
24B
100
AcDbEntity
  8
1
  6
Continuous
 62
     7
100
AcDbLine
 10
420.0
 20
351.9318516525782
 30
0.0
 11
421.0352761804101
 21
355.7955549577345
 31
0.0
  0
LINE
  5
25C
330
24B
100
AcDbEntity
  8
1
  6
Continuous
 62
     7
100
AcDbLine
 10
418.9647238195899
 20
355.7955549577345
 30
0.0
 11
421.0352761804101
 21
355.7955549577345
 31
0.0
  0
MTEXT
  5
25D
330
24B
100
AcDbEntity
  8
1
  6
Continuous
 62
     7
100
AcDbMText
 10
414.0
 20
365.5000000000011
 30
0.0
 40
12.0
 41
0.0
 46
0.0
 71
     8
 72
     1
  1
31
 11
1.615544574432587E-15
 21
1.0
 31
0.0
 73
     1
 44
1.0
  0
ENDBLK
  5
24D
330
24B
100
AcDbEntity
  8
0
100
AcDbBlockEnd
  0
BLOCK
  5
262
330
261
100
AcDbEntity
  8
0
100
AcDbBlockBegin
  2
*G17
 70
     1
 10
0.0
 20
0.0
 30
0.0
  3
*G17
  1

  0
LINE
  5
264
330
261
100
AcDbEntity
  8
1
  6
Continuous
 62
     7
100
AcDbLine
 10
864.1715731814156
 20
361.2010101267772
 30
0.0
 11
847.2010104329385
 21
378.1715728752544
 31
0.0
  0
LINE
  5
265
330
261
100
AcDbEntity
  8
1
  6
Continuous
 62
     7
100
AcDbLine
 10
859.6953723267673
 20
362.381664680145
 30
0.0
 11
861.3431454774075
 21
364.0294378307854
 31
0.0
  0
LINE
  5
266
330
261
100
AcDbEntity
  8
1
  6
Continuous
 62
     7
100
AcDbLine
 10
858.5147183526612
 20
366.8578649555316
 30
0.0
 11
855.9720202728524
 21
364.3151668757257
 31
0.0
  0
LINE
  5
267
330
261
100
AcDbEntity
  8
1
  6
Continuous
 62
     7
100
AcDbLine
 10
855.686291227915
 20
369.6862920802778
 30
0.0
 11
852.8578641031688
 21
366.8578649555316
 31
0.0
  0
LINE
  5
268
330
261
100
AcDbEntity
  8
1
  6
Continuous
 62
     7
100
AcDbLine
 10
852.8578641031688
 20
372.514719205024
 30
0.0
 11
850.3151662598489
 21
369.9720213616966
 31
0.0
  0
LINE
  5
269
330
261
100
AcDbEntity
  8
1
  6
Continuous
 62
     7
100
AcDbLine
 10
850.0294369784226
 20
375.3431463297702
 30
0.0
 11
848.3816643334022
 21
373.6953736847526
 31
0.0
  0
LINE
  5
26A
330
261
100
AcDbEntity
  8
1
  6
Continuous
 62
     7
100
AcDbLine
 10
869.8284274309092
 20
361.2010101267763
 30
0.0
 11
847.2010104329376
 21
383.828427124748
 31
0.0
  0
LINE
  5
26B
330
261
100
AcDbEntity
  8
1
  6
Continuous
 62
     7
100
AcDbLine
 10
866.7999891573609
 20
361.0010001365001
 30
0.0
 11
868.414213289273
 21
362.6152242684122
 31
0.0
  0
LINE
  5
26C
330
261
100
AcDbEntity
  8
1
  6
Continuous
 62
     7
100
AcDbLine
 10
862.7573590397806
 20
362.6152242684122
 30
0.0
 11
865.5857861645268
 21
365.4436513931584
 31
0.0
  0
LINE
  5
26D
330
261
100
AcDbEntity
  8
1
  6
Continuous
 62
     7
100
AcDbLine
 10
859.9289319150344
 20
365.4436513931584
 30
0.0
 11
862.7573590397806
 21
368.2720785179046
 31
0.0
  0
LINE
  5
26E
330
261
100
AcDbEntity
  8
1
  6
Continuous
 62
     7
100
AcDbLine
 10
859.9289319150344
 20
371.1005056426508
 30
0.0
 11
857.1005047902881
 21
368.2720785179046
 31
0.0
  0
LINE
  5
26F
330
261
100
AcDbEntity
  8
1
  6
Continuous
 62
     7
100
AcDbLine
 10
857.1005047902881
 20
373.928932767397
 30
0.0
 11
854.2720776655419
 21
371.1005056426508
 31
0.0
  0
LINE
  5
270
330
261
100
AcDbEntity
  8
1
  6
Continuous
 62
     7
100
AcDbLine
 10
854.2720776655419
 20
376.7573598921433
 30
0.0
 11
851.4436505407957
 21
373.928932767397
 31
0.0
  0
LINE
  5
271
330
261
100
AcDbEntity
  8
1
  6
Continuous
 62
     7
100
AcDbLine
 10
851.4436505407957
 20
379.5857870168895
 30
0.0
 11
848.6152234160495
 21
376.7573598921433
 31
0.0
  0
LINE
  5
272
330
261
100
AcDbEntity
  8
1
  6
Continuous
 62
     7
100
AcDbLine
 10
848.6152234160495
 20
382.4142141416357
 30
0.0
 11
847.0010004197217
 21
380.7999911453002
 31
0.0
  0
LINE
  5
273
330
261
100
AcDbEntity
  8
1
  6
Continuous
 62
     7
100
AcDbLine
 10
874.3046274534862
 20
362.3816643536916
 30
0.0
 11
848.381664659853
 21
388.3046271473248
 31
0.0
  0
LINE
  5
274
330
261
100
AcDbEntity
  8
1
  6
Continuous
 62
     7
100
AcDbLine
 10
872.6568539763923
 20
364.0294378307853
 30
0.0
 11
869.8284268516461
 21
361.2010107060391
 31
0.0
  0
LINE
  5
275
330
261
100
AcDbEntity
  8
1
  6
Continuous
 62
     7
100
AcDbLine
 10
866.9999997268999
 20
364.0294378307853
 30
0.0
 11
869.8284268516461
 21
366.8578649555315
 31
0.0
  0
LINE
  5
276
330
261
100
AcDbEntity
  8
1
  6
Continuous
 62
     7
100
AcDbLine
 10
864.1715726021537
 20
366.8578649555315
 30
0.0
 11
866.9999997268999
 21
369.6862920802777
 31
0.0
  0
LINE
  5
277
330
261
100
AcDbEntity
  8
1
  6
Continuous
 62
     7
100
AcDbLine
 10
861.3431454774075
 20
369.6862920802777
 30
0.0
 11
864.1715726021537
 21
372.5147192050239
 31
0.0
  0
LINE
  5
278
330
261
100
AcDbEntity
  8
1
  6
Continuous
 62
     7
100
AcDbLine
 10
858.5147183526612
 20
372.5147192050239
 30
0.0
 11
861.3431454774075
 21
375.3431463297701
 31
0.0
  0
LINE
  5
279
330
261
100
AcDbEntity
  8
1
  6
Continuous
 62
     7
100
AcDbLine
 10
855.686291227915
 20
375.3431463297701
 30
0.0
 11
858.5147183526612
 21
378.1715734545164
 31
0.0
  0
LINE
  5
27A
330
261
100
AcDbEntity
  8
1
  6
Continuous
 62
     7
100
AcDbLine
 10
855.686291227915
 20
381.0000005792626
 30
0.0
 11
852.8578641031688
 21
378.1715734545164
 31
0.0
  0
LINE
  5
27B
330
261
100
AcDbEntity
  8
1
  6
Continuous
 62
     7
100
AcDbLine
 10
852.8578641031688
 20
383.8284277040088
 30
0.0
 11
850.0294369784226
 21
381.0000005792626
 31
0.0
  0
LINE
  5
27C
330
261
100
AcDbEntity
  8
1
  6
Continuous
 62
     7
100
AcDbLine
 10
850.0294369784226
 20
386.656854828755
 30
0.0
 11
847.2010106260262
 21
383.8284284763612
 31
0.0
  0
LINE
  5
27D
330
261
100
AcDbEntity
  8
1
  6
Continuous
 62
     7
100
AcDbLine
 10
878.0279796419693
 20
364.3151664147007
 30
0.0
 11
850.315166720862
 21
392.027979335808
 31
0.0
  0
LINE
  5
27E
330
261
100
AcDbEntity
  8
1
  6
Continuous
 62
     7
100
AcDbLine
 10
874.0710675387654
 20
362.6152242684121
 30
0.0
 11
876.8994946635116
 21
365.4436513931583
 31
0.0
  0
LINE
  5
27F
330
261
100
AcDbEntity
  8
1
  6
Continuous
 62
     7
100
AcDbLine
 10
871.2426404140192
 20
365.4436513931583
 30
0.0
 11
874.0710675387654
 21
368.2720785179046
 31
0.0
  0
LINE
  5
280
330
261
100
AcDbEntity
  8
1
  6
Continuous
 62
     7
100
AcDbLine
 10
868.414213289273
 20
368.2720785179046
 30
0.0
 11
871.2426404140192
 21
371.1005056426508
 31
0.0
  0
LINE
  5
281
330
261
100
AcDbEntity
  8
1
  6
Continuous
 62
     7
100
AcDbLine
 10
865.5857861645268
 20
371.1005056426508
 30
0.0
 11
868.414213289273
 21
373.928932767397
 31
0.0
  0
LINE
  5
282
330
261
100
AcDbEntity
  8
1
  6
Continuous
 62
     7
100
AcDbLine
 10
862.7573590397806
 20
373.928932767397
 30
0.0
 11
865.5857861645268
 21
376.7573598921432
 31
0.0
  0
LINE
  5
283
330
261
100
AcDbEntity
  8
1
  6
Continuous
 62
     7
100
AcDbLine
 10
859.9289319150344
 20
376.7573598921432
 30
0.0
 11
862.7573590397806
 21
379.5857870168894
 31
0.0
  0
LINE
  5
284
330
261
100
AcDbEntity
  8
1
  6
Continuous
 62
     7
100
AcDbLine
 10
857.1005047902881
 20
379.5857870168894
 30
0.0
 11
859.9289319150344
 21
382.4142141416356
 31
0.0
  0
LINE
  5
285
330
261
100
AcDbEntity
  8
1
  6
Continuous
 62
     7
100
AcDbLine
 10
857.1005047902881
 20
385.2426412663818
 30
0.0
 11
854.2720776655419
 21
382.4142141416356
 31
0.0
  0
LINE
  5
286
330
261
100
AcDbEntity
  8
1
  6
Continuous
 62
     7
100
AcDbLine
 10
854.2720776655419
 20
388.0710683911281
 30
0.0
 11
851.4436505407957
 21
385.2426412663818
 31
0.0
  0
LINE
  5
287
330
261
100
AcDbEntity
  8
1
  6
Continuous
 62
     7
100
AcDbLine
 10
851.4436505407957
 20
390.8994955158743
 30
0.0
 11
848.6152234160495
 21
388.0710683911281
 31
0.0
  0
LINE
  5
288
330
261
100
AcDbEntity
  8
1
  6
Continuous
 62
     7
100
AcDbLine
 10
881.1421359298927
 20
366.8578643762693
 30
0.0
 11
852.8578646824307
 21
395.1421356237312
 31
0.0
  0
LINE
  5
289
330
261
100
AcDbEntity
  8
1
  6
Continuous
 62
     7
100
AcDbLine
 10
875.4852811011385
 20
366.8578649555315
 30
0.0
 11
878.3137082258847
 21
369.6862920802777
 31
0.0
  0
LINE
  5
28A
330
261
100
AcDbEntity
  8
1
  6
Continuous
 62
     7
100
AcDbLine
 10
872.6568539763923
 20
369.6862920802777
 30
0.0
 11
875.4852811011385
 21
372.5147192050239
 31
0.0
  0
LINE
  5
28B
330
261
100
AcDbEntity
  8
1
  6
Continuous
 62
     7
100
AcDbLine
 10
869.8284268516461
 20
372.5147192050239
 30
0.0
 11
872.6568539763923
 21
375.3431463297701
 31
0.0
  0
LINE
  5
28C
330
261
100
AcDbEntity
  8
1
  6
Continuous
 62
     7
100
AcDbLine
 10
866.9999997268999
 20
375.3431463297701
 30
0.0
 11
869.8284268516461
 21
378.1715734545163
 31
0.0
  0
LINE
  5
28D
330
261
100
AcDbEntity
  8
1
  6
Continuous
 62
     7
100
AcDbLine
 10
864.1715726021537
 20
378.1715734545163
 30
0.0
 11
866.9999997268999
 21
381.0000005792625
 31
0.0
  0
LINE
  5
28E
330
261
100
AcDbEntity
  8
1
  6
Continuous
 62
     7
100
AcDbLine
 10
861.3431454774075
 20
381.0000005792625
 30
0.0
 11
864.1715726021537
 21
383.8284277040087
 31
0.0
  0
LINE
  5
28F
330
261
100
AcDbEntity
  8
1
  6
Continuous
 62
     7
100
AcDbLine
 10
858.5147183526612
 20
383.8284277040087
 30
0.0
 11
861.3431454774075
 21
386.6568548287549
 31
0.0
  0
LINE
  5
290
330
261
100
AcDbEntity
  8
1
  6
Continuous
 62
     7
100
AcDbLine
 10
855.686291227915
 20
386.6568548287549
 30
0.0
 11
858.5147183526612
 21
389.4852819535012
 31
0.0
  0
LINE
  5
291
330
261
100
AcDbEntity
  8
1
  6
Continuous
 62
     7
100
AcDbLine
 10
855.686291227915
 20
392.3137090782474
 30
0.0
 11
852.8578641031688
 21
389.4852819535012
 31
0.0
  0
LINE
  5
292
330
261
100
AcDbEntity
  8
1
  6
Continuous
 62
     7
100
AcDbLine
 10
883.684833891459
 20
369.9720206641956
 30
0.0
 11
855.9720209703569
 21
397.6848335852977
 31
0.0
  0
LINE
  5
293
330
261
100
AcDbEntity
  8
1
  6
Continuous
 62
     7
100
AcDbLine
 10
879.7279217882578
 20
368.2720785179045
 30
0.0
 11
882.556348913004
 21
371.1005056426507
 31
0.0
  0
LINE
  5
294
330
261
100
AcDbEntity
  8
1
  6
Continuous
 62
     7
100
AcDbLine
 10
876.8994946635116
 20
371.1005056426507
 30
0.0
 11
879.7279217882577
 21
373.9289327673969
 31
0.0
  0
LINE
  5
295
330
261
100
AcDbEntity
  8
1
  6
Continuous
 62
     7
100
AcDbLine
 10
874.0710675387654
 20
373.9289327673969
 30
0.0
 11
876.8994946635115
 21
376.7573598921431
 31
0.0
  0
LINE
  5
296
330
261
100
AcDbEntity
  8
1
  6
Continuous
 62
     7
100
AcDbLine
 10
871.2426404140192
 20
376.7573598921431
 30
0.0
 11
874.0710675387653
 21
379.5857870168894
 31
0.0
  0
LINE
  5
297
330
261
100
AcDbEntity
  8
1
  6
Continuous
 62
     7
100
AcDbLine
 10
868.414213289273
 20
379.5857870168894
 30
0.0
 11
871.2426404140191
 21
382.4142141416356
 31
0.0
  0
LINE
  5
298
330
261
100
AcDbEntity
  8
1
  6
Continuous
 62
     7
100
AcDbLine
 10
865.5857861645268
 20
382.4142141416356
 30
0.0
 11
868.4142132892729
 21
385.2426412663818
 31
0.0
  0
LINE
  5
299
330
261
100
AcDbEntity
  8
1
  6
Continuous
 62
     7
100
AcDbLine
 10
862.7573590397806
 20
385.2426412663818
 30
0.0
 11
865.5857861645267
 21
388.071068391128
 31
0.0
  0
LINE
  5
29A
330
261
100
AcDbEntity
  8
1
  6
Continuous
 62
     7
100
AcDbLine
 10
859.9289319150344
 20
388.071068391128
 30
0.0
 11
862.7573590397805
 21
390.8994955158742
 31
0.0
  0
LINE
  5
29B
330
261
100
AcDbEntity
  8
1
  6
Continuous
 62
     7
100
AcDbLine
 10
859.9289319150342
 20
393.7279226406204
 30
0.0
 11
857.100504790288
 21
390.8994955158742
 31
0.0
  0
LINE
  5
29C
330
261
100
AcDbEntity
  8
1
  6
Continuous
 62
     7
100
AcDbLine
 10
857.100504790288
 20
396.5563497653666
 30
0.0
 11
854.2720776655418
 21
393.7279226406204
 31
0.0
  0
LINE
  5
29D
330
261
100
AcDbEntity
  8
1
  6
Continuous
 62
     7
100
AcDbLine
 10
885.6183359524719
 20
373.6953728526755
 30
0.0
 11
859.6953731588367
 21
399.6183356463105
 31
0.0
  0
LINE
  5
29E
330
261
100
AcDbEntity
  8
1
  6
Continuous
 62
     7
100
AcDbLine
 10
881.142135350631
 20
372.5147192050238
 30
0.0
 11
883.970562475377
 21
375.34314632977
 31
0.0
  0
LINE
  5
29F
330
261
100
AcDbEntity
  8
1
  6
Continuous
 62
     7
100
AcDbLine
 10
878.3137082258847
 20
375.34314632977
 30
0.0
 11
881.1421353506308
 21
378.1715734545162
 31
0.0
  0
LINE
  5
2A0
330
261
100
AcDbEntity
  8
1
  6
Continuous
 62
     7
100
AcDbLine
 10
875.4852811011385
 20
378.1715734545162
 30
0.0
 11
878.3137082258846
 21
381.0000005792625
 31
0.0
  0
LINE
  5
2A1
330
261
100
AcDbEntity
  8
1
  6
Continuous
 62
     7
100
AcDbLine
 10
872.6568539763923
 20
381.0000005792625
 30
0.0
 11
875.4852811011384
 21
383.8284277040087
 31
0.0
  0
LINE
  5
2A2
330
261
100
AcDbEntity
  8
1
  6
Continuous
 62
     7
100
AcDbLine
 10
869.8284268516461
 20
383.8284277040087
 30
0.0
 11
872.6568539763922
 21
386.6568548287549
 31
0.0
  0
LINE
  5
2A3
330
261
100
AcDbEntity
  8
1
  6
Continuous
 62
     7
100
AcDbLine
 10
866.9999997268999
 20
386.6568548287549
 30
0.0
 11
869.828426851646
 21
389.4852819535011
 31
0.0
  0
LINE
  5
2A4
330
261
100
AcDbEntity
  8
1
  6
Continuous
 62
     7
100
AcDbLine
 10
864.1715726021537
 20
389.4852819535011
 30
0.0
 11
866.9999997268998
 21
392.3137090782473
 31
0.0
  0
LINE
  5
2A5
330
261
100
AcDbEntity
  8
1
  6
Continuous
 62
     7
100
AcDbLine
 10
861.3431454774075
 20
392.3137090782473
 30
0.0
 11
864.1715726021536
 21
395.1421362029935
 31
0.0
  0
LINE
  5
2A6
330
261
100
AcDbEntity
  8
1
  6
Continuous
 62
     7
100
AcDbLine
 10
858.5147183526612
 20
395.1421362029935
 30
0.0
 11
861.3431454774073
 21
397.9705633277397
 31
0.0
  0
LINE
  5
2A7
330
261
100
AcDbEntity
  8
1
  6
Continuous
 62
     7
100
AcDbLine
 10
886.7989901793851
 20
378.1715728752544
 30
0.0
 11
864.1715731814156
 21
400.7989898732238
 31
0.0
  0
LINE
  5
2A8
330
261
100
AcDbEntity
  8
1
  6
Continuous
 62
     7
100
AcDbLine
 10
885.3847760377502
 20
373.9289327673969
 30
0.0
 11
885.8923369872504
 21
374.4364937168976
 31
0.0
  0
LINE
  5
2A9
330
261
100
AcDbEntity
  8
1
  6
Continuous
 62
     7
100
AcDbLine
 10
882.556348913004
 20
376.7573598921431
 30
0.0
 11
885.38477603775
 21
379.5857870168894
 31
0.0
  0
LINE
  5
2AA
330
261
100
AcDbEntity
  8
1
  6
Continuous
 62
     7
100
AcDbLine
 10
879.7279217882577
 20
379.5857870168894
 30
0.0
 11
882.5563489130038
 21
382.4142141416356
 31
0.0
  0
LINE
  5
2AB
330
261
100
AcDbEntity
  8
1
  6
Continuous
 62
     7
100
AcDbLine
 10
876.8994946635115
 20
382.4142141416356
 30
0.0
 11
879.7279217882576
 21
385.2426412663818
 31
0.0
  0
LINE
  5
2AC
330
261
100
AcDbEntity
  8
1
  6
Continuous
 62
     7
100
AcDbLine
 10
874.0710675387653
 20
385.2426412663818
 30
0.0
 11
876.8994946635114
 21
388.071068391128
 31
0.0
  0
LINE
  5
2AD
330
261
100
AcDbEntity
  8
1
  6
Continuous
 62
     7
100
AcDbLine
 10
871.2426404140191
 20
388.071068391128
 30
0.0
 11
874.0710675387652
 21
390.8994955158742
 31
0.0
  0
LINE
  5
2AE
330
261
100
AcDbEntity
  8
1
  6
Continuous
 62
     7
100
AcDbLine
 10
868.4142132892729
 20
390.8994955158742
 30
0.0
 11
871.242640414019
 21
393.7279226406204
 31
0.0
  0
LINE
  5
2AF
330
261
100
AcDbEntity
  8
1
  6
Continuous
 62
     7
100
AcDbLine
 10
865.5857861645267
 20
393.7279226406204
 30
0.0
 11
868.4142132892728
 21
396.5563497653666
 31
0.0
  0
LINE
  5
2B0
330
261
100
AcDbEntity
  8
1
  6
Continuous
 62
     7
100
AcDbLine
 10
862.7573590397805
 20
396.5563497653666
 30
0.0
 11
865.5857861645266
 21
399.3847768901128
 31
0.0
  0
LINE
  5
2B1
330
261
100
AcDbEntity
  8
1
  6
Continuous
 62
     7
100
AcDbLine
 10
859.9289319150342
 20
399.3847768901128
 30
0.0
 11
860.4364904724796
 21
399.8923354475583
 31
0.0
  0
LINE
  5
2B2
330
261
100
AcDbEntity
  8
1
  6
Continuous
 62
     7
100
AcDbLine
 10
886.7989901793852
 20
383.8284271247467
 30
0.0
 11
869.828427430908
 21
400.7989898732238
 31
0.0
  0
LINE
  5
2B3
330
261
100
AcDbEntity
  8
1
  6
Continuous
 62
     7
100
AcDbLine
 10
883.970562475377
 20
381.0000005792624
 30
0.0
 11
886.7989896001232
 21
383.8284277040086
 31
0.0
  0
LINE
  5
2B4
330
261
100
AcDbEntity
  8
1
  6
Continuous
 62
     7
100
AcDbLine
 10
881.1421353506308
 20
383.8284277040086
 30
0.0
 11
883.9705624753769
 21
386.6568548287548
 31
0.0
  0
LINE
  5
2B5
330
261
100
AcDbEntity
  8
1
  6
Continuous
 62
     7
100
AcDbLine
 10
878.3137082258846
 20
386.6568548287548
 30
0.0
 11
881.1421353506307
 21
389.485281953501
 31
0.0
  0
LINE
  5
2B6
330
261
100
AcDbEntity
  8
1
  6
Continuous
 62
     7
100
AcDbLine
 10
875.4852811011384
 20
389.485281953501
 30
0.0
 11
878.3137082258845
 21
392.3137090782473
 31
0.0
  0
LINE
  5
2B7
330
261
100
AcDbEntity
  8
1
  6
Continuous
 62
     7
100
AcDbLine
 10
872.6568539763922
 20
392.3137090782473
 30
0.0
 11
875.4852811011383
 21
395.1421362029935
 31
0.0
  0
LINE
  5
2B8
330
261
100
AcDbEntity
  8
1
  6
Continuous
 62
     7
100
AcDbLine
 10
869.828426851646
 20
395.1421362029935
 30
0.0
 11
872.6568539763921
 21
397.9705633277397
 31
0.0
  0
LINE
  5
2B9
330
261
100
AcDbEntity
  8
1
  6
Continuous
 62
     7
100
AcDbLine
 10
866.9999997268998
 20
397.9705633277397
 30
0.0
 11
869.8284264171992
 21
400.7989900180395
 31
0.0
  0
LINE
  5
2BA
330
261
100
AcDbEntity
  8
1
  6
Continuous
 62
     7
100
AcDbLine
 10
885.3847760377502
 20
385.2426412663817
 30
0.0
 11
886.3185165871168
 21
386.176381815749
 31
0.0
  0
LINE
  5
2BB
330
261
100
AcDbEntity
  8
1
  6
Continuous
 62
     7
100
AcDbLine
 10
882.556348913004
 20
388.0710683911279
 30
0.0
 11
884.7333781594205
 21
390.2480976375449
 31
0.0
  0
LINE
  5
2BC
330
261
100
AcDbEntity
  8
1
  6
Continuous
 62
     7
100
AcDbLine
 10
879.7279217882577
 20
390.8994955158741
 30
0.0
 11
882.4854606269599
 21
393.6570343545769
 31
0.0
  0
LINE
  5
2BD
330
261
100
AcDbEntity
  8
1
  6
Continuous
 62
     7
100
AcDbLine
 10
876.8994946635115
 20
393.7279226406203
 30
0.0
 11
879.6570333857776
 21
396.485461362887
 31
0.0
  0
LINE
  5
2BE
330
261
100
AcDbEntity
  8
1
  6
Continuous
 62
     7
100
AcDbLine
 10
874.0710675387653
 20
396.5563497653665
 30
0.0
 11
876.2480964208416
 21
398.7333786474435
 31
0.0
  0
LINE
  5
2BF
330
261
100
AcDbEntity
  8
1
  6
Continuous
 62
     7
100
AcDbLine
 10
871.2426404140191
 20
399.3847768901127
 30
0.0
 11
872.1763802945117
 21
400.3185167706058
 31
0.0
  0
ENDBLK
  5
263
330
261
100
AcDbEntity
  8
0
100
AcDbBlockEnd
  0
BLOCK
  5
32B
330
32A
100
AcDbEntity
  8
0
100
AcDbBlockBegin
  2
Dim5
 70
     0
 10
0.0
 20
0.0
 30
0.0
  3
Dim5
  1

  0
ARC
  5
32D
330
32A
100
AcDbEntity
  8
1
  6
Continuous
 62
     7
100
AcDbCircle
 10
137.4999989153345
 20
350.0000000000003
 30
0.0
 40
48.06506013127726
100
AcDbArc
 50
65.92725835372048
 51
126.2703673335802
  0
LINE
  5
32E
330
32A
100
AcDbEntity
  8
1
  6
Continuous
 62
     7
100
AcDbLine
 10
142.0377679378249
 20
401.8669368554966
 30
0.0
 11
137.8486218890562
 21
353.9847787921283
 31
0.0
  0
LINE
  5
32F
330
32A
100
AcDbEntity
  8
1
  6
Continuous
 62
     7
100
AcDbLine
 10
137.4999989153345
 20
402.0650601312776
 30
0.0
 11
137.4999989153345
 21
354.0000000000003
 31
0.0
  0
LINE
  5
330
330
32A
100
AcDbEntity
  8
1
  6
Continuous
 62
     7
100
AcDbLine
 10
141.6891449641033
 20
397.8821580633686
 30
0.0
 11
146.6131837297594
 21
398.7503989483285
 31
0.0
  0
LINE
  5
331
330
32A
100
AcDbEntity
  8
1
  6
Continuous
 62
     7
100
AcDbLine
 10
141.6891449641033
 20
397.8821580633686
 30
0.0
 11
146.3876080668608
 21
396.1720573435201
 31
0.0
  0
LINE
  5
332
330
32A
100
AcDbEntity
  8
1
  6
Continuous
 62
     7
100
AcDbLine
 10
146.6131837297594
 20
398.7503989483285
 30
0.0
 11
146.3876080668608
 21
396.1720573435201
 31
0.0
  0
LINE
  5
333
330
32A
100
AcDbEntity
  8
1
  6
Continuous
 62
     7
100
AcDbLine
 10
142.891957697655
 20
397.7769255840075
 30
0.0
 11
145.353977080483
 21
398.2110460264875
 31
0.0
  0
LINE
  5
334
330
32A
100
AcDbEntity
  8
1
  6
Continuous
 62
     7
100
AcDbLine
 10
142.891957697655
 20
397.7769255840075
 30
0.0
 11
145.2411892490337
 21
396.9218752240833
 31
0.0
  0
LINE
  5
335
330
32A
100
AcDbEntity
  8
1
  6
Continuous
 62
     7
100
AcDbLine
 10
145.353977080483
 20
398.2110460264875
 30
0.0
 11
145.2411892490337
 21
396.9218752240833
 31
0.0
  0
LINE
  5
336
330
32A
100
AcDbEntity
  8
1
  6
Continuous
 62
     7
100
AcDbLine
 10
137.4999989153345
 20
398.0650601312776
 30
0.0
 11
132.6703697838892
 21
396.770964905765
 31
0.0
  0
LINE
  5
337
330
32A
100
AcDbEntity
  8
1
  6
Continuous
 62
     7
100
AcDbLine
 10
137.4999989153345
 20
398.0650601312776
 30
0.0
 11
132.6703697838892
 21
399.3591553567902
 31
0.0
  0
LINE
  5
338
330
32A
100
AcDbEntity
  8
1
  6
Continuous
 62
     7
100
AcDbLine
 10
132.6703697838892
 20
396.770964905765
 30
0.0
 11
132.6703697838892
 21
399.3591553567902
 31
0.0
  0
LINE
  5
339
330
32A
100
AcDbEntity
  8
1
  6
Continuous
 62
     7
100
AcDbLine
 10
136.2925916324732
 20
398.0650601312776
 30
0.0
 11
133.8777770667505
 21
397.4180125185213
 31
0.0
  0
LINE
  5
33A
330
32A
100
AcDbEntity
  8
1
  6
Continuous
 62
     7
100
AcDbLine
 10
136.2925916324732
 20
398.0650601312776
 30
0.0
 11
133.8777770667505
 21
398.7121077440339
 31
0.0
  0
LINE
  5
33B
330
32A
100
AcDbEntity
  8
1
  6
Continuous
 62
     7
100
AcDbLine
 10
133.8777770667505
 20
397.4180125185213
 30
0.0
 11
133.8777770667505
 21
398.7121077440339
 31
0.0
  0
MTEXT
  5
33C
330
32A
100
AcDbEntity
  8
1
  6
Continuous
 62
     7
100
AcDbMText
 10
116.3339061407907
 20
399.2971823081886
 30
0.0
 40
11.0
 41
0.0
 46
0.0
 71
     8
 72
     1
  1
3.5ﾟ
 11
0.9395073635699521
 21
0.3425287050713235
 31
0.0
 73
     1
 44
1.0
  0
ENDBLK
  5
32C
330
32A
100
AcDbEntity
  8
0
100
AcDbBlockEnd
  0
BLOCK
  5
33F
330
33E
100
AcDbEntity
  8
0
100
AcDbBlockBegin
  2
Dim6
 70
     0
 10
0.0
 20
0.0
 30
0.0
  3
Dim6
  1

  0
LINE
  5
341
330
33E
100
AcDbEntity
  8
1
  6
Continuous
 62
     7
100
AcDbLine
 10
125.0000000000007
 20
338.0000000000006
 30
0.0
 11
224.1202916135154
 21
429.6524292665044
 31
0.0
  0
LINE
  5
342
330
33E
100
AcDbEntity
  8
1
  6
Continuous
 62
     7
100
AcDbLine
 10
224.1202916135154
 20
429.6524292665044
 30
0.0
 11
221.4528303040815
 21
425.4234045370102
 31
0.0
  0
LINE
  5
343
330
33E
100
AcDbEntity
  8
1
  6
Continuous
 62
     7
100
AcDbLine
 10
224.1202916135154
 20
429.6524292665044
 30
0.0
 11
219.6956899911864
 21
427.3237170722468
 31
0.0
  0
LINE
  5
344
330
33E
100
AcDbEntity
  8
1
  6
Continuous
 62
     7
100
AcDbLine
 10
221.4528303040815
 20
425.4234045370102
 30
0.0
 11
219.6956899911864
 21
427.3237170722468
 31
0.0
  0
LINE
  5
345
330
33E
100
AcDbEntity
  8
1
  6
Continuous
 62
     7
100
AcDbLine
 10
223.233783747045
 20
428.8327121510354
 30
0.0
 11
221.9000530923281
 21
426.7181997862883
 31
0.0
  0
LINE
  5
346
330
33E
100
AcDbEntity
  8
1
  6
Continuous
 62
     7
100
AcDbLine
 10
223.233783747045
 20
428.8327121510354
 30
0.0
 11
221.0214829358805
 21
427.6683560539066
 31
0.0
  0
LINE
  5
347
330
33E
100
AcDbEntity
  8
1
  6
Continuous
 62
     7
100
AcDbLine
 10
221.9000530923281
 20
426.7181997862883
 30
0.0
 11
221.0214829358805
 21
427.6683560539066
 31
0.0
  0
MTEXT
  5
348
330
33E
100
AcDbEntity
  8
1
  6
Continuous
 62
     7
100
AcDbMText
 10
170.8261579477523
 20
387.8644487360253
 30
0.0
 40
11.0
 41
0.0
 46
0.0
 71
     8
 72
     1
  1
R135
 11
0.7342243823223381
 21
0.6789068834555894
 31
0.0
 73
     1
 44
1.0
  0
ENDBLK
  5
340
330
33E
100
AcDbEntity
  8
0
100
AcDbBlockEnd
  0
BLOCK
  5
39E
330
39D
100
AcDbEntity
  8
0
100
AcDbBlockBegin
  2
Dim7
 70
     0
 10
0.0
 20
0.0
 30
0.0
  3
Dim7
  1

  0
LINE
  5
3A0
330
39D
100
AcDbEntity
  8
1
  6
Continuous
 62
     7
100
AcDbLine
 10
89.9999999999995
 20
342.0000000000002
 30
0.0
 11
89.99999999999953
 21
370.0000000000002
 31
0.0
  0
LINE
  5
3A1
330
39D
100
AcDbEntity
  8
1
  6
Continuous
 62
     7
100
AcDbLine
 10
87.99999999999952
 20
350.0000000000002
 30
0.0
 11
135.9777629341777
 21
350.0
 31
0.0
  0
LINE
  5
3A2
330
39D
100
AcDbEntity
  8
1
  6
Continuous
 62
     7
100
AcDbLine
 10
87.99999999999952
 20
362.0000000000002
 30
0.0
 11
148.9555258683554
 21
361.9999999999999
 31
0.0
  0
CIRCLE
  5
3A3
330
39D
100
AcDbEntity
  8
1
  6
Continuous
 62
     7
100
AcDbCircle
 10
89.99999999999952
 20
350.0000000000002
 30
0.0
 40
1.2
  0
CIRCLE
  5
3A4
330
39D
100
AcDbEntity
  8
1
  6
Continuous
 62
     7
100
AcDbCircle
 10
89.99999999999952
 20
350.0000000000002
 30
0.0
 40
0.6
  0
LINE
  5
3A5
330
39D
100
AcDbEntity
  8
1
  6
Continuous
 62
     7
100
AcDbLine
 10
89.99999999999952
 20
362.0000000000002
 30
0.0
 11
87.92944763917936
 21
369.7274066103127
 31
0.0
  0
LINE
  5
3A6
330
39D
100
AcDbEntity
  8
1
  6
Continuous
 62
     7
100
AcDbLine
 10
89.99999999999952
 20
362.0000000000002
 30
0.0
 11
92.07055236081969
 21
369.7274066103127
 31
0.0
  0
LINE
  5
3A7
330
39D
100
AcDbEntity
  8
1
  6
Continuous
 62
     7
100
AcDbLine
 10
87.92944763917936
 20
369.7274066103127
 30
0.0
 11
92.07055236081969
 21
369.7274066103127
 31
0.0
  0
LINE
  5
3A8
330
39D
100
AcDbEntity
  8
1
  6
Continuous
 62
     7
100
AcDbLine
 10
89.99999999999952
 20
363.9318516525783
 30
0.0
 11
88.96472381958944
 21
367.7955549577346
 31
0.0
  0
LINE
  5
3A9
330
39D
100
AcDbEntity
  8
1
  6
Continuous
 62
     7
100
AcDbLine
 10
89.99999999999952
 20
363.9318516525783
 30
0.0
 11
91.03527618040961
 21
367.7955549577346
 31
0.0
  0
LINE
  5
3AA
330
39D
100
AcDbEntity
  8
1
  6
Continuous
 62
     7
100
AcDbLine
 10
88.96472381958944
 20
367.7955549577346
 30
0.0
 11
91.03527618040961
 21
367.7955549577346
 31
0.0
  0
MTEXT
  5
3AB
330
39D
100
AcDbEntity
  8
1
  6
Continuous
 62
     7
100
AcDbMText
 10
83.99999999999952
 20
356.0000000000002
 30
0.0
 40
12.0
 41
0.0
 46
0.0
 71
     8
 72
     1
  1
12
 11
1.615544574432587E-15
 21
1.0
 31
0.0
 73
     1
 44
1.0
  0
ENDBLK
  5
39F
330
39D
100
AcDbEntity
  8
0
100
AcDbBlockEnd
  0
BLOCK
  5
3AE
330
3AD
100
AcDbEntity
  8
0
100
AcDbBlockBegin
  2
Dim8
 70
     0
 10
0.0
 20
0.0
 30
0.0
  3
Dim8
  1

  0
LINE
  5
3B0
330
3AD
100
AcDbEntity
  8
1
  6
Continuous
 62
     7
100
AcDbLine
 10
89.9999999999995
 20
358.0000000000002
 30
0.0
 11
89.99999999999953
 21
330.0
 31
0.0
  0
LINE
  5
3B1
330
3AD
100
AcDbEntity
  8
1
  6
Continuous
 62
     7
100
AcDbLine
 10
87.99999999999952
 20
350.0000000000002
 30
0.0
 11
135.4999989153345
 21
350.0
 31
0.0
  0
LINE
  5
3B2
330
3AD
100
AcDbEntity
  8
1
  6
Continuous
 62
     7
100
AcDbLine
 10
87.99999999999952
 20
338.0
 30
0.0
 11
122.9999999999995
 21
338.0
 31
0.0
  0
CIRCLE
  5
3B3
330
3AD
100
AcDbEntity
  8
1
  6
Continuous
 62
     7
100
AcDbCircle
 10
89.99999999999952
 20
350.0000000000002
 30
0.0
 40
1.2
  0
CIRCLE
  5
3B4
330
3AD
100
AcDbEntity
  8
1
  6
Continuous
 62
     7
100
AcDbCircle
 10
89.99999999999952
 20
350.0000000000002
 30
0.0
 40
0.6
  0
LINE
  5
3B5
330
3AD
100
AcDbEntity
  8
1
  6
Continuous
 62
     7
100
AcDbLine
 10
89.99999999999952
 20
338.0
 30
0.0
 11
92.07055236081965
 21
330.2725933896875
 31
0.0
  0
LINE
  5
3B6
330
3AD
100
AcDbEntity
  8
1
  6
Continuous
 62
     7
100
AcDbLine
 10
89.99999999999952
 20
338.0
 30
0.0
 11
87.92944763917932
 21
330.2725933896875
 31
0.0
  0
LINE
  5
3B7
330
3AD
100
AcDbEntity
  8
1
  6
Continuous
 62
     7
100
AcDbLine
 10
92.07055236081965
 20
330.2725933896875
 30
0.0
 11
87.92944763917932
 21
330.2725933896875
 31
0.0
  0
LINE
  5
3B8
330
3AD
100
AcDbEntity
  8
1
  6
Continuous
 62
     7
100
AcDbLine
 10
89.9999999999995
 20
336.0681483474219
 30
0.0
 11
91.03527618040957
 21
332.2044450422656
 31
0.0
  0
LINE
  5
3B9
330
3AD
100
AcDbEntity
  8
1
  6
Continuous
 62
     7
100
AcDbLine
 10
89.9999999999995
 20
336.0681483474219
 30
0.0
 11
88.96472381958941
 21
332.2044450422656
 31
0.0
  0
LINE
  5
3BA
330
3AD
100
AcDbEntity
  8
1
  6
Continuous
 62
     7
100
AcDbLine
 10
91.03527618040957
 20
332.2044450422656
 30
0.0
 11
88.96472381958941
 21
332.2044450422656
 31
0.0
  0
MTEXT
  5
3BB
330
3AD
100
AcDbEntity
  8
1
  6
Continuous
 62
     7
100
AcDbMText
 10
83.99999999999952
 20
344.0000000000001
 30
0.0
 40
12.0
 41
0.0
 46
0.0
 71
     8
 72
     1
  1
12
 11
1.615544574432587E-15
 21
1.0
 31
0.0
 73
     1
 44
1.0
  0
ENDBLK
  5
3AF
330
3AD
100
AcDbEntity
  8
0
100
AcDbBlockEnd
  0
BLOCK
  5
3CE
330
3CD
100
AcDbEntity
  8
0
100
AcDbBlockBegin
  2
*G22
 70
     1
 10
0.0
 20
0.0
 30
0.0
  3
*G22
  1

  0
LINE
  5
3D0
330
3CD
100
AcDbEntity
  8
1
  6
Continuous
 62
     7
100
AcDbLine
 10
485.4848283425783
 20
613.0000000000001
 30
0.0
 11
474.5151732279753
 21
613.0
 31
0.0
  0
LINE
  5
3D1
330
3CD
100
AcDbEntity
  8
1
  6
Continuous
 62
     7
100
AcDbLine
 10
474.5151732279753
 20
613.0
 30
0.0
 11
469.0303456706739
 21
622.5000000000001
 31
0.0
  0
LINE
  5
3D2
330
3CD
100
AcDbEntity
  8
1
  6
Continuous
 62
     7
100
AcDbLine
 10
469.0303456706739
 20
622.5000000000001
 30
0.0
 11
474.5151732279753
 21
632.0000000000001
 31
0.0
  0
LINE
  5
3D3
330
3CD
100
AcDbEntity
  8
1
  6
Continuous
 62
     7
100
AcDbLine
 10
474.5151732279753
 20
632.0000000000001
 30
0.0
 11
485.4848283425782
 21
632.0000000000001
 31
0.0
  0
LINE
  5
3D4
330
3CD
100
AcDbEntity
  8
1
  6
Continuous
 62
     7
100
AcDbLine
 10
485.4848283425782
 20
632.0000000000001
 30
0.0
 11
490.9696558998797
 21
622.5000000000001
 31
0.0
  0
LINE
  5
3D5
330
3CD
100
AcDbEntity
  8
1
  6
Continuous
 62
     7
100
AcDbLine
 10
490.9696558998797
 20
622.5000000000001
 30
0.0
 11
485.4848283425783
 21
613.0000000000001
 31
0.0
  0
ENDBLK
  5
3CF
330
3CD
100
AcDbEntity
  8
0
100
AcDbBlockEnd
  0
BLOCK
  5
3DE
330
3DD
100
AcDbEntity
  8
0
100
AcDbBlockBegin
  2
*G23
 70
     1
 10
0.0
 20
0.0
 30
0.0
  3
*G23
  1

  0
LINE
  5
3E0
330
3DD
100
AcDbEntity
  8
1
  6
Continuous
 62
     7
100
AcDbLine
 10
965.4848286487404
 20
613.0000000000001
 30
0.0
 11
954.5151735341374
 21
613.0
 31
0.0
  0
LINE
  5
3E1
330
3DD
100
AcDbEntity
  8
1
  6
Continuous
 62
     7
100
AcDbLine
 10
954.5151735341374
 20
613.0
 30
0.0
 11
949.0303459768359
 21
622.5000000000001
 31
0.0
  0
LINE
  5
3E2
330
3DD
100
AcDbEntity
  8
1
  6
Continuous
 62
     7
100
AcDbLine
 10
949.0303459768359
 20
622.5000000000001
 30
0.0
 11
954.5151735341374
 21
632.0000000000001
 31
0.0
  0
LINE
  5
3E3
330
3DD
100
AcDbEntity
  8
1
  6
Continuous
 62
     7
100
AcDbLine
 10
954.5151735341374
 20
632.0000000000001
 30
0.0
 11
965.4848286487402
 21
632.0000000000001
 31
0.0
  0
LINE
  5
3E4
330
3DD
100
AcDbEntity
  8
1
  6
Continuous
 62
     7
100
AcDbLine
 10
965.4848286487402
 20
632.0000000000001
 30
0.0
 11
970.9696562060417
 21
622.5000000000001
 31
0.0
  0
LINE
  5
3E5
330
3DD
100
AcDbEntity
  8
1
  6
Continuous
 62
     7
100
AcDbLine
 10
970.9696562060417
 20
622.5000000000001
 30
0.0
 11
965.4848286487404
 21
613.0000000000001
 31
0.0
  0
ENDBLK
  5
3DF
330
3DD
100
AcDbEntity
  8
0
100
AcDbBlockEnd
  0
BLOCK
  5
4FD
330
4FC
100
AcDbEntity
  8
0
100
AcDbBlockBegin
  2
Dim9
 70
     0
 10
0.0
 20
0.0
 30
0.0
  3
Dim9
  1

  0
LINE
  5
4FF
330
4FC
100
AcDbEntity
  8
1
  6
Continuous
 62
     7
100
AcDbLine
 10
480.0000000000002
 20
710.0
 30
0.0
 11
960.0000003061621
 21
710.0
 31
0.0
  0
LINE
  5
500
330
4FC
100
AcDbEntity
  8
1
  6
Continuous
 62
     7
100
AcDbLine
 10
480.0000000000002
 20
714.0
 30
0.0
 11
479.9999999999999
 21
545.50000243998
 31
0.0
  0
LINE
  5
501
330
4FC
100
AcDbEntity
  8
1
  6
Continuous
 62
     7
100
AcDbLine
 10
960.0000003061621
 20
714.0
 30
0.0
 11
960.0000003061618
 21
545.50000243998
 31
0.0
  0
LINE
  5
502
330
4FC
100
AcDbEntity
  8
1
  6
Continuous
 62
     7
100
AcDbLine
 10
480.0000000000002
 20
710.0
 30
0.0
 11
487.7274066103127
 21
712.0705523608202
 31
0.0
  0
LINE
  5
503
330
4FC
100
AcDbEntity
  8
1
  6
Continuous
 62
     7
100
AcDbLine
 10
480.0000000000002
 20
710.0
 30
0.0
 11
487.7274066103127
 21
707.9294476391798
 31
0.0
  0
LINE
  5
504
330
4FC
100
AcDbEntity
  8
1
  6
Continuous
 62
     7
100
AcDbLine
 10
487.7274066103127
 20
712.0705523608202
 30
0.0
 11
487.7274066103127
 21
707.9294476391798
 31
0.0
  0
LINE
  5
505
330
4FC
100
AcDbEntity
  8
1
  6
Continuous
 62
     7
100
AcDbLine
 10
481.9318516525783
 20
710.0
 30
0.0
 11
485.7955549577346
 21
711.03527618041
 31
0.0
  0
LINE
  5
506
330
4FC
100
AcDbEntity
  8
1
  6
Continuous
 62
     7
100
AcDbLine
 10
481.9318516525783
 20
710.0
 30
0.0
 11
485.7955549577346
 21
708.96472381959
 31
0.0
  0
LINE
  5
507
330
4FC
100
AcDbEntity
  8
1
  6
Continuous
 62
     7
100
AcDbLine
 10
485.7955549577346
 20
711.03527618041
 30
0.0
 11
485.7955549577346
 21
708.96472381959
 31
0.0
  0
LINE
  5
508
330
4FC
100
AcDbEntity
  8
1
  6
Continuous
 62
     7
100
AcDbLine
 10
960.0000003061621
 20
710.0
 30
0.0
 11
952.2725936958495
 21
707.9294476391799
 31
0.0
  0
LINE
  5
509
330
4FC
100
AcDbEntity
  8
1
  6
Continuous
 62
     7
100
AcDbLine
 10
960.0000003061621
 20
710.0
 30
0.0
 11
952.2725936958495
 21
712.0705523608202
 31
0.0
  0
LINE
  5
50A
330
4FC
100
AcDbEntity
  8
1
  6
Continuous
 62
     7
100
AcDbLine
 10
952.2725936958495
 20
707.9294476391799
 30
0.0
 11
952.2725936958495
 21
712.0705523608202
 31
0.0
  0
LINE
  5
50B
330
4FC
100
AcDbEntity
  8
1
  6
Continuous
 62
     7
100
AcDbLine
 10
958.0681486535839
 20
710.0
 30
0.0
 11
954.2044453484276
 21
708.96472381959
 31
0.0
  0
LINE
  5
50C
330
4FC
100
AcDbEntity
  8
1
  6
Continuous
 62
     7
100
AcDbLine
 10
958.0681486535839
 20
710.0
 30
0.0
 11
954.2044453484276
 21
711.03527618041
 31
0.0
  0
LINE
  5
50D
330
4FC
100
AcDbEntity
  8
1
  6
Continuous
 62
     7
100
AcDbLine
 10
954.2044453484276
 20
708.96472381959
 30
0.0
 11
954.2044453484276
 21
711.03527618041
 31
0.0
  0
MTEXT
  5
50E
330
4FC
100
AcDbEntity
  8
1
  6
Continuous
 62
     7
100
AcDbMText
 10
720.0000001530811
 20
716.0
 30
0.0
 40
12.0
 41
0.0
 46
0.0
 71
     8
 72
     1
  1
480
 73
     1
 44
1.0
  0
ENDBLK
  5
4FE
330
4FC
100
AcDbEntity
  8
0
100
AcDbBlockEnd
  0
BLOCK
  5
511
330
510
100
AcDbEntity
  8
0
100
AcDbBlockBegin
  2
Dim10
 70
     0
 10
0.0
 20
0.0
 30
0.0
  3
Dim10
  1

  0
LINE
  5
513
330
510
100
AcDbEntity
  8
1
  6
Continuous
 62
     7
100
AcDbLine
 10
450.0000000453809
 20
490.0
 30
0.0
 11
990.0000002607812
 21
490.0
 31
0.0
  0
LINE
  5
514
330
510
100
AcDbEntity
  8
1
  6
Continuous
 62
     7
100
AcDbLine
 10
450.0000000453809
 20
492.0
 30
0.0
 11
450.0000000453807
 21
352.0
 31
0.0
  0
LINE
  5
515
330
510
100
AcDbEntity
  8
1
  6
Continuous
 62
     7
100
AcDbLine
 10
990.0000002607812
 20
492.0
 30
0.0
 11
990.000000260781
 21
352.0
 31
0.0
  0
LINE
  5
516
330
510
100
AcDbEntity
  8
1
  6
Continuous
 62
     7
100
AcDbLine
 10
450.0000000453809
 20
490.0
 30
0.0
 11
457.7274066556935
 21
492.0705523608202
 31
0.0
  0
LINE
  5
517
330
510
100
AcDbEntity
  8
1
  6
Continuous
 62
     7
100
AcDbLine
 10
450.0000000453809
 20
490.0
 30
0.0
 11
457.7274066556935
 21
487.9294476391798
 31
0.0
  0
LINE
  5
518
330
510
100
AcDbEntity
  8
1
  6
Continuous
 62
     7
100
AcDbLine
 10
457.7274066556935
 20
492.0705523608202
 30
0.0
 11
457.7274066556935
 21
487.9294476391798
 31
0.0
  0
LINE
  5
519
330
510
100
AcDbEntity
  8
1
  6
Continuous
 62
     7
100
AcDbLine
 10
451.9318516979591
 20
490.0
 30
0.0
 11
455.7955550031153
 21
491.0352761804101
 31
0.0
  0
LINE
  5
51A
330
510
100
AcDbEntity
  8
1
  6
Continuous
 62
     7
100
AcDbLine
 10
451.9318516979591
 20
490.0
 30
0.0
 11
455.7955550031153
 21
488.9647238195899
 31
0.0
  0
LINE
  5
51B
330
510
100
AcDbEntity
  8
1
  6
Continuous
 62
     7
100
AcDbLine
 10
455.7955550031153
 20
491.0352761804101
 30
0.0
 11
455.7955550031153
 21
488.9647238195899
 31
0.0
  0
LINE
  5
51C
330
510
100
AcDbEntity
  8
1
  6
Continuous
 62
     7
100
AcDbLine
 10
990.0000002607812
 20
490.0
 30
0.0
 11
982.2725936504687
 21
487.9294476391798
 31
0.0
  0
LINE
  5
51D
330
510
100
AcDbEntity
  8
1
  6
Continuous
 62
     7
100
AcDbLine
 10
990.0000002607812
 20
490.0
 30
0.0
 11
982.2725936504687
 21
492.0705523608202
 31
0.0
  0
LINE
  5
51E
330
510
100
AcDbEntity
  8
1
  6
Continuous
 62
     7
100
AcDbLine
 10
982.2725936504687
 20
487.9294476391798
 30
0.0
 11
982.2725936504687
 21
492.0705523608202
 31
0.0
  0
LINE
  5
51F
330
510
100
AcDbEntity
  8
1
  6
Continuous
 62
     7
100
AcDbLine
 10
988.068148608203
 20
490.0
 30
0.0
 11
984.2044453030468
 21
488.9647238195899
 31
0.0
  0
LINE
  5
520
330
510
100
AcDbEntity
  8
1
  6
Continuous
 62
     7
100
AcDbLine
 10
988.068148608203
 20
490.0
 30
0.0
 11
984.2044453030468
 21
491.0352761804101
 31
0.0
  0
LINE
  5
521
330
510
100
AcDbEntity
  8
1
  6
Continuous
 62
     7
100
AcDbLine
 10
984.2044453030468
 20
488.9647238195899
 30
0.0
 11
984.2044453030468
 21
491.0352761804101
 31
0.0
  0
MTEXT
  5
522
330
510
100
AcDbEntity
  8
1
  6
Continuous
 62
     7
100
AcDbMText
 10
720.0000001530811
 20
496.0
 30
0.0
 40
12.0
 41
0.0
 46
0.0
 71
     8
 72
     1
  1
540
 73
     1
 44
1.0
  0
ENDBLK
  5
512
330
510
100
AcDbEntity
  8
0
100
AcDbBlockEnd
  0
BLOCK
  5
525
330
524
100
AcDbEntity
  8
0
100
AcDbBlockBegin
  2
Dim11
 70
     0
 10
0.0
 20
0.0
 30
0.0
  3
Dim11
  1

  0
LINE
  5
527
330
524
100
AcDbEntity
  8
1
  6
Continuous
 62
     7
100
AcDbLine
 10
242.4999999999989
 20
290.0
 30
0.0
 11
137.4999989153339
 21
290.0
 31
0.0
  0
LINE
  5
528
330
524
100
AcDbEntity
  8
1
  6
Continuous
 62
     7
100
AcDbLine
 10
242.4999999999988
 20
288.0
 30
0.0
 11
242.4999999999995
 21
348.0
 31
0.0
  0
LINE
  5
529
330
524
100
AcDbEntity
  8
1
  6
Continuous
 62
     7
100
AcDbLine
 10
137.4999989153339
 20
288.0
 30
0.0
 11
137.4999989153345
 21
348.0
 31
0.0
  0
LINE
  5
52A
330
524
100
AcDbEntity
  8
1
  6
Continuous
 62
     7
100
AcDbLine
 10
242.4999999999989
 20
290.0
 30
0.0
 11
234.7725933896863
 21
287.9294476391798
 31
0.0
  0
LINE
  5
52B
330
524
100
AcDbEntity
  8
1
  6
Continuous
 62
     7
100
AcDbLine
 10
242.4999999999989
 20
290.0
 30
0.0
 11
234.7725933896863
 21
292.0705523608202
 31
0.0
  0
LINE
  5
52C
330
524
100
AcDbEntity
  8
1
  6
Continuous
 62
     7
100
AcDbLine
 10
234.7725933896863
 20
287.9294476391798
 30
0.0
 11
234.7725933896863
 21
292.0705523608202
 31
0.0
  0
LINE
  5
52D
330
524
100
AcDbEntity
  8
1
  6
Continuous
 62
     7
100
AcDbLine
 10
240.5681483474207
 20
290.0
 30
0.0
 11
236.7044450422645
 21
288.9647238195899
 31
0.0
  0
LINE
  5
52E
330
524
100
AcDbEntity
  8
1
  6
Continuous
 62
     7
100
AcDbLine
 10
240.5681483474207
 20
290.0
 30
0.0
 11
236.7044450422645
 21
291.0352761804101
 31
0.0
  0
LINE
  5
52F
330
524
100
AcDbEntity
  8
1
  6
Continuous
 62
     7
100
AcDbLine
 10
236.7044450422645
 20
288.9647238195899
 30
0.0
 11
236.7044450422645
 21
291.0352761804101
 31
0.0
  0
LINE
  5
530
330
524
100
AcDbEntity
  8
1
  6
Continuous
 62
     7
100
AcDbLine
 10
137.4999989153339
 20
290.0
 30
0.0
 11
145.2274055256464
 21
292.0705523608202
 31
0.0
  0
LINE
  5
531
330
524
100
AcDbEntity
  8
1
  6
Continuous
 62
     7
100
AcDbLine
 10
137.4999989153339
 20
290.0
 30
0.0
 11
145.2274055256464
 21
287.9294476391798
 31
0.0
  0
LINE
  5
532
330
524
100
AcDbEntity
  8
1
  6
Continuous
 62
     7
100
AcDbLine
 10
145.2274055256464
 20
292.0705523608202
 30
0.0
 11
145.2274055256464
 21
287.9294476391798
 31
0.0
  0
LINE
  5
533
330
524
100
AcDbEntity
  8
1
  6
Continuous
 62
     7
100
AcDbLine
 10
139.431850567912
 20
290.0
 30
0.0
 11
143.2955538730683
 21
291.0352761804101
 31
0.0
  0
LINE
  5
534
330
524
100
AcDbEntity
  8
1
  6
Continuous
 62
     7
100
AcDbLine
 10
139.431850567912
 20
290.0
 30
0.0
 11
143.2955538730683
 21
288.9647238195899
 31
0.0
  0
LINE
  5
535
330
524
100
AcDbEntity
  8
1
  6
Continuous
 62
     7
100
AcDbLine
 10
143.2955538730683
 20
291.0352761804101
 30
0.0
 11
143.2955538730683
 21
288.9647238195899
 31
0.0
  0
MTEXT
  5
536
330
524
100
AcDbEntity
  8
1
  6
Continuous
 62
     7
100
AcDbMText
 10
189.9999994576664
 20
296.0
 30
0.0
 40
12.0
 41
0.0
 46
0.0
 71
     8
 72
     1
  1
105
 73
     1
 44
1.0
  0
ENDBLK
  5
526
330
524
100
AcDbEntity
  8
0
100
AcDbBlockEnd
  0
BLOCK
  5
539
330
538
100
AcDbEntity
  8
0
100
AcDbBlockBegin
  2
Dim12
 70
     0
 10
0.0
 20
0.0
 30
0.0
  3
Dim12
  1

  0
LINE
  5
53B
330
538
100
AcDbEntity
  8
1
  6
Continuous
 62
     7
100
AcDbLine
 10
189.9999999999988
 20
270.0
 30
0.0
 11
124.9999999999995
 21
270.0
 31
0.0
  0
LINE
  5
53C
330
538
100
AcDbEntity
  8
1
  6
Continuous
 62
     7
100
AcDbLine
 10
189.9999999999988
 20
268.0
 30
0.0
 11
190.0000000000002
 21
455.667074573852
 31
0.0
  0
LINE
  5
53D
330
538
100
AcDbEntity
  8
1
  6
Continuous
 62
     7
100
AcDbLine
 10
124.9999999999995
 20
268.0
 30
0.0
 11
125.0
 21
336.0
 31
0.0
  0
LINE
  5
53E
330
538
100
AcDbEntity
  8
1
  6
Continuous
 62
     7
100
AcDbLine
 10
189.9999999999988
 20
270.0
 30
0.0
 11
182.2725933896863
 21
267.9294476391798
 31
0.0
  0
LINE
  5
53F
330
538
100
AcDbEntity
  8
1
  6
Continuous
 62
     7
100
AcDbLine
 10
189.9999999999988
 20
270.0
 30
0.0
 11
182.2725933896863
 21
272.0705523608202
 31
0.0
  0
LINE
  5
540
330
538
100
AcDbEntity
  8
1
  6
Continuous
 62
     7
100
AcDbLine
 10
182.2725933896863
 20
267.9294476391798
 30
0.0
 11
182.2725933896863
 21
272.0705523608202
 31
0.0
  0
LINE
  5
541
330
538
100
AcDbEntity
  8
1
  6
Continuous
 62
     7
100
AcDbLine
 10
188.0681483474207
 20
270.0
 30
0.0
 11
184.2044450422644
 21
268.9647238195899
 31
0.0
  0
LINE
  5
542
330
538
100
AcDbEntity
  8
1
  6
Continuous
 62
     7
100
AcDbLine
 10
188.0681483474207
 20
270.0
 30
0.0
 11
184.2044450422644
 21
271.0352761804101
 31
0.0
  0
LINE
  5
543
330
538
100
AcDbEntity
  8
1
  6
Continuous
 62
     7
100
AcDbLine
 10
184.2044450422644
 20
268.9647238195899
 30
0.0
 11
184.2044450422644
 21
271.0352761804101
 31
0.0
  0
LINE
  5
544
330
538
100
AcDbEntity
  8
1
  6
Continuous
 62
     7
100
AcDbLine
 10
124.9999999999995
 20
270.0
 30
0.0
 11
132.727406610312
 21
272.0705523608202
 31
0.0
  0
LINE
  5
545
330
538
100
AcDbEntity
  8
1
  6
Continuous
 62
     7
100
AcDbLine
 10
124.9999999999995
 20
270.0
 30
0.0
 11
132.727406610312
 21
267.9294476391798
 31
0.0
  0
LINE
  5
546
330
538
100
AcDbEntity
  8
1
  6
Continuous
 62
     7
100
AcDbLine
 10
132.727406610312
 20
272.0705523608202
 30
0.0
 11
132.727406610312
 21
267.9294476391798
 31
0.0
  0
LINE
  5
547
330
538
100
AcDbEntity
  8
1
  6
Continuous
 62
     7
100
AcDbLine
 10
126.9318516525776
 20
270.0
 30
0.0
 11
130.7955549577339
 21
271.0352761804101
 31
0.0
  0
LINE
  5
548
330
538
100
AcDbEntity
  8
1
  6
Continuous
 62
     7
100
AcDbLine
 10
126.9318516525776
 20
270.0
 30
0.0
 11
130.7955549577339
 21
268.9647238195899
 31
0.0
  0
LINE
  5
549
330
538
100
AcDbEntity
  8
1
  6
Continuous
 62
     7
100
AcDbLine
 10
130.7955549577339
 20
271.0352761804101
 30
0.0
 11
130.7955549577339
 21
268.9647238195899
 31
0.0
  0
MTEXT
  5
54A
330
538
100
AcDbEntity
  8
1
  6
Continuous
 62
     7
100
AcDbMText
 10
157.4999999999991
 20
276.0
 30
0.0
 40
12.0
 41
0.0
 46
0.0
 71
     8
 72
     1
  1
65
 73
     1
 44
1.0
  0
ENDBLK
  5
53A
330
538
100
AcDbEntity
  8
0
100
AcDbBlockEnd
  0
BLOCK
  5
54D
330
54C
100
AcDbEntity
  8
0
100
AcDbBlockBegin
  2
Dim13
 70
     0
 10
0.0
 20
0.0
 30
0.0
  3
Dim13
  1

  0
LINE
  5
54F
330
54C
100
AcDbEntity
  8
1
  6
Continuous
 62
     7
100
AcDbLine
 10
572.9999999999994
 20
310.0
 30
0.0
 11
867.0000003061612
 21
310.0
 31
0.0
  0
LINE
  5
550
330
54C
100
AcDbEntity
  8
1
  6
Continuous
 62
     7
100
AcDbLine
 10
572.9999999999994
 20
308.0
 30
0.0
 11
573.0
 21
416.0000000000008
 31
0.0
  0
LINE
  5
551
330
54C
100
AcDbEntity
  8
1
  6
Continuous
 62
     7
100
AcDbLine
 10
867.0000003061612
 20
308.0
 30
0.0
 11
867.0000003061617
 21
416.0
 31
0.0
  0
LINE
  5
552
330
54C
100
AcDbEntity
  8
1
  6
Continuous
 62
     7
100
AcDbLine
 10
572.9999999999994
 20
310.0
 30
0.0
 11
580.727406610312
 21
312.0705523608202
 31
0.0
  0
LINE
  5
553
330
54C
100
AcDbEntity
  8
1
  6
Continuous
 62
     7
100
AcDbLine
 10
572.9999999999994
 20
310.0
 30
0.0
 11
580.727406610312
 21
307.9294476391798
 31
0.0
  0
LINE
  5
554
330
54C
100
AcDbEntity
  8
1
  6
Continuous
 62
     7
100
AcDbLine
 10
580.727406610312
 20
312.0705523608202
 30
0.0
 11
580.727406610312
 21
307.9294476391798
 31
0.0
  0
LINE
  5
555
330
54C
100
AcDbEntity
  8
1
  6
Continuous
 62
     7
100
AcDbLine
 10
574.9318516525776
 20
310.0
 30
0.0
 11
578.7955549577339
 21
311.0352761804101
 31
0.0
  0
LINE
  5
556
330
54C
100
AcDbEntity
  8
1
  6
Continuous
 62
     7
100
AcDbLine
 10
574.9318516525776
 20
310.0
 30
0.0
 11
578.7955549577339
 21
308.9647238195899
 31
0.0
  0
LINE
  5
557
330
54C
100
AcDbEntity
  8
1
  6
Continuous
 62
     7
100
AcDbLine
 10
578.7955549577339
 20
311.0352761804101
 30
0.0
 11
578.7955549577339
 21
308.9647238195899
 31
0.0
  0
LINE
  5
558
330
54C
100
AcDbEntity
  8
1
  6
Continuous
 62
     7
100
AcDbLine
 10
867.0000003061612
 20
310.0
 30
0.0
 11
859.2725936958486
 21
307.9294476391798
 31
0.0
  0
LINE
  5
559
330
54C
100
AcDbEntity
  8
1
  6
Continuous
 62
     7
100
AcDbLine
 10
867.0000003061612
 20
310.0
 30
0.0
 11
859.2725936958486
 21
312.0705523608202
 31
0.0
  0
LINE
  5
55A
330
54C
100
AcDbEntity
  8
1
  6
Continuous
 62
     7
100
AcDbLine
 10
859.2725936958486
 20
307.9294476391798
 30
0.0
 11
859.2725936958486
 21
312.0705523608202
 31
0.0
  0
LINE
  5
55B
330
54C
100
AcDbEntity
  8
1
  6
Continuous
 62
     7
100
AcDbLine
 10
865.068148653583
 20
310.0
 30
0.0
 11
861.2044453484267
 21
308.9647238195899
 31
0.0
  0
LINE
  5
55C
330
54C
100
AcDbEntity
  8
1
  6
Continuous
 62
     7
100
AcDbLine
 10
865.068148653583
 20
310.0
 30
0.0
 11
861.2044453484267
 21
311.0352761804101
 31
0.0
  0
LINE
  5
55D
330
54C
100
AcDbEntity
  8
1
  6
Continuous
 62
     7
100
AcDbLine
 10
861.2044453484267
 20
308.9647238195899
 30
0.0
 11
861.2044453484267
 21
311.0352761804101
 31
0.0
  0
MTEXT
  5
55E
330
54C
100
AcDbEntity
  8
1
  6
Continuous
 62
     7
100
AcDbMText
 10
720.0000001530802
 20
316.0
 30
0.0
 40
12.0
 41
0.0
 46
0.0
 71
     8
 72
     1
  1
294
 73
     1
 44
1.0
  0
ENDBLK
  5
54E
330
54C
100
AcDbEntity
  8
0
100
AcDbBlockEnd
  0
BLOCK
  5
563
330
562
100
AcDbEntity
  8
0
100
AcDbBlockBegin
  2
Dim14
 70
     0
 10
0.0
 20
0.0
 30
0.0
  3
Dim14
  1

  0
LINE
  5
565
330
562
100
AcDbEntity
  8
1
  6
Continuous
 62
     7
100
AcDbLine
 10
389.9999999999999
 20
447.9999999999999
 30
0.0
 11
389.9999999999999
 21
349.9999999999999
 31
0.0
  0
LINE
  5
566
330
562
100
AcDbEntity
  8
1
  6
Continuous
 62
     7
100
AcDbLine
 10
387.9999999999999
 20
447.9999999999999
 30
0.0
 11
513.2405804638096
 21
448.0
 31
0.0
  0
LINE
  5
567
330
562
100
AcDbEntity
  8
1
  6
Continuous
 62
     7
100
AcDbLine
 10
387.9999999999999
 20
349.9999999999999
 30
0.0
 11
448.0000000453807
 21
350.0
 31
0.0
  0
LINE
  5
568
330
562
100
AcDbEntity
  8
1
  6
Continuous
 62
     7
100
AcDbLine
 10
389.9999999999999
 20
447.9999999999999
 30
0.0
 11
392.07055236082
 21
440.2725933896874
 31
0.0
  0
LINE
  5
569
330
562
100
AcDbEntity
  8
1
  6
Continuous
 62
     7
100
AcDbLine
 10
389.9999999999999
 20
447.9999999999999
 30
0.0
 11
387.9294476391797
 21
440.2725933896874
 31
0.0
  0
LINE
  5
56A
330
562
100
AcDbEntity
  8
1
  6
Continuous
 62
     7
100
AcDbLine
 10
392.07055236082
 20
440.2725933896874
 30
0.0
 11
387.9294476391797
 21
440.2725933896874
 31
0.0
  0
LINE
  5
56B
330
562
100
AcDbEntity
  8
1
  6
Continuous
 62
     7
100
AcDbLine
 10
389.9999999999999
 20
446.0681483474218
 30
0.0
 11
391.03527618041
 21
442.2044450422655
 31
0.0
  0
LINE
  5
56C
330
562
100
AcDbEntity
  8
1
  6
Continuous
 62
     7
100
AcDbLine
 10
389.9999999999999
 20
446.0681483474218
 30
0.0
 11
388.9647238195898
 21
442.2044450422655
 31
0.0
  0
LINE
  5
56D
330
562
100
AcDbEntity
  8
1
  6
Continuous
 62
     7
100
AcDbLine
 10
391.03527618041
 20
442.2044450422655
 30
0.0
 11
388.9647238195898
 21
442.2044450422655
 31
0.0
  0
LINE
  5
56E
330
562
100
AcDbEntity
  8
1
  6
Continuous
 62
     7
100
AcDbLine
 10
389.9999999999999
 20
349.9999999999999
 30
0.0
 11
387.9294476391797
 21
357.7274066103125
 31
0.0
  0
LINE
  5
56F
330
562
100
AcDbEntity
  8
1
  6
Continuous
 62
     7
100
AcDbLine
 10
389.9999999999999
 20
349.9999999999999
 30
0.0
 11
392.07055236082
 21
357.7274066103125
 31
0.0
  0
LINE
  5
570
330
562
100
AcDbEntity
  8
1
  6
Continuous
 62
     7
100
AcDbLine
 10
387.9294476391797
 20
357.7274066103125
 30
0.0
 11
392.07055236082
 21
357.7274066103125
 31
0.0
  0
LINE
  5
571
330
562
100
AcDbEntity
  8
1
  6
Continuous
 62
     7
100
AcDbLine
 10
389.9999999999999
 20
351.9318516525781
 30
0.0
 11
388.9647238195898
 21
355.7955549577343
 31
0.0
  0
LINE
  5
572
330
562
100
AcDbEntity
  8
1
  6
Continuous
 62
     7
100
AcDbLine
 10
389.9999999999999
 20
351.9318516525781
 30
0.0
 11
391.03527618041
 21
355.7955549577343
 31
0.0
  0
LINE
  5
573
330
562
100
AcDbEntity
  8
1
  6
Continuous
 62
     7
100
AcDbLine
 10
388.9647238195898
 20
355.7955549577343
 30
0.0
 11
391.03527618041
 21
355.7955549577343
 31
0.0
  0
MTEXT
  5
574
330
562
100
AcDbEntity
  8
1
  6
Continuous
 62
     7
100
AcDbMText
 10
383.9999999999999
 20
398.9999999999999
 30
0.0
 40
12.0
 41
0.0
 46
0.0
 71
     8
 72
     1
  1
100
 11
2.832769448823990E-16
 21
1.0
 31
0.0
 73
     1
 44
1.0
  0
ENDBLK
  5
564
330
562
100
AcDbEntity
  8
0
100
AcDbBlockEnd
  0
ENDSEC
  0
SECTION
  2
ENTITIES
  0
LINE
  5
96
330
1F
100
AcDbEntity
  8
1
  6
Continuous
 62
     7
100
AcDbLine
 10
10.0
 20
790.0
 30
0.0
 11
10.0
 21
10.0
 31
0.0
  0
LINE
  5
97
330
1F
100
AcDbEntity
  8
1
  6
Continuous
 62
     7
100
AcDbLine
 10
310.0
 20
70.0
 30
0.0
 11
310.0
 21
10.0
 31
0.0
  0
LINE
  5
98
330
1F
100
AcDbEntity
  8
1
  6
Continuous
 62
     7
100
AcDbLine
 10
350.0
 20
70.0
 30
0.0
 11
350.0
 21
10.0
 31
0.0
  0
LINE
  5
99
330
1F
100
AcDbEntity
  8
1
  6
Continuous
 62
     7
100
AcDbLine
 10
390.0
 20
70.0
 30
0.0
 11
390.0
 21
10.0
 31
0.0
  0
LINE
  5
9A
330
1F
100
AcDbEntity
  8
1
  6
Continuous
 62
     7
100
AcDbLine
 10
1135.0
 20
10.0
 30
0.0
 11
10.0
 21
10.0
 31
0.0
  0
LINE
  5
9B
330
1F
100
AcDbEntity
  8
1
  6
Continuous
 62
     7
100
AcDbLine
 10
10.0
 20
790.0
 30
0.0
 11
1135.0
 21
790.0
 31
0.0
  0
LINE
  5
9C
330
1F
100
AcDbEntity
  8
1
  6
Continuous
 62
     7
100
AcDbLine
 10
1135.0
 20
790.0
 30
0.0
 11
1135.0
 21
10.0
 31
0.0
  0
LINE
  5
9D
330
1F
100
AcDbEntity
  8
1
  6
Continuous
 62
     7
100
AcDbLine
 10
10.0
 20
70.0
 30
0.0
 11
1135.0
 21
70.0
 31
0.0
  0
LINE
  5
9E
330
1F
100
AcDbEntity
  8
1
  6
Continuous
 62
     7
100
AcDbLine
 10
630.0000000000001
 20
70.0
 30
0.0
 11
630.0000000000001
 21
10.0
 31
0.0
  0
LINE
  5
9F
330
1F
100
AcDbEntity
  8
1
  6
Continuous
 62
     7
100
AcDbLine
 10
710.0000000000001
 20
70.0
 30
0.0
 11
710.0000000000001
 21
10.0
 31
0.0
  0
LINE
  5
A0
330
1F
100
AcDbEntity
  8
1
  6
Continuous
 62
     7
100
AcDbLine
 10
790.0000000000001
 20
70.0
 30
0.0
 11
790.0000000000001
 21
10.0
 31
0.0
  0
LINE
  5
A1
330
1F
100
AcDbEntity
  8
1
  6
Continuous
 62
     7
100
AcDbLine
 10
350.0
 20
55.0
 30
0.0
 11
630.0000000000001
 21
55.0
 31
0.0
  0
LINE
  5
A2
330
1F
100
AcDbEntity
  8
1
  6
Continuous
 62
     7
100
AcDbLine
 10
350.0
 20
40.0
 30
0.0
 11
630.0000000000001
 21
40.0
 31
0.0
  0
LINE
  5
A3
330
1F
100
AcDbEntity
  8
1
  6
Continuous
 62
     7
100
AcDbLine
 10
350.0
 20
25.0
 30
0.0
 11
630.0000000000001
 21
25.0
 31
0.0
  0
LINE
  5
A4
330
1F
100
AcDbEntity
  8
1
  6
Continuous
 62
     7
100
AcDbLine
 10
630.0000000000001
 20
40.0
 30
0.0
 11
790.0000000000001
 21
40.0
 31
0.0
  0
LINE
  5
A5
330
1F
100
AcDbEntity
  8
1
  6
Continuous
 62
     7
100
AcDbLine
 10
795.0000000000001
 20
40.0
 30
0.0
 11
1130.0
 21
40.0
 31
0.0
  0
TEXT
  5
A6
330
1F
100
AcDbEntity
  8
1
  6
Continuous
 62
     7
100
AcDbText
 10
318.0
 20
36.0
 30
0.0
 40
8.0
  1
記　事
100
AcDbText
  0
TEXT
  5
C9
330
1F
100
AcDbEntity
  8
1
  6
Continuous
 62
     7
100
AcDbText
 10
632.0000000000001
 20
60.0
 30
0.0
 40
8.0
  1
設計NO.
 41
0.7
100
AcDbText
  0
TEXT
  5
CA
330
1F
100
AcDbEntity
  8
1
  6
Continuous
 62
     7
100
AcDbText
 10
712.0000000000001
 20
60.0
 30
0.0
 40
8.0
  1
日　付
100
AcDbText
  0
TEXT
  5
CB
330
1F
100
AcDbEntity
  8
1
  6
Continuous
 62
     7
100
AcDbText
 10
712.0000000000001
 20
30.0
 30
0.0
 40
8.0
  1
縮　尺
100
AcDbText
  0
TEXT
  5
CC
330
1F
100
AcDbEntity
  8
1
  6
Continuous
 62
     7
100
AcDbText
 10
632.0000000000001
 20
30.0
 30
0.0
 40
8.0
  1
担　当
100
AcDbText
  0
TEXT
  5
CD
330
1F
100
AcDbEntity
  8
1
  6
Continuous
 62
     7
100
AcDbText
 10
792.0000000000001
 20
60.0
 30
0.0
 40
8.0
  1
名　称
100
AcDbText
  0
TEXT
  5
CE
330
1F
100
AcDbEntity
  8
1
  6
Continuous
 62
     7
100
AcDbText
 10
723.0000000000001
 20
14.29541715135201
 30
0.0
 40
12.0
  1
A4  S=1/4
 41
0.5
100
AcDbText
  0
TEXT
  5
CF
330
1F
100
AcDbEntity
  8
1
  6
Continuous
 62
     7
100
AcDbText
 10
60.0
 20
30.0
 30
0.0
 40
20.0
  1
株式会社アフロディテ
100
AcDbText
  0
LINE
  5
D0
330
1F
100
AcDbEntity
  8
1
  6
Continuous
 62
     7
100
AcDbLine
 10
442.0756621547887
 20
622.5
 30
0.0
 11
1000.842319837143
 21
622.5
 31
0.0
  0
LINE
  5
D1
330
1F
100
AcDbEntity
  8
1
  6
Continuous
 62
     7
100
AcDbLine
 10
997.9243381513729
 20
622.5
 30
0.0
 11
439.1576804690188
 21
622.5
 31
0.0
  0
ELLIPSE
  5
D2
330
1F
100
AcDbEntity
  8
1
  6
Continuous
 62
     7
100
AcDbEllipse
 10
566.0
 20
570.7197599069181
 30
0.0
 11
20.0
 21
0.0
 31
0.0
210
0.0
220
0.0
230
1.0
 40
0.0846132024573478
 41
0.0
 42
6.283185307179586
  0
ARC
  5
D3
330
1F
100
AcDbEntity
  8
1
  6
Continuous
 62
     7
100
AcDbCircle
 10
588.0
 20
573.5482092790967
 30
0.0
 40
3.0
100
AcDbArc
 50
269.9999999999998
 51
347.7684304422572
  0
LINE
  5
D4
330
1F
100
AcDbEntity
  8
1
  6
Continuous
 62
     7
100
AcDbLine
 10
587.9107102080179
 20
570.5482092790967
 30
0.0
 11
588.0
 21
570.5482092790967
 31
0.0
  0
ARC
  5
D5
330
1F
100
AcDbEntity
  8
1
  6
Continuous
 62
     7
100
AcDbCircle
 10
544.0
 20
573.5482092790967
 30
0.0
 40
3.0
100
AcDbArc
 50
192.9565785055494
 51
269.9999999999998
  0
ELLIPSE
  5
D6
330
1F
100
AcDbEntity
  8
1
  6
Continuous
 62
     7
100
AcDbEllipse
 10
566.0
 20
572.7121493034748
 30
0.0
 11
25.0
 21
-1.136868377216160E-13
 31
0.0
210
0.0
220
0.0
230
1.0
 40
0.0865576009751203
 41
-0.1322090378276046
 42
3.271183003175928
  0
ELLIPSE
  5
D7
330
1F
100
AcDbEntity
  8
1
  6
Continuous
 62
     7
100
AcDbEllipse
 10
566.0
 20
570.7197599069181
 30
0.0
 11
22.0
 21
0.0
 31
0.0
210
0.0
220
0.0
230
1.0
 40
0.0871561103037276
 41
-3.052361399672248
 42
-0.0872664627184667
  0
LINE
  5
D8
330
1F
100
AcDbEntity
  8
1
  6
Continuous
 62
     7
100
AcDbLine
 10
544.0
 20
570.5482092790967
 30
0.0
 11
544.0883994790771
 21
570.5482092790967
 31
0.0
  0
ELLIPSE
  5
D9
330
1F
100
AcDbEntity
  8
1
  6
Continuous
 62
     7
100
AcDbEllipse
 10
874.0000003061616
 20
570.7197599069181
 30
0.0
 11
-20.0
 21
2.449293598294707E-15
 31
0.0
210
0.0
220
0.0
230
1.0
 40
0.0846132024573478
 41
0.0
 42
6.283185307179586
  0
ARC
  5
DA
330
1F
100
AcDbEntity
  8
1
  6
Continuous
 62
     7
100
AcDbCircle
 10
852.0000003061616
 20
573.5482092790967
 30
0.0
 40
3.0
100
AcDbArc
 50
192.2315695577421
 51
269.9999999999998
  0
LINE
  5
DB
330
1F
100
AcDbEntity
  8
1
  6
Continuous
 62
     7
100
AcDbLine
 10
852.0892900981437
 20
570.5482092790967
 30
0.0
 11
852.0000003061616
 21
570.5482092790967
 31
0.0
  0
ARC
  5
DC
330
1F
100
AcDbEntity
  8
1
  6
Continuous
 62
     7
100
AcDbCircle
 10
896.0000003061616
 20
573.5482092790967
 30
0.0
 40
3.0
100
AcDbArc
 50
269.9999999999998
 51
347.0434214944494
  0
ELLIPSE
  5
DD
330
1F
100
AcDbEntity
  8
1
  6
Continuous
 62
     7
100
AcDbEllipse
 10
874.0000003061616
 20
572.7121493034748
 30
0.0
 11
-25.0
 21
-1.079606854646473E-13
 31
0.0
210
0.0
220
0.0
230
1.0
 40
0.0865576009751203
 41
3.012002304003658
 42
6.415394345007191
  0
ELLIPSE
  5
DE
330
1F
100
AcDbEntity
  8
1
  6
Continuous
 62
     7
100
AcDbEllipse
 10
874.0000003061616
 20
570.7197599069181
 30
0.0
 11
-22.0
 21
2.694222958124177E-15
 31
0.0
210
0.0
220
0.0
230
1.0
 40
0.0871561103037276
 41
0.0872664627184667
 42
3.052361399672248
  0
LINE
  5
DF
330
1F
100
AcDbEntity
  8
1
  6
Continuous
 62
     7
100
AcDbLine
 10
896.0000003061616
 20
570.5482092790967
 30
0.0
 11
895.9116008270844
 21
570.5482092790967
 31
0.0
  0
ARC
  5
E0
330
1F
100
AcDbEntity
  8
1
  6
Continuous
 62
     7
100
AcDbCircle
 10
480.0000000000001
 20
622.5
 30
0.0
 40
23.0
100
AcDbArc
 50
300.0065030102944
 51
59.99505402174086
  0
LINE
  5
E1
330
1F
100
AcDbEntity
  8
1
  6
Continuous
 62
     7
100
AcDbLine
 10
457.7928912145017
 20
661.8793926144
 30
0.0
 11
457.7928912145017
 21
583.120607488
 31
0.0
  0
LINE
  5
E2
330
1F
100
AcDbEntity
  8
1
  6
Continuous
 62
     7
100
AcDbLine
 10
457.7928912145017
 20
661.8793926144
 30
0.0
 11
491.2641897810375
 21
645.4542148625982
 31
0.0
  0
ARC
  5
E3
330
1F
100
AcDbEntity
  8
1
  6
Continuous
 62
     7
100
AcDbCircle
 10
480.0000000000001
 20
622.5
 30
0.0
 40
25.56908194248575
100
AcDbArc
 50
296.1383063014761
 51
63.86169355725552
  0
LINE
  5
E4
330
1F
100
AcDbEntity
  8
1
  6
Continuous
 62
     7
100
AcDbLine
 10
491.5017194011596
 20
642.4175914913675
 30
0.0
 11
457.7928912145017
 21
661.8793926144
 31
0.0
  0
LINE
  5
E5
330
1F
100
AcDbEntity
  8
1
  6
Continuous
 62
     7
100
AcDbLine
 10
457.7928912145017
 20
583.120607488
 30
0.0
 11
491.2641897244417
 21
599.545785109629
 31
0.0
  0
LINE
  5
E6
330
1F
100
AcDbEntity
  8
1
  6
Continuous
 62
     7
100
AcDbLine
 10
457.7928912145017
 20
583.120607488
 30
0.0
 11
491.5022606641452
 21
602.5827210790716
 31
0.0
  0
ARC
  5
E7
330
1F
100
AcDbEntity
  8
1
  6
Continuous
 62
     7
100
AcDbCircle
 10
960.0000003061616
 20
622.5
 30
0.0
 40
23.0
100
AcDbArc
 50
120.0049459782589
 51
239.9934969897049
  0
LINE
  5
E8
330
1F
100
AcDbEntity
  8
1
  6
Continuous
 62
     7
100
AcDbLine
 10
982.2071090916601
 20
661.8793926144
 30
0.0
 11
982.2071090916601
 21
583.120607488
 31
0.0
  0
LINE
  5
E9
330
1F
100
AcDbEntity
  8
1
  6
Continuous
 62
     7
100
AcDbLine
 10
982.2071090916601
 20
661.8793926144
 30
0.0
 11
948.7358105251242
 21
645.4542148625982
 31
0.0
  0
ARC
  5
EA
330
1F
100
AcDbEntity
  8
1
  6
Continuous
 62
     7
100
AcDbCircle
 10
960.0000003061616
 20
622.5
 30
0.0
 40
25.56908194248575
100
AcDbArc
 50
116.1383064427445
 51
243.8616936985233
  0
LINE
  5
EB
330
1F
100
AcDbEntity
  8
1
  6
Continuous
 62
     7
100
AcDbLine
 10
948.4982809050023
 20
642.4175914913675
 30
0.0
 11
982.2071090916601
 21
661.8793926144
 31
0.0
  0
LINE
  5
EC
330
1F
100
AcDbEntity
  8
1
  6
Continuous
 62
     7
100
AcDbLine
 10
982.2071090916601
 20
583.120607488
 30
0.0
 11
948.73581058172
 21
599.545785109629
 31
0.0
  0
LINE
  5
ED
330
1F
100
AcDbEntity
  8
1
  6
Continuous
 62
     7
100
AcDbLine
 10
982.2071090916601
 20
583.120607488
 30
0.0
 11
948.4977396420165
 21
602.5827210790716
 31
0.0
  0
DIMENSION
  5
FF
330
1F
100
AcDbEntity
  8
1
  6
Continuous
 62
     7
100
AcDbDimension
  2
Dim1
 10
390.0
 20
622.5000001054362
 30
0.0
 11
384.0
 21
622.5000001100879
 31
0.0
 70
   165
  1
60°
 71
     5
 42
-1.0
 73
     0
 74
     0
 75
     0
  3
Standard
100
AcDb3PointAngularDimension
 13
408.2205451488883
 23
690.4999999485856
 33
0.0
 14
408.2205450434525
 24
554.5000002340346
 34
0.0
 15
525.999999397183
 25
622.5
 35
0.0
1001
ACAD
1000
DSTYLE
1002
{
1070
   344
1005
0
1070
   343
1005
0
1070
   173
1070
     1
1070
   289
1070
     2
1070
   279
1070
     2
1070
   288
1070
     1
1070
    77
1070
     1
1070
   172
1070
     1
1070
   174
1070
     0
1070
    74
1070
     0
1070
    73
1070
     0
1070
   284
1070
     8
1070
    78
1070
     8
1070
   140
1040
4.0
1070
    40
1040
1.0
1070
    42
1040
2.0
1070
    44
1040
2.0
1070
    43
1040
10.0
1070
   271
1070
     2
1070
    41
1040
4.0
1002
}
  0
LINE
  5
100
330
1F
100
AcDbEntity
  8
1
  6
Continuous
 62
     7
100
AcDbLine
 10
406.3997416496277
 20
691.5512413978577
 30
0.0
 11
455.7928912145017
 21
663.0340932096
 31
0.0
  0
LINE
  5
101
330
1F
100
AcDbEntity
  8
1
  6
Continuous
 62
     7
100
AcDbLine
 10
455.7928912145017
 20
581.9659067904
 30
0.0
 11
406.4515523910522
 21
553.4786715507507
 31
0.0
  0
DIMENSION
  5
10D
330
1F
100
AcDbEntity
  8
1
  6
Continuous
 62
     7
100
AcDbDimension
  2
Dim2
 10
480.0000000000001
 20
622.5
 30
0.0
 11
520.2824758556059
 21
642.1506757344907
 31
0.0
 70
   164
  1
<>
 71
     5
 42
-1.0
 73
     0
 74
     0
 75
     0
  3
Standard
100
AcDbRadialDimension
 15
501.8354102494791
 25
629.7259850011573
 35
0.0
 40
0.0
1001
ACAD
1000
DSTYLE
1002
{
1070
   344
1005
76
1070
   343
1005
0
1070
   173
1070
     1
1070
   289
1070
     2
1070
   279
1070
     2
1070
   288
1070
     1
1070
    77
1070
     3
1070
   172
1070
     1
1070
   174
1070
     0
1070
    74
1070
     0
1070
    73
1070
     0
1070
   284
1070
     8
1070
    78
1070
     8
1070
   140
1040
4.0
1070
    40
1040
1.0
1070
    42
1040
0.0
1070
    44
1040
0.0
1070
    43
1040
10.0
1070
   271
1070
     2
1070
    41
1040
4.0
1002
}
  0
TEXT
  5
10E
330
1F
100
AcDbEntity
  8
1
  6
Continuous
 62
     7
100
AcDbText
 10
139.9999999999994
 20
689.9912407576521
 30
0.0
 40
12.0
  1
Ａ － Ｂ 断 面 図
 41
0.7727272727272727
100
AcDbText
  0
ARC
  5
10F
330
1F
100
AcDbEntity
  8
1
  6
Continuous
 62
     7
100
AcDbCircle
 10
157.6454260255763
 20
628.1575863770881
 30
0.0
 40
15.0
100
AcDbArc
 50
144.2219754641567
 51
174.9999999607317
  0
LINE
  5
110
330
1F
100
AcDbEntity
  8
1
  6
Continuous
 62
     7
100
AcDbLine
 10
181.6856085069236
 20
668.0
 30
0.0
 11
189.9999999999994
 21
668.0
 31
0.0
  0
ARC
  5
111
330
1F
100
AcDbEntity
  8
1
  6
Continuous
 62
     7
100
AcDbCircle
 10
254.9999999999983
 20
558.0000000000007
 30
0.0
 40
134.9999999999988
100
AcDbArc
 50
127.6584620062076
 51
144.2219754641569
  0
ARC
  5
112
330
1F
100
AcDbEntity
  8
1
  6
Continuous
 62
     7
100
AcDbCircle
 10
181.6856085069236
 20
653.0
 30
0.0
 40
15.0
100
AcDbArc
 50
90.00000000000011
 51
127.6584620062075
  0
ARC
  5
113
330
1F
100
AcDbEntity
  8
1
  6
Continuous
 62
     7
100
AcDbCircle
 10
222.3545739744226
 20
628.1575863770881
 30
0.0
 40
15.0
100
AcDbArc
 50
5.000000039268349
 51
35.77802453584319
  0
LINE
  5
114
330
1F
100
AcDbEntity
  8
1
  6
Continuous
 62
     7
100
AcDbLine
 10
198.3143914930752
 20
668.0
 30
0.0
 11
189.9999999999994
 21
668.0
 31
0.0
  0
ARC
  5
115
330
1F
100
AcDbEntity
  8
1
  6
Continuous
 62
     7
100
AcDbCircle
 10
125.0000000000005
 20
558.0000000000007
 30
0.0
 40
134.9999999999988
100
AcDbArc
 50
35.77802453584307
 51
52.34153799379241
  0
ARC
  5
116
330
1F
100
AcDbEntity
  8
1
  6
Continuous
 62
     7
100
AcDbCircle
 10
198.3143914930752
 20
653.0
 30
0.0
 40
15.0
100
AcDbArc
 50
52.34153799379253
 51
89.9999999999999
  0
LINE
  5
117
330
1F
100
AcDbEntity
  8
1
  6
Continuous
 62
     7
100
AcDbLine
 10
239.8628155345475
 20
623.090594843565
 30
0.0
 11
243.6976682454851
 21
579.2580281301564
 31
0.0
  0
ARC
  5
118
330
1F
100
AcDbEntity
  8
1
  6
Continuous
 62
     7
100
AcDbCircle
 10
43.53749698164651
 20
583.8303185442003
 30
0.0
 40
199.9999999999998
100
AcDbArc
 50
359.5212030716534
 51
10.47879700688883
  0
ARC
  5
119
330
1F
100
AcDbEntity
  8
1
  6
Continuous
 62
     7
100
AcDbCircle
 10
242.5305486906299
 20
582.1673779121331
 30
0.0
 40
1.0
100
AcDbArc
 50
340.3828918300327
 51
359.5212030717262
  0
ARC
  5
11A
330
1F
100
AcDbEntity
  8
1
  6
Continuous
 62
     7
100
AcDbCircle
 10
240.7090841513891
 20
578.9965608998652
 30
0.0
 40
3.0
100
AcDbArc
 50
294.4712206737826
 51
5.000000039266619
  0
ARC
  5
11B
330
1F
100
AcDbEntity
  8
1
  6
Continuous
 62
     7
100
AcDbCircle
 10
239.2186304402726
 20
620.0227764373487
 30
0.0
 40
1.0
100
AcDbArc
 50
10.4787970068962
 51
29.61710824024194
  0
ARC
  5
11C
330
1F
100
AcDbEntity
  8
1
  6
Continuous
 62
     7
100
AcDbCircle
 10
236.8742314404514
 20
622.8291276132738
 30
0.0
 40
3.0
100
AcDbArc
 50
5.000000039266619
 51
75.52877940475862
  0
LINE
  5
11D
330
1F
100
AcDbEntity
  8
1
  6
Continuous
 62
     7
100
AcDbLine
 10
142.7025055550961
 20
629.4649225285443
 30
0.0
 11
137.4999989153344
 21
570.0
 31
0.0
  0
LINE
  5
11E
330
1F
100
AcDbEntity
  8
1
  6
Continuous
 62
     7
100
AcDbLine
 10
137.4999989153344
 20
570.0
 30
0.0
 11
242.5000010846644
 21
570.0
 31
0.0
  0
LINE
  5
11F
330
1F
100
AcDbEntity
  8
1
  6
Continuous
 62
     7
100
AcDbLine
 10
237.2974944449028
 20
629.4649225285443
 30
0.0
 11
242.5000010846644
 21
570.0
 31
0.0
  0
ARC
  5
120
330
1F
100
AcDbEntity
  8
1
  6
Continuous
 62
     7
100
AcDbCircle
 10
222.3545739744226
 20
628.1575863770881
 30
0.0
 40
10.0
100
AcDbArc
 50
5.000000039268349
 51
35.77802453584287
  0
ARC
  5
121
330
1F
100
AcDbEntity
  8
1
  6
Continuous
 62
     7
100
AcDbCircle
 10
125.0000000000005
 20
558.0000000000007
 30
0.0
 40
129.9999999999988
100
AcDbArc
 50
35.77802453584304
 51
52.34153799379241
  0
ARC
  5
122
330
1F
100
AcDbEntity
  8
1
  6
Continuous
 62
     7
100
AcDbCircle
 10
198.3143914930752
 20
653.0
 30
0.0
 40
10.0
100
AcDbArc
 50
52.34153799379253
 51
89.99999999999983
  0
ARC
  5
123
330
1F
100
AcDbEntity
  8
1
  6
Continuous
 62
     7
100
AcDbCircle
 10
181.6856085069236
 20
653.0
 30
0.0
 40
10.0
100
AcDbArc
 50
90.00000000000016
 51
127.6584620062075
  0
ARC
  5
124
330
1F
100
AcDbEntity
  8
1
  6
Continuous
 62
     7
100
AcDbCircle
 10
254.9999999999983
 20
558.0000000000007
 30
0.0
 40
129.9999999999988
100
AcDbArc
 50
127.6584620062076
 51
144.221975464157
  0
ARC
  5
125
330
1F
100
AcDbEntity
  8
1
  6
Continuous
 62
     7
100
AcDbCircle
 10
157.6454260255763
 20
628.1575863770881
 30
0.0
 40
10.0
100
AcDbArc
 50
144.2219754641571
 51
174.9999999607317
  0
LINE
  5
126
330
1F
100
AcDbEntity
  8
1
  6
Continuous
 62
     7
100
AcDbLine
 10
147.6834790452561
 20
629.0291438113923
 30
0.0
 11
142.5190981033521
 21
570.0
 31
0.0
  0
LINE
  5
127
330
1F
100
AcDbEntity
  8
1
  6
Continuous
 62
     7
100
AcDbLine
 10
237.4809018966467
 20
570.0
 30
0.0
 11
232.3165209547427
 21
629.0291438113923
 31
0.0
  0
LINE
  5
128
330
1F
100
AcDbEntity
  8
1
  6
Continuous
 62
     7
100
AcDbLine
 10
192.9999999999994
 20
570.0
 30
0.0
 11
192.9999999999994
 21
663.0
 31
0.0
  0
LINE
  5
129
330
1F
100
AcDbEntity
  8
1
  6
Continuous
 62
     7
100
AcDbLine
 10
190.9999999999994
 20
570.0000000650329
 30
0.0
 11
192.6233210361373
 21
663.0
 31
0.0
  0
LINE
  5
12A
330
1F
100
AcDbEntity
  8
1
  6
Continuous
 62
     7
100
AcDbLine
 10
188.9999999999994
 20
570.0000004316857
 30
0.0
 11
187.3766789702615
 21
663.0
 31
0.0
  0
LINE
  5
12B
330
1F
100
AcDbEntity
  8
1
  6
Continuous
 62
     7
100
AcDbLine
 10
186.9999999999994
 20
570.0
 30
0.0
 11
186.9999999999994
 21
663.0
 31
0.0
  0
LINE
  5
12C
330
1F
100
AcDbEntity
  8
1
  6
Continuous
 62
     7
100
AcDbLine
 10
187.3766789702615
 20
663.0
 30
0.0
 11
181.6856085069236
 21
663.0
 31
0.0
  0
LINE
  5
12D
330
1F
100
AcDbEntity
  8
1
  6
Continuous
 62
     7
100
AcDbLine
 10
198.3143914930752
 20
663.0
 30
0.0
 11
192.6233210361373
 21
663.0
 31
0.0
  0
LINE
  5
12E
330
1F
100
AcDbEntity
  8
1
  6
Continuous
 62
     7
100
AcDbLine
 10
720.0
 20
452.9639786935265
 30
0.0
 11
720.0
 21
332.4406851805441
 31
0.0
  0
TEXT
  5
12F
330
1F
100
AcDbEntity
  8
1
  6
Continuous
 62
     7
100
AcDbText
 10
716.2666630864153
 20
455.5935778247189
 30
0.0
 40
8.0
  1
Ａ
100
AcDbText
  0
TEXT
  5
130
330
1F
100
AcDbEntity
  8
1
  6
Continuous
 62
     7
100
AcDbText
 10
716.2666630864153
 20
323.2370882213709
 30
0.0
 40
8.0
  1
Ｂ
100
AcDbText
  0
LINE
  5
131
330
1F
100
AcDbEntity
  8
1
  6
Continuous
 62
     7
100
AcDbLine
 10
450.0000000453807
 20
350.0
 30
0.0
 11
720.0
 21
350.0
 31
0.0
  0
LINE
  5
132
330
1F
100
AcDbEntity
  8
1
  6
Continuous
 62
     7
100
AcDbLine
 10
990.000000260781
 20
350.0
 30
0.0
 11
720.0000003061617
 21
350.0
 31
0.0
  0
LINE
  5
133
330
1F
100
AcDbEntity
  8
1
  6
Continuous
 62
     7
100
AcDbLine
 10
450.0000000226903
 20
350.0
 30
0.0
 11
509.2062217245767
 21
441.1695855793787
 31
0.0
  0
LINE
  5
134
330
1F
100
AcDbEntity
  8
1
  6
Continuous
 62
     7
100
AcDbLine
 10
521.7862802085906
 20
448.0
 30
0.0
 11
720.0
 21
448.0000000000001
 31
0.0
  0
ARC
  5
135
330
1F
100
AcDbEntity
  8
1
  6
Continuous
 62
     7
100
AcDbCircle
 10
521.7862802085906
 20
433.0
 30
0.0
 40
15.0
100
AcDbArc
 50
89.99999999999991
 51
146.9999997533594
  0
LINE
  5
136
330
1F
100
AcDbEntity
  8
1
  6
DOT
 62
     7
100
AcDbLine
 10
982.2071087854982
 20
361.9999999999998
 30
0.0
 11
937.4999999957655
 21
362.0000000000001
 31
0.0
  0
LINE
  5
137
330
1F
100
AcDbEntity
  8
1
  6
Continuous
 62
     7
100
AcDbLine
 10
989.9999999773097
 20
350.0
 30
0.0
 11
930.7937782754233
 21
441.1695855793787
 31
0.0
  0
LINE
  5
138
330
1F
100
AcDbEntity
  8
1
  6
Continuous
 62
     7
100
AcDbLine
 10
918.2137197914094
 20
448.0
 30
0.0
 11
720.0
 21
448.0000000000001
 31
0.0
  0
ARC
  5
139
330
1F
100
AcDbEntity
  8
1
  6
Continuous
 62
     7
100
AcDbCircle
 10
918.2137197914094
 20
433.0
 30
0.0
 40
15.0
100
AcDbArc
 50
33.00000024664057
 51
89.99999999999991
  0
LINE
  5
13A
330
1F
100
AcDbEntity
  8
1
  6
DOT
 62
     7
100
AcDbLine
 10
937.4999999957655
 20
362.0000000000001
 30
0.0
 11
934.9593327849768
 21
434.7551950140697
 31
0.0
  0
LINE
  5
13B
330
1F
100
AcDbEntity
  8
1
  6
Continuous
 62
     7
100
AcDbLine
 10
479.5000000000009
 20
334.9999999999999
 30
0.0
 11
480.5000000000009
 21
334.9999999999999
 31
0.0
  0
LINE
  5
13C
330
1F
100
AcDbEntity
  8
1
  6
Continuous
 62
     7
100
AcDbLine
 10
480.5000000000009
 20
334.9999999999999
 30
0.0
 11
481.5000000000025
 21
312.9999999999999
 31
0.0
  0
LINE
  5
13D
330
1F
100
AcDbEntity
  8
1
  6
Continuous
 62
     7
100
AcDbLine
 10
481.5000000000027
 20
312.9999999999999
 30
0.0
 11
486.9886597938154
 21
313.2494845360824
 31
0.0
  0
LINE
  5
13E
330
1F
100
AcDbEntity
  8
1
  6
Continuous
 62
     7
100
AcDbLine
 10
486.897844471978
 20
315.247421616503
 30
0.0
 11
481.409184678165
 21
314.9979370804206
 31
0.0
  0
LINE
  5
13F
330
1F
100
AcDbEntity
  8
1
  6
Continuous
 62
     7
100
AcDbLine
 10
486.8070291501407
 20
317.2453586969236
 30
0.0
 11
481.3183693563275
 21
316.9958741608411
 31
0.0
  0
LINE
  5
140
330
1F
100
AcDbEntity
  8
1
  6
Continuous
 62
     7
100
AcDbLine
 10
486.7162138283035
 20
319.2432957773444
 30
0.0
 11
481.2275540344901
 21
318.9938112412618
 31
0.0
  0
LINE
  5
141
330
1F
100
AcDbEntity
  8
1
  6
Continuous
 62
     7
100
AcDbLine
 10
486.6253985064662
 20
321.2412328577649
 30
0.0
 11
481.1367387126527
 21
320.9917483216823
 31
0.0
  0
LINE
  5
142
330
1F
100
AcDbEntity
  8
1
  6
Continuous
 62
     7
100
AcDbLine
 10
486.5345831846288
 20
323.2391699381855
 30
0.0
 11
481.0459233908152
 21
322.9896854021029
 31
0.0
  0
LINE
  5
143
330
1F
100
AcDbEntity
  8
1
  6
Continuous
 62
     7
100
AcDbLine
 10
486.4437678627916
 20
325.237107018606
 30
0.0
 11
480.9551080689778
 21
324.9876224825234
 31
0.0
  0
LINE
  5
144
330
1F
100
AcDbEntity
  8
1
  6
Continuous
 62
     7
100
AcDbLine
 10
486.3529525409542
 20
327.2350440990267
 30
0.0
 11
480.8642927471404
 21
326.985559562944
 31
0.0
  0
LINE
  5
145
330
1F
100
AcDbEntity
  8
1
  6
Continuous
 62
     7
100
AcDbLine
 10
486.2621372191169
 20
329.2329811794472
 30
0.0
 11
480.773477425303
 21
328.9834966433646
 31
0.0
  0
LINE
  5
146
330
1F
100
AcDbEntity
  8
1
  6
Continuous
 62
     7
100
AcDbLine
 10
486.0000000000009
 20
335.0
 30
0.0
 11
486.262137219117
 21
329.2329811794446
 31
0.0
  0
LINE
  5
147
330
1F
100
AcDbEntity
  8
1
  6
Continuous
 62
     7
100
AcDbLine
 10
486.3529525409542
 20
327.2350440990267
 30
0.0
 11
486.4437678627914
 21
325.237107018607
 31
0.0
  0
LINE
  5
148
330
1F
100
AcDbEntity
  8
1
  6
Continuous
 62
     7
100
AcDbLine
 10
486.5345831846289
 20
323.2391699381831
 30
0.0
 11
486.6253985064662
 21
321.2412328577641
 31
0.0
  0
LINE
  5
149
330
1F
100
AcDbEntity
  8
1
  6
Continuous
 62
     7
100
AcDbLine
 10
486.7162138283035
 20
319.2432957773422
 30
0.0
 11
486.807029150141
 21
317.2453586969186
 31
0.0
  0
LINE
  5
14A
330
1F
100
AcDbEntity
  8
1
  6
Continuous
 62
     7
100
AcDbLine
 10
486.8978444719781
 20
315.2474216165016
 30
0.0
 11
486.9886597938154
 21
313.2494845360824
 31
0.0
  0
ARC
  5
14B
330
1F
100
AcDbEntity
  8
1
  6
Continuous
 62
     7
100
AcDbCircle
 10
488.3675390970795
 20
316.3152584424463
 30
0.0
 40
1.816666666706873
100
AcDbArc
 50
149.2040737355594
 51
216.0010506698856
  0
ARC
  5
14C
330
1F
100
AcDbEntity
  8
1
  6
Continuous
 62
     7
100
AcDbCircle
 10
488.1859084533303
 20
320.3111326032545
 30
0.0
 40
1.81666666662863
100
AcDbArc
 50
149.2040737332431
 51
216.0010506704166
  0
ARC
  5
14D
330
1F
100
AcDbEntity
  8
1
  6
Continuous
 62
     7
100
AcDbCircle
 10
488.0042778097327
 20
324.3070067640967
 30
0.0
 40
1.816666666686932
100
AcDbArc
 50
149.2040737343729
 51
216.0010506691227
  0
ARC
  5
14E
330
1F
100
AcDbEntity
  8
1
  6
Continuous
 62
     7
100
AcDbCircle
 10
487.8226471660379
 20
328.3028809249491
 30
0.0
 40
1.816666666671008
100
AcDbArc
 50
149.2040737343919
 51
216.0010506698223
  0
ARC
  5
14F
330
1F
100
AcDbEntity
  8
1
  6
Continuous
 62
     7
100
AcDbCircle
 10
470.000000000001
 20
315.4999999999999
 30
0.0
 40
12.5
100
AcDbArc
 50
323.130102354156
 51
348.623414078733
  0
LINE
  5
150
330
1F
100
AcDbEntity
  8
1
  6
Continuous
 62
     7
100
AcDbLine
 10
479.5000000000009
 20
334.9999999999999
 30
0.0
 11
478.4999999999995
 21
312.9999999999999
 31
0.0
  0
LINE
  5
151
330
1F
100
AcDbEntity
  8
1
  6
Continuous
 62
     7
100
AcDbLine
 10
478.4999999999993
 20
312.9999999999999
 30
0.0
 11
473.0113402061867
 21
313.2494845360823
 31
0.0
  0
LINE
  5
152
330
1F
100
AcDbEntity
  8
1
  6
Continuous
 62
     7
100
AcDbLine
 10
473.102155528024
 20
315.2474216165029
 30
0.0
 11
478.590815321837
 21
314.9979370804206
 31
0.0
  0
LINE
  5
153
330
1F
100
AcDbEntity
  8
1
  6
Continuous
 62
     7
100
AcDbLine
 10
473.1929708498612
 20
317.2453586969235
 30
0.0
 11
478.6816306436744
 21
316.9958741608411
 31
0.0
  0
LINE
  5
154
330
1F
100
AcDbEntity
  8
1
  6
Continuous
 62
     7
100
AcDbLine
 10
473.2837861716984
 20
319.2432957773443
 30
0.0
 11
478.7724459655118
 21
318.9938112412618
 31
0.0
  0
LINE
  5
155
330
1F
100
AcDbEntity
  8
1
  6
Continuous
 62
     7
100
AcDbLine
 10
473.3746014935357
 20
321.2412328577648
 30
0.0
 11
478.8632612873492
 21
320.9917483216823
 31
0.0
  0
LINE
  5
156
330
1F
100
AcDbEntity
  8
1
  6
Continuous
 62
     7
100
AcDbLine
 10
473.465416815373
 20
323.2391699381853
 30
0.0
 11
478.9540766091866
 21
322.9896854021029
 31
0.0
  0
LINE
  5
157
330
1F
100
AcDbEntity
  8
1
  6
Continuous
 62
     7
100
AcDbLine
 10
473.5562321372103
 20
325.2371070186059
 30
0.0
 11
479.044891931024
 21
324.9876224825234
 31
0.0
  0
LINE
  5
158
330
1F
100
AcDbEntity
  8
1
  6
Continuous
 62
     7
100
AcDbLine
 10
473.6470474590476
 20
327.2350440990265
 30
0.0
 11
479.1357072528614
 21
326.985559562944
 31
0.0
  0
LINE
  5
159
330
1F
100
AcDbEntity
  8
1
  6
Continuous
 62
     7
100
AcDbLine
 10
473.7378627808849
 20
329.2329811794471
 30
0.0
 11
479.2265225746988
 21
328.9834966433646
 31
0.0
  0
LINE
  5
15A
330
1F
100
AcDbEntity
  8
1
  6
Continuous
 62
     7
100
AcDbLine
 10
474.0000000000009
 20
334.9999999999999
 30
0.0
 11
473.7378627808848
 21
329.2329811794444
 31
0.0
  0
LINE
  5
15B
330
1F
100
AcDbEntity
  8
1
  6
Continuous
 62
     7
100
AcDbLine
 10
473.6470474590476
 20
327.2350440990265
 30
0.0
 11
473.5562321372104
 21
325.2371070186069
 31
0.0
  0
LINE
  5
15C
330
1F
100
AcDbEntity
  8
1
  6
Continuous
 62
     7
100
AcDbLine
 10
473.4654168153729
 20
323.239169938183
 30
0.0
 11
473.3746014935357
 21
321.241232857764
 31
0.0
  0
LINE
  5
15D
330
1F
100
AcDbEntity
  8
1
  6
Continuous
 62
     7
100
AcDbLine
 10
473.2837861716984
 20
319.2432957773421
 30
0.0
 11
473.192970849861
 21
317.2453586969185
 31
0.0
  0
LINE
  5
15E
330
1F
100
AcDbEntity
  8
1
  6
Continuous
 62
     7
100
AcDbLine
 10
473.1021555280239
 20
315.2474216165015
 30
0.0
 11
473.0113402061867
 21
313.2494845360823
 31
0.0
  0
ARC
  5
15F
330
1F
100
AcDbEntity
  8
1
  6
Continuous
 62
     7
100
AcDbCircle
 10
471.6324609029224
 20
316.3152584424462
 30
0.0
 40
1.816666666706873
100
AcDbArc
 50
323.9989493301157
 51
30.7959262644406
  0
ARC
  5
160
330
1F
100
AcDbEntity
  8
1
  6
Continuous
 62
     7
100
AcDbCircle
 10
471.8140915466716
 20
320.3111326032544
 30
0.0
 40
1.81666666662863
100
AcDbArc
 50
323.9989493295827
 51
30.79592626675685
  0
ARC
  5
161
330
1F
100
AcDbEntity
  8
1
  6
Continuous
 62
     7
100
AcDbCircle
 10
471.9957221902691
 20
324.3070067640966
 30
0.0
 40
1.816666666686932
100
AcDbArc
 50
323.9989493308765
 51
30.7959262656271
  0
ARC
  5
162
330
1F
100
AcDbEntity
  8
1
  6
Continuous
 62
     7
100
AcDbCircle
 10
472.1773528339639
 20
328.302880924949
 30
0.0
 40
1.816666666671008
100
AcDbArc
 50
323.998949330177
 51
30.7959262656081
  0
ARC
  5
163
330
1F
100
AcDbEntity
  8
1
  6
Continuous
 62
     7
100
AcDbCircle
 10
490.000000000001
 20
315.5
 30
0.0
 40
12.5
100
AcDbArc
 50
191.3765859212668
 51
216.869897645844
  0
LINE
  5
164
330
1F
100
AcDbEntity
  8
1
  6
DOT
 62
     7
100
AcDbLine
 10
485.2999993586892
 20
353.000000006393
 30
0.0
 11
486.0000000000007
 21
353.6999998064246
 31
0.0
  0
LINE
  5
165
330
1F
100
AcDbEntity
  8
1
  6
DOT
 62
     7
100
AcDbLine
 10
485.2999999977631
 20
353.0000000063933
 30
0.0
 11
486.0000000000007
 21
351.0
 31
0.0
  0
LINE
  5
166
330
1F
100
AcDbEntity
  8
1
  6
DOT
 62
     7
100
AcDbLine
 10
474.7000000000006
 20
353.0000001032071
 30
0.0
 11
473.9999998904007
 21
353.7000002128071
 31
0.0
  0
LINE
  5
167
330
1F
100
AcDbEntity
  8
1
  6
DOT
 62
     7
100
AcDbLine
 10
474.700000036123
 20
353.0000001032066
 30
0.0
 11
485.2999999977631
 21
353.0000000063933
 31
0.0
  0
LINE
  5
168
330
1F
100
AcDbEntity
  8
1
  6
DOT
 62
     7
100
AcDbLine
 10
474.700000036123
 20
353.0000001032066
 30
0.0
 11
474.0000000000007
 21
351.0000003131428
 31
0.0
  0
LINE
  5
169
330
1F
100
AcDbEntity
  8
1
  6
DOT
 62
     7
100
AcDbLine
 10
474.0000000000005
 20
351.0000003131606
 30
0.0
 11
486.0000000000007
 21
351.0
 31
0.0
  0
LINE
  5
16A
330
1F
100
AcDbEntity
  8
1
  6
DOT
 62
     7
100
AcDbLine
 10
473.9999998904007
 20
353.7000002127837
 30
0.0
 11
486.0000000000007
 21
353.7000006477044
 31
0.0
  0
LINE
  5
16B
330
1F
100
AcDbEntity
  8
1
  6
DOT
 62
     7
100
AcDbLine
 10
485.2999992887578
 20
362.0000003841798
 30
0.0
 11
485.299999890398
 21
353.7000006223337
 31
0.0
  0
LINE
  5
16C
330
1F
100
AcDbEntity
  8
1
  6
DOT
 62
     7
100
AcDbLine
 10
474.7000000000006
 20
361.9999999999999
 30
0.0
 11
474.7000000000006
 21
353.7000002381538
 31
0.0
  0
LINE
  5
16D
330
1F
100
AcDbEntity
  8
1
  6
DOT
 62
     7
100
AcDbLine
 10
473.9999998904006
 20
361.9999999999999
 30
0.0
 11
473.9999998904007
 21
353.7000002128071
 31
0.0
  0
LINE
  5
16E
330
1F
100
AcDbEntity
  8
1
  6
DOT
 62
     7
100
AcDbLine
 10
486.0000000000006
 20
362.0
 30
0.0
 11
486.0000000000007
 21
353.6999998064246
 31
0.0
  0
LINE
  5
16F
330
1F
100
AcDbEntity
  8
1
  6
DOT
 62
     7
100
AcDbLine
 10
476.5000000000005
 20
374.9999999999999
 30
0.0
 11
483.5000000000005
 21
375.0
 31
0.0
  0
LINE
  5
170
330
1F
100
AcDbEntity
  8
1
  6
DOT
 62
     7
100
AcDbLine
 10
482.5000000000005
 20
375.9999999999999
 30
0.0
 11
483.5000000000005
 21
375.0
 31
0.0
  0
LINE
  5
171
330
1F
100
AcDbEntity
  8
1
  6
DOT
 62
     7
100
AcDbLine
 10
477.5000000000005
 20
375.9999999999999
 30
0.0
 11
482.5000000000005
 21
375.9999999999999
 31
0.0
  0
LINE
  5
172
330
1F
100
AcDbEntity
  8
1
  6
DOT
 62
     7
100
AcDbLine
 10
476.5000000000005
 20
374.9999999999999
 30
0.0
 11
477.5000000000005
 21
375.9999999999999
 31
0.0
  0
LINE
  5
173
330
1F
100
AcDbEntity
  8
1
  6
DOT
 62
     7
100
AcDbLine
 10
483.5000000000005
 20
373.0
 30
0.0
 11
483.5000000000005
 21
375.0
 31
0.0
  0
LINE
  5
174
330
1F
100
AcDbEntity
  8
1
  6
DOT
 62
     7
100
AcDbLine
 10
476.5000000000005
 20
372.9999999999999
 30
0.0
 11
476.5000000000005
 21
374.9999999999999
 31
0.0
  0
LINE
  5
175
330
1F
100
AcDbEntity
  8
1
  6
DOT
 62
     7
100
AcDbLine
 10
488.9968915298678
 20
373.0
 30
0.0
 11
490.5624825207346
 21
371.5317014529297
 31
0.0
  0
LINE
  5
176
330
1F
100
AcDbEntity
  8
1
  6
DOT
 62
     7
100
AcDbLine
 10
470.9912911933901
 20
372.9999999999999
 30
0.0
 11
469.4371884938832
 21
371.5308076781464
 31
0.0
  0
LINE
  5
177
330
1F
100
AcDbEntity
  8
1
  6
DOT
 62
     7
100
AcDbLine
 10
470.9102780893293
 20
372.9999999999999
 30
0.0
 11
489.0000007852779
 21
373.0
 31
0.0
  0
ARC
  5
178
330
1F
100
AcDbEntity
  8
1
  6
DOT
 62
     7
100
AcDbCircle
 10
471.7727594493078
 20
369.2064655533682
 30
0.0
 40
3.293534446611249
100
AcDbArc
 50
33.62642913586981
 51
146.373570863843
  0
ARC
  5
179
330
1F
100
AcDbEntity
  8
1
  6
DOT
 62
     7
100
AcDbCircle
 10
488.2272421212097
 20
369.2064655533537
 30
0.0
 40
3.293534446624437
100
AcDbArc
 50
33.6264291361819
 51
146.3735708634687
  0
ARC
  5
17A
330
1F
100
AcDbEntity
  8
1
  6
DOT
 62
     7
100
AcDbCircle
 10
480.0000007852828
 20
361.5303448854395
 30
0.0
 40
10.96965511456848
100
AcDbArc
 50
59.99999999989965
 51
120.0000000001903
  0
LINE
  5
17B
330
1F
100
AcDbEntity
  8
1
  6
DOT
 62
     7
100
AcDbLine
 10
485.4848283425787
 20
363.0
 30
0.0
 11
485.4848283425787
 21
371.0303448853915
 31
0.0
  0
LINE
  5
17C
330
1F
100
AcDbEntity
  8
1
  6
DOT
 62
     7
100
AcDbLine
 10
474.515173227976
 20
362.9999999999999
 30
0.0
 11
474.515173227976
 21
371.0303448853914
 31
0.0
  0
LINE
  5
17D
330
1F
100
AcDbEntity
  8
1
  6
DOT
 62
     7
100
AcDbLine
 10
490.9696558998803
 20
371.0303448853977
 30
0.0
 11
490.9696558998805
 21
363.0000000000001
 31
0.0
  0
LINE
  5
17E
330
1F
100
AcDbEntity
  8
1
  6
DOT
 62
     7
100
AcDbLine
 10
469.0303456706751
 20
362.9999999999998
 30
0.0
 11
469.030345670675
 21
371.0303448853966
 31
0.0
  0
LINE
  5
17F
330
1F
100
AcDbEntity
  8
1
  6
DOT
 62
     7
100
AcDbLine
 10
492.5000000000006
 20
363.0000000000001
 30
0.0
 11
492.5000000000006
 21
362.0000000000001
 31
0.0
  0
LINE
  5
180
330
1F
100
AcDbEntity
  8
1
  6
DOT
 62
     7
100
AcDbLine
 10
467.5000000000006
 20
362.9999999999998
 30
0.0
 11
492.5000000000006
 21
363.0000000000001
 31
0.0
  0
LINE
  5
181
330
1F
100
AcDbEntity
  8
1
  6
DOT
 62
     7
100
AcDbLine
 10
467.5000000000006
 20
361.9999999999998
 30
0.0
 11
467.5000000000006
 21
362.9999999999998
 31
0.0
  0
LINE
  5
182
330
1F
100
AcDbEntity
  8
1
  6
Continuous
 62
     7
100
AcDbLine
 10
474.0000000000007
 20
350.0
 30
0.0
 11
474.0000000000009
 21
334.9999999999999
 31
0.0
  0
LINE
  5
183
330
1F
100
AcDbEntity
  8
1
  6
Continuous
 62
     7
100
AcDbLine
 10
486.0000000000009
 20
335.0
 30
0.0
 11
486.0000000000007
 21
350.0000000000001
 31
0.0
  0
LINE
  5
184
330
1F
100
AcDbEntity
  8
1
  6
DOT
 62
     7
100
AcDbLine
 10
474.0000000000007
 20
351.0000003131428
 30
0.0
 11
474.000000000001
 21
350.0000000000001
 31
0.0
  0
LINE
  5
185
330
1F
100
AcDbEntity
  8
1
  6
DOT
 62
     7
100
AcDbLine
 10
486.0000000000008
 20
350.0000000000002
 30
0.0
 11
486.0000000000007
 21
351.0
 31
0.0
  0
LINE
  5
186
330
1F
100
AcDbEntity
  8
1
  6
DOT
 62
     7
100
AcDbLine
 10
486.5000002287664
 20
362.0
 30
0.0
 11
486.5000002287665
 21
350.0000000000001
 31
0.0
  0
LINE
  5
187
330
1F
100
AcDbEntity
  8
1
  6
DOT
 62
     7
100
AcDbLine
 10
473.5000002287663
 20
362.0000000000001
 30
0.0
 11
473.5000002287665
 21
350.0
 31
0.0
  0
LINE
  5
188
330
1F
100
AcDbEntity
  8
1
  6
DOT
 62
     7
100
AcDbLine
 10
457.7928912145018
 20
361.9999999999998
 30
0.0
 11
503.0000000042345
 21
362.0000000000001
 31
0.0
  0
LINE
  5
189
330
1F
100
AcDbEntity
  8
1
  6
DOT
 62
     7
100
AcDbLine
 10
503.0000000042345
 20
362.0000000000001
 30
0.0
 11
505.5690819424859
 21
435.5688815132228
 31
0.0
  0
LINE
  5
18A
330
1F
100
AcDbEntity
  8
1
  6
Continuous
 62
     7
100
AcDbLine
 10
960.4999999999991
 20
334.9999999999999
 30
0.0
 11
959.4999999999991
 21
334.9999999999999
 31
0.0
  0
LINE
  5
18B
330
1F
100
AcDbEntity
  8
1
  6
Continuous
 62
     7
100
AcDbLine
 10
959.4999999999991
 20
334.9999999999999
 30
0.0
 11
958.4999999999975
 21
312.9999999999999
 31
0.0
  0
LINE
  5
18C
330
1F
100
AcDbEntity
  8
1
  6
Continuous
 62
     7
100
AcDbLine
 10
958.4999999999973
 20
312.9999999999999
 30
0.0
 11
953.0113402061846
 21
313.2494845360824
 31
0.0
  0
LINE
  5
18D
330
1F
100
AcDbEntity
  8
1
  6
Continuous
 62
     7
100
AcDbLine
 10
953.102155528022
 20
315.247421616503
 30
0.0
 11
958.590815321835
 21
314.9979370804206
 31
0.0
  0
LINE
  5
18E
330
1F
100
AcDbEntity
  8
1
  6
Continuous
 62
     7
100
AcDbLine
 10
953.1929708498592
 20
317.2453586969236
 30
0.0
 11
958.6816306436724
 21
316.9958741608411
 31
0.0
  0
LINE
  5
18F
330
1F
100
AcDbEntity
  8
1
  6
Continuous
 62
     7
100
AcDbLine
 10
953.2837861716964
 20
319.2432957773444
 30
0.0
 11
958.7724459655099
 21
318.9938112412618
 31
0.0
  0
LINE
  5
190
330
1F
100
AcDbEntity
  8
1
  6
Continuous
 62
     7
100
AcDbLine
 10
953.3746014935339
 20
321.2412328577649
 30
0.0
 11
958.8632612873473
 21
320.9917483216823
 31
0.0
  0
LINE
  5
191
330
1F
100
AcDbEntity
  8
1
  6
Continuous
 62
     7
100
AcDbLine
 10
953.4654168153712
 20
323.2391699381855
 30
0.0
 11
958.9540766091848
 21
322.9896854021029
 31
0.0
  0
LINE
  5
192
330
1F
100
AcDbEntity
  8
1
  6
Continuous
 62
     7
100
AcDbLine
 10
953.5562321372084
 20
325.237107018606
 30
0.0
 11
959.0448919310222
 21
324.9876224825234
 31
0.0
  0
LINE
  5
193
330
1F
100
AcDbEntity
  8
1
  6
Continuous
 62
     7
100
AcDbLine
 10
953.6470474590458
 20
327.2350440990267
 30
0.0
 11
959.1357072528596
 21
326.985559562944
 31
0.0
  0
LINE
  5
194
330
1F
100
AcDbEntity
  8
1
  6
Continuous
 62
     7
100
AcDbLine
 10
953.7378627808831
 20
329.2329811794472
 30
0.0
 11
959.226522574697
 21
328.9834966433646
 31
0.0
  0
LINE
  5
195
330
1F
100
AcDbEntity
  8
1
  6
Continuous
 62
     7
100
AcDbLine
 10
953.9999999999991
 20
335.0
 30
0.0
 11
953.737862780883
 21
329.2329811794446
 31
0.0
  0
LINE
  5
196
330
1F
100
AcDbEntity
  8
1
  6
Continuous
 62
     7
100
AcDbLine
 10
953.6470474590458
 20
327.2350440990267
 30
0.0
 11
953.5562321372086
 21
325.237107018607
 31
0.0
  0
LINE
  5
197
330
1F
100
AcDbEntity
  8
1
  6
Continuous
 62
     7
100
AcDbLine
 10
953.4654168153711
 20
323.2391699381831
 30
0.0
 11
953.3746014935339
 21
321.2412328577641
 31
0.0
  0
LINE
  5
198
330
1F
100
AcDbEntity
  8
1
  6
Continuous
 62
     7
100
AcDbLine
 10
953.2837861716964
 20
319.2432957773422
 30
0.0
 11
953.192970849859
 21
317.2453586969186
 31
0.0
  0
LINE
  5
199
330
1F
100
AcDbEntity
  8
1
  6
Continuous
 62
     7
100
AcDbLine
 10
953.1021555280219
 20
315.2474216165016
 30
0.0
 11
953.0113402061846
 21
313.2494845360824
 31
0.0
  0
ARC
  5
19A
330
1F
100
AcDbEntity
  8
1
  6
Continuous
 62
     7
100
AcDbCircle
 10
951.6324609029205
 20
316.3152584424463
 30
0.0
 40
1.816666666706873
100
AcDbArc
 50
323.9989493301147
 51
30.7959262644406
  0
ARC
  5
19B
330
1F
100
AcDbEntity
  8
1
  6
Continuous
 62
     7
100
AcDbCircle
 10
951.8140915466697
 20
320.3111326032545
 30
0.0
 40
1.81666666662863
100
AcDbArc
 50
323.9989493295806
 51
30.79592626675685
  0
ARC
  5
19C
330
1F
100
AcDbEntity
  8
1
  6
Continuous
 62
     7
100
AcDbCircle
 10
951.9957221902673
 20
324.3070067640967
 30
0.0
 40
1.816666666686932
100
AcDbArc
 50
323.9989493308765
 51
30.7959262656271
  0
ARC
  5
19D
330
1F
100
AcDbEntity
  8
1
  6
Continuous
 62
     7
100
AcDbCircle
 10
952.1773528339621
 20
328.3028809249491
 30
0.0
 40
1.816666666671008
100
AcDbArc
 50
323.998949330177
 51
30.7959262656081
  0
ARC
  5
19E
330
1F
100
AcDbEntity
  8
1
  6
Continuous
 62
     7
100
AcDbCircle
 10
969.999999999999
 20
315.4999999999999
 30
0.0
 40
12.5
100
AcDbArc
 50
191.3765859212663
 51
216.8698976458431
  0
LINE
  5
19F
330
1F
100
AcDbEntity
  8
1
  6
Continuous
 62
     7
100
AcDbLine
 10
960.4999999999991
 20
334.9999999999999
 30
0.0
 11
961.5000000000005
 21
312.9999999999999
 31
0.0
  0
LINE
  5
1A0
330
1F
100
AcDbEntity
  8
1
  6
Continuous
 62
     7
100
AcDbLine
 10
961.5000000000007
 20
312.9999999999999
 30
0.0
 11
966.9886597938133
 21
313.2494845360823
 31
0.0
  0
LINE
  5
1A1
330
1F
100
AcDbEntity
  8
1
  6
Continuous
 62
     7
100
AcDbLine
 10
966.897844471976
 20
315.2474216165029
 30
0.0
 11
961.409184678163
 21
314.9979370804206
 31
0.0
  0
LINE
  5
1A2
330
1F
100
AcDbEntity
  8
1
  6
Continuous
 62
     7
100
AcDbLine
 10
966.8070291501388
 20
317.2453586969235
 30
0.0
 11
961.3183693563255
 21
316.9958741608411
 31
0.0
  0
LINE
  5
1A3
330
1F
100
AcDbEntity
  8
1
  6
Continuous
 62
     7
100
AcDbLine
 10
966.7162138283015
 20
319.2432957773443
 30
0.0
 11
961.2275540344881
 21
318.9938112412618
 31
0.0
  0
LINE
  5
1A4
330
1F
100
AcDbEntity
  8
1
  6
Continuous
 62
     7
100
AcDbLine
 10
966.6253985064643
 20
321.2412328577648
 30
0.0
 11
961.1367387126509
 21
320.9917483216823
 31
0.0
  0
LINE
  5
1A5
330
1F
100
AcDbEntity
  8
1
  6
Continuous
 62
     7
100
AcDbLine
 10
966.534583184627
 20
323.2391699381853
 30
0.0
 11
961.0459233908134
 21
322.9896854021029
 31
0.0
  0
LINE
  5
1A6
330
1F
100
AcDbEntity
  8
1
  6
Continuous
 62
     7
100
AcDbLine
 10
966.4437678627897
 20
325.2371070186059
 30
0.0
 11
960.955108068976
 21
324.9876224825234
 31
0.0
  0
LINE
  5
1A7
330
1F
100
AcDbEntity
  8
1
  6
Continuous
 62
     7
100
AcDbLine
 10
966.3529525409524
 20
327.2350440990265
 30
0.0
 11
960.8642927471386
 21
326.985559562944
 31
0.0
  0
LINE
  5
1A8
330
1F
100
AcDbEntity
  8
1
  6
Continuous
 62
     7
100
AcDbLine
 10
966.2621372191151
 20
329.2329811794471
 30
0.0
 11
960.7734774253012
 21
328.9834966433646
 31
0.0
  0
LINE
  5
1A9
330
1F
100
AcDbEntity
  8
1
  6
Continuous
 62
     7
100
AcDbLine
 10
965.9999999999991
 20
334.9999999999999
 30
0.0
 11
966.2621372191152
 21
329.2329811794444
 31
0.0
  0
LINE
  5
1AA
330
1F
100
AcDbEntity
  8
1
  6
Continuous
 62
     7
100
AcDbLine
 10
966.3529525409524
 20
327.2350440990265
 30
0.0
 11
966.4437678627896
 21
325.2371070186069
 31
0.0
  0
LINE
  5
1AB
330
1F
100
AcDbEntity
  8
1
  6
Continuous
 62
     7
100
AcDbLine
 10
966.5345831846271
 20
323.239169938183
 30
0.0
 11
966.6253985064643
 21
321.241232857764
 31
0.0
  0
LINE
  5
1AC
330
1F
100
AcDbEntity
  8
1
  6
Continuous
 62
     7
100
AcDbLine
 10
966.7162138283015
 20
319.2432957773421
 30
0.0
 11
966.807029150139
 21
317.2453586969185
 31
0.0
  0
LINE
  5
1AD
330
1F
100
AcDbEntity
  8
1
  6
Continuous
 62
     7
100
AcDbLine
 10
966.8978444719761
 20
315.2474216165015
 30
0.0
 11
966.9886597938133
 21
313.2494845360823
 31
0.0
  0
ARC
  5
1AE
330
1F
100
AcDbEntity
  8
1
  6
Continuous
 62
     7
100
AcDbCircle
 10
968.3675390970775
 20
316.3152584424462
 30
0.0
 40
1.816666666706873
100
AcDbArc
 50
149.2040737355594
 51
216.0010506698846
  0
ARC
  5
1AF
330
1F
100
AcDbEntity
  8
1
  6
Continuous
 62
     7
100
AcDbCircle
 10
968.1859084533285
 20
320.3111326032544
 30
0.0
 40
1.81666666662863
100
AcDbArc
 50
149.2040737332431
 51
216.0010506704145
  0
ARC
  5
1B0
330
1F
100
AcDbEntity
  8
1
  6
Continuous
 62
     7
100
AcDbCircle
 10
968.0042778097309
 20
324.3070067640966
 30
0.0
 40
1.816666666686932
100
AcDbArc
 50
149.2040737343729
 51
216.0010506691227
  0
ARC
  5
1B1
330
1F
100
AcDbEntity
  8
1
  6
Continuous
 62
     7
100
AcDbCircle
 10
967.8226471660361
 20
328.302880924949
 30
0.0
 40
1.816666666671008
100
AcDbArc
 50
149.2040737343919
 51
216.0010506698223
  0
ARC
  5
1B2
330
1F
100
AcDbEntity
  8
1
  6
Continuous
 62
     7
100
AcDbCircle
 10
949.999999999999
 20
315.5
 30
0.0
 40
12.5
100
AcDbArc
 50
323.1301023541552
 51
348.6234140787325
  0
LINE
  5
1B3
330
1F
100
AcDbEntity
  8
1
  6
DOT
 62
     7
100
AcDbLine
 10
954.7000006413108
 20
353.000000006393
 30
0.0
 11
953.9999999999993
 21
353.6999998064246
 31
0.0
  0
LINE
  5
1B4
330
1F
100
AcDbEntity
  8
1
  6
DOT
 62
     7
100
AcDbLine
 10
954.700000002237
 20
353.0000000063933
 30
0.0
 11
953.9999999999993
 21
351.0
 31
0.0
  0
LINE
  5
1B5
330
1F
100
AcDbEntity
  8
1
  6
DOT
 62
     7
100
AcDbLine
 10
965.2999999999994
 20
353.0000001032071
 30
0.0
 11
966.0000001095993
 21
353.7000002128071
 31
0.0
  0
LINE
  5
1B6
330
1F
100
AcDbEntity
  8
1
  6
DOT
 62
     7
100
AcDbLine
 10
965.299999963877
 20
353.0000001032066
 30
0.0
 11
954.700000002237
 21
353.0000000063933
 31
0.0
  0
LINE
  5
1B7
330
1F
100
AcDbEntity
  8
1
  6
DOT
 62
     7
100
AcDbLine
 10
965.299999963877
 20
353.0000001032066
 30
0.0
 11
965.9999999999993
 21
351.0000003131428
 31
0.0
  0
LINE
  5
1B8
330
1F
100
AcDbEntity
  8
1
  6
DOT
 62
     7
100
AcDbLine
 10
965.9999999999995
 20
351.0000003131606
 30
0.0
 11
953.9999999999993
 21
351.0
 31
0.0
  0
LINE
  5
1B9
330
1F
100
AcDbEntity
  8
1
  6
DOT
 62
     7
100
AcDbLine
 10
966.0000001095993
 20
353.7000002127837
 30
0.0
 11
953.9999999999993
 21
353.7000006477044
 31
0.0
  0
LINE
  5
1BA
330
1F
100
AcDbEntity
  8
1
  6
DOT
 62
     7
100
AcDbLine
 10
954.7000007112422
 20
362.0000003841798
 30
0.0
 11
954.700000109602
 21
353.7000006223337
 31
0.0
  0
LINE
  5
1BB
330
1F
100
AcDbEntity
  8
1
  6
DOT
 62
     7
100
AcDbLine
 10
965.2999999999995
 20
361.9999999999999
 30
0.0
 11
965.2999999999994
 21
353.7000002381538
 31
0.0
  0
LINE
  5
1BC
330
1F
100
AcDbEntity
  8
1
  6
DOT
 62
     7
100
AcDbLine
 10
966.0000001095993
 20
361.9999999999999
 30
0.0
 11
966.0000001095993
 21
353.7000002128071
 31
0.0
  0
LINE
  5
1BD
330
1F
100
AcDbEntity
  8
1
  6
DOT
 62
     7
100
AcDbLine
 10
953.9999999999993
 20
362.0
 30
0.0
 11
953.9999999999993
 21
353.6999998064246
 31
0.0
  0
LINE
  5
1BE
330
1F
100
AcDbEntity
  8
1
  6
DOT
 62
     7
100
AcDbLine
 10
963.4999999999995
 20
374.9999999999999
 30
0.0
 11
956.4999999999995
 21
375.0
 31
0.0
  0
LINE
  5
1BF
330
1F
100
AcDbEntity
  8
1
  6
DOT
 62
     7
100
AcDbLine
 10
957.4999999999995
 20
375.9999999999999
 30
0.0
 11
956.4999999999995
 21
375.0
 31
0.0
  0
LINE
  5
1C0
330
1F
100
AcDbEntity
  8
1
  6
DOT
 62
     7
100
AcDbLine
 10
962.4999999999995
 20
375.9999999999999
 30
0.0
 11
957.4999999999995
 21
375.9999999999999
 31
0.0
  0
LINE
  5
1C1
330
1F
100
AcDbEntity
  8
1
  6
DOT
 62
     7
100
AcDbLine
 10
963.4999999999995
 20
374.9999999999999
 30
0.0
 11
962.4999999999995
 21
375.9999999999999
 31
0.0
  0
LINE
  5
1C2
330
1F
100
AcDbEntity
  8
1
  6
DOT
 62
     7
100
AcDbLine
 10
956.4999999999995
 20
373.0
 30
0.0
 11
956.4999999999995
 21
375.0
 31
0.0
  0
LINE
  5
1C3
330
1F
100
AcDbEntity
  8
1
  6
DOT
 62
     7
100
AcDbLine
 10
963.4999999999995
 20
372.9999999999999
 30
0.0
 11
963.4999999999995
 21
374.9999999999999
 31
0.0
  0
LINE
  5
1C4
330
1F
100
AcDbEntity
  8
1
  6
DOT
 62
     7
100
AcDbLine
 10
951.0031084701322
 20
373.0
 30
0.0
 11
949.4375174792654
 21
371.5317014529297
 31
0.0
  0
LINE
  5
1C5
330
1F
100
AcDbEntity
  8
1
  6
DOT
 62
     7
100
AcDbLine
 10
969.00870880661
 20
372.9999999999999
 30
0.0
 11
970.5628115061168
 21
371.5308076781464
 31
0.0
  0
LINE
  5
1C6
330
1F
100
AcDbEntity
  8
1
  6
DOT
 62
     7
100
AcDbLine
 10
969.0897219106707
 20
372.9999999999999
 30
0.0
 11
950.999999214722
 21
373.0
 31
0.0
  0
ARC
  5
1C7
330
1F
100
AcDbEntity
  8
1
  6
DOT
 62
     7
100
AcDbCircle
 10
968.2272405506922
 20
369.2064655533682
 30
0.0
 40
3.293534446611249
100
AcDbArc
 50
33.62642913615696
 51
146.3735708641302
  0
ARC
  5
1C8
330
1F
100
AcDbEntity
  8
1
  6
DOT
 62
     7
100
AcDbCircle
 10
951.7727578787903
 20
369.2064655533537
 30
0.0
 40
3.293534446624437
100
AcDbArc
 50
33.62642913653131
 51
146.3735708638181
  0
ARC
  5
1C9
330
1F
100
AcDbEntity
  8
1
  6
DOT
 62
     7
100
AcDbCircle
 10
959.9999992147173
 20
361.5303448854395
 30
0.0
 40
10.96965511456848
100
AcDbArc
 50
59.99999999980997
 51
120.0000000001006
  0
LINE
  5
1CA
330
1F
100
AcDbEntity
  8
1
  6
DOT
 62
     7
100
AcDbLine
 10
954.5151716574212
 20
363.0
 30
0.0
 11
954.5151716574213
 21
371.0303448853915
 31
0.0
  0
LINE
  5
1CB
330
1F
100
AcDbEntity
  8
1
  6
DOT
 62
     7
100
AcDbLine
 10
965.484826772024
 20
362.9999999999999
 30
0.0
 11
965.484826772024
 21
371.0303448853914
 31
0.0
  0
LINE
  5
1CC
330
1F
100
AcDbEntity
  8
1
  6
DOT
 62
     7
100
AcDbLine
 10
949.0303441001197
 20
371.0303448853977
 30
0.0
 11
949.0303441001195
 21
363.0000000000001
 31
0.0
  0
LINE
  5
1CD
330
1F
100
AcDbEntity
  8
1
  6
DOT
 62
     7
100
AcDbLine
 10
970.9696543293248
 20
362.9999999999998
 30
0.0
 11
970.969654329325
 21
371.0303448853966
 31
0.0
  0
LINE
  5
1CE
330
1F
100
AcDbEntity
  8
1
  6
DOT
 62
     7
100
AcDbLine
 10
947.4999999999993
 20
363.0000000000001
 30
0.0
 11
947.4999999999993
 21
362.0000000000001
 31
0.0
  0
LINE
  5
1CF
330
1F
100
AcDbEntity
  8
1
  6
DOT
 62
     7
100
AcDbLine
 10
972.4999999999993
 20
362.9999999999998
 30
0.0
 11
947.4999999999993
 21
363.0000000000001
 31
0.0
  0
LINE
  5
1D0
330
1F
100
AcDbEntity
  8
1
  6
DOT
 62
     7
100
AcDbLine
 10
972.4999999999993
 20
361.9999999999998
 30
0.0
 11
972.4999999999993
 21
362.9999999999998
 31
0.0
  0
LINE
  5
1D1
330
1F
100
AcDbEntity
  8
1
  6
Continuous
 62
     7
100
AcDbLine
 10
965.9999999999993
 20
350.0
 30
0.0
 11
965.9999999999991
 21
334.9999999999999
 31
0.0
  0
LINE
  5
1D2
330
1F
100
AcDbEntity
  8
1
  6
Continuous
 62
     7
100
AcDbLine
 10
953.9999999999991
 20
335.0
 30
0.0
 11
953.9999999999993
 21
350.0000000000001
 31
0.0
  0
LINE
  5
1D3
330
1F
100
AcDbEntity
  8
1
  6
DOT
 62
     7
100
AcDbLine
 10
965.9999999999993
 20
351.0000003131428
 30
0.0
 11
965.9999999999991
 21
350.0000000000001
 31
0.0
  0
LINE
  5
1D4
330
1F
100
AcDbEntity
  8
1
  6
DOT
 62
     7
100
AcDbLine
 10
953.9999999999992
 20
350.0000000000002
 30
0.0
 11
953.9999999999993
 21
351.0
 31
0.0
  0
LINE
  5
1D5
330
1F
100
AcDbEntity
  8
1
  6
DOT
 62
     7
100
AcDbLine
 10
953.4999997712337
 20
362.0
 30
0.0
 11
953.4999997712334
 21
350.0000000000001
 31
0.0
  0
LINE
  5
1D6
330
1F
100
AcDbEntity
  8
1
  6
DOT
 62
     7
100
AcDbLine
 10
966.4999997712337
 20
362.0000000000001
 30
0.0
 11
966.4999997712335
 21
350.0
 31
0.0
  0
DIMENSION
  5
1E8
330
1F
100
AcDbEntity
  8
1
  6
Continuous
 62
     7
100
AcDbDimension
  2
Dim3
 10
472.721227774979
 20
426.7055787373293
 30
0.0
 11
474.4253198564007
 21
432.458497142629
 31
0.0
 70
   165
  1
33°
 71
     5
 42
-1.0
 73
     0
 74
     0
 75
     0
  3
Standard
100
AcDb3PointAngularDimension
 13
493.5711231127098
 23
417.0936452480738
 33
0.0
 14
450.0000000453808
 24
430.0
 34
0.0
 15
450.0000000226903
 25
350.0
 35
0.0
1001
ACAD
1000
DSTYLE
1002
{
1070
   344
1005
0
1070
   343
1005
0
1070
   173
1070
     1
1070
   289
1070
     2
1070
   279
1070
     2
1070
   288
1070
     1
1070
    77
1070
     1
1070
   172
1070
     1
1070
   174
1070
     0
1070
    74
1070
     0
1070
    73
1070
     0
1070
   284
1070
     8
1070
    78
1070
     8
1070
   140
1040
4.0
1070
    40
1040
1.0
1070
    42
1040
2.0
1070
    44
1040
2.0
1070
    43
1040
10.0
1070
   271
1070
     2
1070
    41
1040
4.0
1002
}
  0
CIRCLE
  5
1E9
330
1F
100
AcDbEntity
  8
1
  6
Continuous
 62
     7
100
AcDbCircle
 10
573.0
 20
381.0000000000013
 30
0.0
 40
20.0
  0
CIRCLE
  5
1EA
330
1F
100
AcDbEntity
  8
1
  6
Continuous
 62
     7
100
AcDbCircle
 10
573.0
 20
381.0000000000013
 30
0.0
 40
25.0
  0
INSERT
  5
24A
330
1F
100
AcDbEntity
  8
0
100
AcDbBlockReference
  2
*G15
 10
0.0
 20
0.0
 30
0.0
  0
DIMENSION
  5
25E
330
1F
100
AcDbEntity
  8
1
  6
Continuous
 62
     7
100
AcDbDimension
  2
Dim4
 10
420.0
 20
381.000000000002
 30
0.0
 11
414.0
 21
365.5000000000011
 31
0.0
 70
   160
  1
<>
 71
     5
 42
-1.0
 73
     0
 74
     0
 75
     0
  3
Standard
100
AcDbAlignedDimension
 13
880.3206773618539
 23
381.0000000000005
 33
0.0
 14
450.0000000453807
 24
350.0
 34
0.0
 50
89.99999999999991
100
AcDbRotatedDimension
1001
ACAD
1000
DSTYLE
1002
{
1070
   344
1005
0
1070
   343
1005
0
1070
   173
1070
     1
1070
   289
1070
     2
1070
   279
1070
     2
1070
   288
1070
     1
1070
    77
1070
     3
1070
   172
1070
     1
1070
   174
1070
     0
1070
    74
1070
     0
1070
    73
1070
     0
1070
   284
1070
     8
1070
    78
1070
     8
1070
   140
1040
4.0
1070
    40
1040
1.0
1070
    42
1040
2.0
1070
    44
1040
2.0
1070
    43
1040
10.0
1070
   271
1070
     2
1070
    41
1040
4.0
1002
}
  0
CIRCLE
  5
25F
330
1F
100
AcDbEntity
  8
1
  6
Continuous
 62
     7
100
AcDbCircle
 10
867.0000003061618
 20
381.0000000000005
 30
0.0
 40
20.0
  0
CIRCLE
  5
260
330
1F
100
AcDbEntity
  8
1
  6
Continuous
 62
     7
100
AcDbCircle
 10
867.0000003061618
 20
381.0000000000005
 30
0.0
 40
25.0
  0
INSERT
  5
2C0
330
1F
100
AcDbEntity
  8
0
100
AcDbBlockReference
  2
*G17
 10
0.0
 20
0.0
 30
0.0
  0
ARC
  5
2C1
330
1F
100
AcDbEntity
  8
1
  6
Continuous
 62
     7
100
AcDbCircle
 10
699.0
 20
207.4999999999995
 30
0.0
 40
3.0
100
AcDbArc
 50
289.4712206344904
 51
340.5287793655091
  0
ARC
  5
2C2
330
1F
100
AcDbEntity
  8
1
  6
Continuous
 62
     7
100
AcDbCircle
 10
699.0
 20
207.4999999999995
 30
0.0
 40
3.0
100
AcDbArc
 50
19.47122063449055
 51
70.52877936550927
  0
ARC
  5
2C3
330
1F
100
AcDbEntity
  8
1
  6
Continuous
 62
     7
100
AcDbCircle
 10
699.0
 20
207.4999999999995
 30
0.0
 40
3.0
100
AcDbArc
 50
109.4712206344907
 51
160.5287793655095
  0
ARC
  5
2C4
330
1F
100
AcDbEntity
  8
1
  6
Continuous
 62
     7
100
AcDbCircle
 10
699.0
 20
207.4999999999995
 30
0.0
 40
3.0
100
AcDbArc
 50
199.4712206344902
 51
250.5287793655089
  0
LINE
  5
2C5
330
1F
100
AcDbEntity
  8
1
  6
Continuous
 62
     7
100
AcDbLine
 10
701.8284271247462
 20
208.4999999999995
 30
0.0
 11
720.0
 21
208.5
 31
0.0
  0
LINE
  5
2C6
330
1F
100
AcDbEntity
  8
1
  6
Continuous
 62
     7
100
AcDbLine
 10
701.8284271247462
 20
206.4999999999995
 30
0.0
 11
720.0
 21
206.5
 31
0.0
  0
ARC
  5
2C7
330
1F
100
AcDbEntity
  8
1
  6
Continuous
 62
     7
100
AcDbCircle
 10
699.0
 20
207.4999999999995
 30
0.0
 40
3.0
100
AcDbArc
 50
289.4712206344904
 51
340.5287793655091
  0
LINE
  5
2C8
330
1F
100
AcDbEntity
  8
1
  6
Continuous
 62
     7
100
AcDbLine
 10
701.8284271247462
 20
206.4999999999995
 30
0.0
 11
720.0
 21
206.5
 31
0.0
  0
ARC
  5
2C9
330
1F
100
AcDbEntity
  8
1
  6
Continuous
 62
     7
100
AcDbCircle
 10
699.0
 20
207.4999999999995
 30
0.0
 40
3.0
100
AcDbArc
 50
199.4712206344902
 51
250.5287793655089
  0
ARC
  5
2CA
330
1F
100
AcDbEntity
  8
1
  6
Continuous
 62
     7
100
AcDbCircle
 10
657.0000000000001
 20
207.5
 30
0.0
 40
3.0
100
AcDbArc
 50
289.4712206344904
 51
340.5287793655091
  0
ARC
  5
2CB
330
1F
100
AcDbEntity
  8
1
  6
Continuous
 62
     7
100
AcDbCircle
 10
657.0000000000001
 20
207.5
 30
0.0
 40
3.0
100
AcDbArc
 50
19.47122063449055
 51
70.52877936550927
  0
ARC
  5
2CC
330
1F
100
AcDbEntity
  8
1
  6
Continuous
 62
     7
100
AcDbCircle
 10
657.0000000000001
 20
207.5
 30
0.0
 40
3.0
100
AcDbArc
 50
109.4712206344907
 51
160.5287793655095
  0
ARC
  5
2CD
330
1F
100
AcDbEntity
  8
1
  6
Continuous
 62
     7
100
AcDbCircle
 10
657.0000000000001
 20
207.5
 30
0.0
 40
3.0
100
AcDbArc
 50
199.4712206344902
 51
250.5287793655089
  0
ARC
  5
2CE
330
1F
100
AcDbEntity
  8
1
  6
Continuous
 62
     7
100
AcDbCircle
 10
657.0000000000001
 20
207.5
 30
0.0
 40
3.0
100
AcDbArc
 50
289.4712206344904
 51
340.5287793655091
  0
ARC
  5
2CF
330
1F
100
AcDbEntity
  8
1
  6
Continuous
 62
     7
100
AcDbCircle
 10
657.0000000000001
 20
207.5
 30
0.0
 40
3.0
100
AcDbArc
 50
199.4712206344902
 51
250.5287793655089
  0
LINE
  5
2D0
330
1F
100
AcDbEntity
  8
1
  6
Continuous
 62
     7
100
AcDbLine
 10
659.8284271247463
 20
208.5
 30
0.0
 11
696.1715728752538
 21
208.4999999999995
 31
0.0
  0
LINE
  5
2D1
330
1F
100
AcDbEntity
  8
1
  6
Continuous
 62
     7
100
AcDbLine
 10
659.8284271247463
 20
206.5
 30
0.0
 11
696.1715728752538
 21
206.4999999999995
 31
0.0
  0
LINE
  5
2D2
330
1F
100
AcDbEntity
  8
1
  6
Continuous
 62
     7
100
AcDbLine
 10
659.8284271247463
 20
206.5
 30
0.0
 11
696.1715728752538
 21
206.4999999999995
 31
0.0
  0
ARC
  5
2D3
330
1F
100
AcDbEntity
  8
1
  6
Continuous
 62
     7
100
AcDbCircle
 10
615.0
 20
207.4999999999995
 30
0.0
 40
3.0
100
AcDbArc
 50
289.4712206344904
 51
340.5287793655091
  0
ARC
  5
2D4
330
1F
100
AcDbEntity
  8
1
  6
Continuous
 62
     7
100
AcDbCircle
 10
615.0
 20
207.4999999999995
 30
0.0
 40
3.0
100
AcDbArc
 50
19.47122063449055
 51
70.52877936550927
  0
ARC
  5
2D5
330
1F
100
AcDbEntity
  8
1
  6
Continuous
 62
     7
100
AcDbCircle
 10
615.0
 20
207.4999999999995
 30
0.0
 40
3.0
100
AcDbArc
 50
199.4712206344902
 51
250.5287793655089
  0
ARC
  5
2D6
330
1F
100
AcDbEntity
  8
1
  6
Continuous
 62
     7
100
AcDbCircle
 10
615.0
 20
207.4999999999995
 30
0.0
 40
3.0
100
AcDbArc
 50
109.4712206344907
 51
160.5287793655095
  0
ARC
  5
2D7
330
1F
100
AcDbEntity
  8
1
  6
Continuous
 62
     7
100
AcDbCircle
 10
615.0
 20
207.4999999999995
 30
0.0
 40
3.0
100
AcDbArc
 50
289.4712206344904
 51
340.5287793655091
  0
ARC
  5
2D8
330
1F
100
AcDbEntity
  8
1
  6
Continuous
 62
     7
100
AcDbCircle
 10
615.0
 20
207.4999999999995
 30
0.0
 40
3.0
100
AcDbArc
 50
199.4712206344902
 51
250.5287793655089
  0
LINE
  5
2D9
330
1F
100
AcDbEntity
  8
1
  6
Continuous
 62
     7
100
AcDbLine
 10
617.8284271247462
 20
208.4999999999995
 30
0.0
 11
654.1715728752539
 21
208.5
 31
0.0
  0
LINE
  5
2DA
330
1F
100
AcDbEntity
  8
1
  6
Continuous
 62
     7
100
AcDbLine
 10
617.8284271247462
 20
206.4999999999995
 30
0.0
 11
654.1715728752539
 21
206.5
 31
0.0
  0
LINE
  5
2DB
330
1F
100
AcDbEntity
  8
1
  6
Continuous
 62
     7
100
AcDbLine
 10
617.8284271247462
 20
206.4999999999995
 30
0.0
 11
654.1715728752539
 21
206.5
 31
0.0
  0
ARC
  5
2DC
330
1F
100
AcDbEntity
  8
1
  6
Continuous
 62
     7
100
AcDbCircle
 10
573.0000000000001
 20
207.5
 30
0.0
 40
3.0
100
AcDbArc
 50
289.4712206344904
 51
340.5287793655091
  0
ARC
  5
2DD
330
1F
100
AcDbEntity
  8
1
  6
Continuous
 62
     7
100
AcDbCircle
 10
573.0000000000001
 20
207.5
 30
0.0
 40
3.0
100
AcDbArc
 50
19.47122063449055
 51
70.52877936550927
  0
ARC
  5
2DE
330
1F
100
AcDbEntity
  8
1
  6
Continuous
 62
     7
100
AcDbCircle
 10
573.0000000000001
 20
207.5
 30
0.0
 40
3.0
100
AcDbArc
 50
109.4712206344907
 51
160.5287793655087
  0
ARC
  5
2DF
330
1F
100
AcDbEntity
  8
1
  6
Continuous
 62
     7
100
AcDbCircle
 10
573.0000000000001
 20
207.5
 30
0.0
 40
3.0
100
AcDbArc
 50
199.4712206344902
 51
250.5287793655089
  0
ARC
  5
2E0
330
1F
100
AcDbEntity
  8
1
  6
Continuous
 62
     7
100
AcDbCircle
 10
573.0000000000001
 20
207.5
 30
0.0
 40
3.0
100
AcDbArc
 50
289.4712206344904
 51
340.5287793655091
  0
ARC
  5
2E1
330
1F
100
AcDbEntity
  8
1
  6
Continuous
 62
     7
100
AcDbCircle
 10
573.0000000000001
 20
207.5
 30
0.0
 40
3.0
100
AcDbArc
 50
199.4712206344909
 51
250.5287793655089
  0
LINE
  5
2E2
330
1F
100
AcDbEntity
  8
1
  6
Continuous
 62
     7
100
AcDbLine
 10
575.8284271247463
 20
206.5
 30
0.0
 11
612.1715728752538
 21
206.4999999999995
 31
0.0
  0
LINE
  5
2E3
330
1F
100
AcDbEntity
  8
1
  6
Continuous
 62
     7
100
AcDbLine
 10
575.8284271247463
 20
208.5
 30
0.0
 11
612.1715728752538
 21
208.4999999999995
 31
0.0
  0
LINE
  5
2E4
330
1F
100
AcDbEntity
  8
1
  6
Continuous
 62
     7
100
AcDbLine
 10
575.8284271247463
 20
206.5
 30
0.0
 11
612.1715728752538
 21
206.4999999999995
 31
0.0
  0
ARC
  5
2E5
330
1F
100
AcDbEntity
  8
1
  6
Continuous
 62
     7
100
AcDbCircle
 10
531.0000000000002
 20
207.5
 30
0.0
 40
3.0
100
AcDbArc
 50
289.4712206344904
 51
340.5287793655091
  0
ARC
  5
2E6
330
1F
100
AcDbEntity
  8
1
  6
Continuous
 62
     7
100
AcDbCircle
 10
531.0000000000002
 20
207.5
 30
0.0
 40
3.0
100
AcDbArc
 50
19.47122063449055
 51
70.52877936550927
  0
ARC
  5
2E7
330
1F
100
AcDbEntity
  8
1
  6
Continuous
 62
     7
100
AcDbCircle
 10
531.0000000000002
 20
207.5
 30
0.0
 40
3.0
100
AcDbArc
 50
109.4712206344907
 51
160.5287793655095
  0
ARC
  5
2E8
330
1F
100
AcDbEntity
  8
1
  6
Continuous
 62
     7
100
AcDbCircle
 10
531.0000000000002
 20
207.5
 30
0.0
 40
3.0
100
AcDbArc
 50
199.4712206344902
 51
250.5287793655089
  0
ARC
  5
2E9
330
1F
100
AcDbEntity
  8
1
  6
Continuous
 62
     7
100
AcDbCircle
 10
531.0000000000002
 20
207.5
 30
0.0
 40
3.0
100
AcDbArc
 50
289.4712206344904
 51
340.5287793655091
  0
ARC
  5
2EA
330
1F
100
AcDbEntity
  8
1
  6
Continuous
 62
     7
100
AcDbCircle
 10
531.0000000000002
 20
207.5
 30
0.0
 40
3.0
100
AcDbArc
 50
199.4712206344902
 51
250.5287793655089
  0
LINE
  5
2EB
330
1F
100
AcDbEntity
  8
1
  6
Continuous
 62
     7
100
AcDbLine
 10
533.8284271247464
 20
208.5
 30
0.0
 11
570.171572875254
 21
208.5
 31
0.0
  0
LINE
  5
2EC
330
1F
100
AcDbEntity
  8
1
  6
Continuous
 62
     7
100
AcDbLine
 10
533.8284271247464
 20
206.5
 30
0.0
 11
570.1715728752539
 21
206.5
 31
0.0
  0
LINE
  5
2ED
330
1F
100
AcDbEntity
  8
1
  6
Continuous
 62
     7
100
AcDbLine
 10
533.8284271247464
 20
206.5
 30
0.0
 11
570.171572875254
 21
206.5
 31
0.0
  0
LINE
  5
2EE
330
1F
100
AcDbEntity
  8
1
  6
Continuous
 62
     7
100
AcDbLine
 10
698.0
 20
251.1715728752538
 30
0.0
 11
698.0
 21
210.3284271247457
 31
0.0
  0
ARC
  5
2EF
330
1F
100
AcDbEntity
  8
1
  6
Continuous
 62
     7
100
AcDbCircle
 10
698.9999999999999
 20
254.0
 30
0.0
 40
3.0
100
AcDbArc
 50
160.5287793655189
 51
250.5287793655111
  0
LINE
  5
2F0
330
1F
100
AcDbEntity
  8
1
  6
Continuous
 62
     7
100
AcDbLine
 10
700.0
 20
210.3284271247457
 30
0.0
 11
700.0
 21
251.1715728752538
 31
0.0
  0
LINE
  5
2F1
330
1F
100
AcDbEntity
  8
1
  6
Continuous
 62
     7
100
AcDbLine
 10
720.0
 20
255.0
 30
0.0
 11
701.8284271247462
 21
255.0
 31
0.0
  0
ARC
  5
2F2
330
1F
100
AcDbEntity
  8
1
  6
Continuous
 62
     7
100
AcDbCircle
 10
698.9999999999999
 20
254.0
 30
0.0
 40
3.0
100
AcDbArc
 50
289.4712206344926
 51
19.47122063448163
  0
LINE
  5
2F3
330
1F
100
AcDbEntity
  8
1
  6
Continuous
 62
     7
100
AcDbLine
 10
698.0
 20
163.8284271247462
 30
0.0
 11
698.0
 21
204.6715728752543
 31
0.0
  0
LINE
  5
2F4
330
1F
100
AcDbEntity
  8
1
  6
Continuous
 62
     7
100
AcDbLine
 10
700.0
 20
204.6715728752543
 30
0.0
 11
700.0
 21
163.8284271247462
 31
0.0
  0
LINE
  5
2F5
330
1F
100
AcDbEntity
  8
1
  6
Continuous
 62
     7
100
AcDbLine
 10
656.0000000000001
 20
251.1715728752538
 30
0.0
 11
656.0000000000001
 21
210.3284271247457
 31
0.0
  0
LINE
  5
2F6
330
1F
100
AcDbEntity
  8
1
  6
Continuous
 62
     7
100
AcDbLine
 10
658.0000000000001
 20
210.3284271247457
 30
0.0
 11
658.0000000000001
 21
251.1715728752538
 31
0.0
  0
LINE
  5
2F7
330
1F
100
AcDbEntity
  8
1
  6
Continuous
 62
     7
100
AcDbLine
 10
656.0000000000001
 20
163.8284271247462
 30
0.0
 11
656.0000000000001
 21
204.6715728752543
 31
0.0
  0
LINE
  5
2F8
330
1F
100
AcDbEntity
  8
1
  6
Continuous
 62
     7
100
AcDbLine
 10
658.0000000000001
 20
204.6715728752543
 30
0.0
 11
658.0000000000001
 21
163.8284271247462
 31
0.0
  0
LINE
  5
2F9
330
1F
100
AcDbEntity
  8
1
  6
Continuous
 62
     7
100
AcDbLine
 10
614.0
 20
251.1715728752538
 30
0.0
 11
614.0
 21
210.3284271247457
 31
0.0
  0
LINE
  5
2FA
330
1F
100
AcDbEntity
  8
1
  6
Continuous
 62
     7
100
AcDbLine
 10
616.0
 20
210.3284271247457
 30
0.0
 11
616.0
 21
251.1715728752538
 31
0.0
  0
LINE
  5
2FB
330
1F
100
AcDbEntity
  8
1
  6
Continuous
 62
     7
100
AcDbLine
 10
614.0
 20
163.8284271247462
 30
0.0
 11
614.0
 21
204.6715728752543
 31
0.0
  0
LINE
  5
2FC
330
1F
100
AcDbEntity
  8
1
  6
Continuous
 62
     7
100
AcDbLine
 10
616.0
 20
204.6715728752543
 30
0.0
 11
616.0
 21
163.8284271247462
 31
0.0
  0
LINE
  5
2FD
330
1F
100
AcDbEntity
  8
1
  6
Continuous
 62
     7
100
AcDbLine
 10
572.0000000000016
 20
251.1715728752543
 30
0.0
 11
572.0000000000002
 21
210.3284271247462
 31
0.0
  0
LINE
  5
2FE
330
1F
100
AcDbEntity
  8
1
  6
Continuous
 62
     7
100
AcDbLine
 10
574.0000000000002
 20
210.3284271247462
 30
0.0
 11
574.0000000000016
 21
251.1715728752543
 31
0.0
  0
LINE
  5
2FF
330
1F
100
AcDbEntity
  8
1
  6
Continuous
 62
     7
100
AcDbLine
 10
571.9999999999986
 20
163.8284271247468
 30
0.0
 11
572.0
 21
204.6715728752549
 31
0.0
  0
LINE
  5
300
330
1F
100
AcDbEntity
  8
1
  6
Continuous
 62
     7
100
AcDbLine
 10
574.0
 20
204.6715728752548
 30
0.0
 11
573.9999999999986
 21
163.8284271247466
 31
0.0
  0
LINE
  5
301
330
1F
100
AcDbEntity
  8
1
  6
Continuous
 62
     7
100
AcDbLine
 10
530.0000001812859
 20
251.1715728794055
 30
0.0
 11
530.0000000117413
 21
210.3284271288974
 31
0.0
  0
LINE
  5
302
330
1F
100
AcDbEntity
  8
1
  6
Continuous
 62
     7
100
AcDbLine
 10
532.0000000117413
 20
210.3284271205952
 30
0.0
 11
532.000000181286
 21
251.1715728711033
 31
0.0
  0
LINE
  5
303
330
1F
100
AcDbEntity
  8
1
  6
Continuous
 62
     7
100
AcDbLine
 10
529.9999998187145
 20
163.8284271288979
 30
0.0
 11
529.9999999882591
 21
204.671572879406
 31
0.0
  0
LINE
  5
304
330
1F
100
AcDbEntity
  8
1
  6
Continuous
 62
     7
100
AcDbLine
 10
531.9999999882591
 20
204.6715728711038
 30
0.0
 11
531.9999998187145
 21
163.8284271205956
 31
0.0
  0
LINE
  5
305
330
1F
100
AcDbEntity
  8
1
  6
Continuous
 62
     7
100
AcDbLine
 10
696.1715728752536
 20
254.9999999999995
 30
0.0
 11
659.8284271247463
 21
254.9999999999995
 31
0.0
  0
ARC
  5
306
330
1F
100
AcDbEntity
  8
1
  6
Continuous
 62
     7
100
AcDbCircle
 10
657.0
 20
254.0
 30
0.0
 40
3.0
100
AcDbArc
 50
289.4712206344926
 51
19.47122063448163
  0
ARC
  5
307
330
1F
100
AcDbEntity
  8
1
  6
Continuous
 62
     7
100
AcDbCircle
 10
657.0
 20
254.0
 30
0.0
 40
3.0
100
AcDbArc
 50
160.5287793655189
 51
250.5287793655111
  0
ARC
  5
308
330
1F
100
AcDbEntity
  8
1
  6
Continuous
 62
     7
100
AcDbCircle
 10
657.0
 20
161.0
 30
0.0
 40
3.0
100
AcDbArc
 50
340.528779365518
 51
70.52877936550705
  0
ARC
  5
309
330
1F
100
AcDbEntity
  8
1
  6
Continuous
 62
     7
100
AcDbCircle
 10
657.0
 20
161.0
 30
0.0
 40
3.0
100
AcDbArc
 50
109.4712206344885
 51
199.4712206344807
  0
LINE
  5
30A
330
1F
100
AcDbEntity
  8
1
  6
Continuous
 62
     7
100
AcDbLine
 10
654.1715728752537
 20
255.0
 30
0.0
 11
617.8284271247462
 21
255.0
 31
0.0
  0
ARC
  5
30B
330
1F
100
AcDbEntity
  8
1
  6
Continuous
 62
     7
100
AcDbCircle
 10
614.9999999999999
 20
254.0
 30
0.0
 40
3.0
100
AcDbArc
 50
289.4712206344926
 51
19.47122063448163
  0
ARC
  5
30C
330
1F
100
AcDbEntity
  8
1
  6
Continuous
 62
     7
100
AcDbCircle
 10
614.9999999999999
 20
254.0
 30
0.0
 40
3.0
100
AcDbArc
 50
160.5287793655189
 51
250.5287793655111
  0
LINE
  5
30D
330
1F
100
AcDbEntity
  8
1
  6
Continuous
 62
     7
100
AcDbLine
 10
654.1715728752537
 20
160.0
 30
0.0
 11
617.8284271247462
 21
160.0
 31
0.0
  0
ARC
  5
30E
330
1F
100
AcDbEntity
  8
1
  6
Continuous
 62
     7
100
AcDbCircle
 10
614.9999999999999
 20
161.0
 30
0.0
 40
3.0
100
AcDbArc
 50
340.528779365518
 51
70.52877936550705
  0
ARC
  5
30F
330
1F
100
AcDbEntity
  8
1
  6
Continuous
 62
     7
100
AcDbCircle
 10
614.9999999999999
 20
161.0
 30
0.0
 40
3.0
100
AcDbArc
 50
109.4712206344885
 51
199.4712206344807
  0
LINE
  5
310
330
1F
100
AcDbEntity
  8
1
  6
Continuous
 62
     7
100
AcDbLine
 10
612.1715728752536
 20
159.9999999999995
 30
0.0
 11
575.8284271247447
 21
159.9999999999995
 31
0.0
  0
ARC
  5
311
330
1F
100
AcDbEntity
  8
1
  6
Continuous
 62
     7
100
AcDbCircle
 10
572.9999999999984
 20
161.0000000000005
 30
0.0
 40
3.0
100
AcDbArc
 50
340.5287793655165
 51
70.52877936550483
  0
ARC
  5
312
330
1F
100
AcDbEntity
  8
1
  6
Continuous
 62
     7
100
AcDbCircle
 10
572.9999999999984
 20
161.0000000000005
 30
0.0
 40
3.0
100
AcDbArc
 50
109.4712206344863
 51
199.4712206344792
  0
LINE
  5
313
330
1F
100
AcDbEntity
  8
1
  6
Continuous
 62
     7
100
AcDbLine
 10
612.1715728752536
 20
254.9999999999995
 30
0.0
 11
575.8284271247479
 21
254.9999999999995
 31
0.0
  0
ARC
  5
314
330
1F
100
AcDbEntity
  8
1
  6
Continuous
 62
     7
100
AcDbCircle
 10
573.0000000000016
 20
254.0000000000005
 30
0.0
 40
3.0
100
AcDbArc
 50
289.4712206344904
 51
19.4712206344801
  0
ARC
  5
315
330
1F
100
AcDbEntity
  8
1
  6
Continuous
 62
     7
100
AcDbCircle
 10
573.0000000000016
 20
254.0000000000005
 30
0.0
 40
3.0
100
AcDbArc
 50
160.5287793655174
 51
250.5287793655089
  0
LINE
  5
316
330
1F
100
AcDbEntity
  8
1
  6
Continuous
 62
     7
100
AcDbLine
 10
570.1715728752553
 20
255.0
 30
0.0
 11
533.8284273219244
 21
255.0
 31
0.0
  0
ARC
  5
317
330
1F
100
AcDbEntity
  8
1
  6
Continuous
 62
     7
100
AcDbCircle
 10
531.0000001930271
 20
254.0000000000006
 30
0.0
 40
3.0
100
AcDbArc
 50
289.4712203966512
 51
19.47122039664077
  0
ARC
  5
318
330
1F
100
AcDbEntity
  8
1
  6
Continuous
 62
     7
100
AcDbCircle
 10
531.0000001930271
 20
254.0000000000006
 30
0.0
 40
3.0
100
AcDbArc
 50
160.528779127678
 51
250.5287791276677
  0
LINE
  5
319
330
1F
100
AcDbEntity
  8
1
  6
Continuous
 62
     7
100
AcDbLine
 10
570.1715728752521
 20
160.0
 30
0.0
 11
533.8284269275684
 21
160.0
 31
0.0
  0
ARC
  5
31A
330
1F
100
AcDbEntity
  8
1
  6
Continuous
 62
     7
100
AcDbCircle
 10
530.9999998069732
 20
161.0000000000006
 30
0.0
 40
3.0
100
AcDbArc
 50
340.5287791276771
 51
70.52877912766358
  0
ARC
  5
31B
330
1F
100
AcDbEntity
  8
1
  6
Continuous
 62
     7
100
AcDbCircle
 10
530.9999998069732
 20
161.0000000000006
 30
0.0
 40
3.0
100
AcDbArc
 50
109.4712203966451
 51
199.4712203966399
  0
ARC
  5
31C
330
1F
100
AcDbEntity
  8
1
  6
Continuous
 62
     7
100
AcDbCircle
 10
157.6454260255764
 20
408.1575863770882
 30
0.0
 40
15.0
100
AcDbArc
 50
144.221975464157
 51
174.9999999607319
  0
LINE
  5
31D
330
1F
100
AcDbEntity
  8
1
  6
Continuous
 62
     7
100
AcDbLine
 10
181.6856085069237
 20
448.0000000000001
 30
0.0
 11
189.9999999999995
 21
448.0000000000001
 31
0.0
  0
ARC
  5
31E
330
1F
100
AcDbEntity
  8
1
  6
Continuous
 62
     7
100
AcDbCircle
 10
254.9999999999984
 20
338.0000000000006
 30
0.0
 40
134.9999999999988
100
AcDbArc
 50
127.6584620062076
 51
144.2219754641569
  0
ARC
  5
31F
330
1F
100
AcDbEntity
  8
1
  6
Continuous
 62
     7
100
AcDbCircle
 10
181.6856085069237
 20
433.0000000000001
 30
0.0
 40
15.0
100
AcDbArc
 50
90.00000000000021
 51
127.6584620062076
  0
ARC
  5
320
330
1F
100
AcDbEntity
  8
1
  6
Continuous
 62
     7
100
AcDbCircle
 10
222.3545739744227
 20
408.1575863770882
 30
0.0
 40
15.0
100
AcDbArc
 50
5.000000039268133
 51
35.77802453584302
  0
LINE
  5
321
330
1F
100
AcDbEntity
  8
1
  6
Continuous
 62
     7
100
AcDbLine
 10
198.3143914930754
 20
448.0000000000001
 30
0.0
 11
189.9999999999995
 21
448.0000000000001
 31
0.0
  0
ARC
  5
322
330
1F
100
AcDbEntity
  8
1
  6
Continuous
 62
     7
100
AcDbCircle
 10
125.0000000000007
 20
338.0000000000006
 30
0.0
 40
134.9999999999988
100
AcDbArc
 50
35.7780245358431
 51
52.34153799379244
  0
ARC
  5
323
330
1F
100
AcDbEntity
  8
1
  6
Continuous
 62
     7
100
AcDbCircle
 10
198.3143914930753
 20
433.0000000000001
 30
0.0
 40
15.0
100
AcDbArc
 50
52.34153799379239
 51
89.99999999999979
  0
LINE
  5
324
330
1F
100
AcDbEntity
  8
1
  6
Continuous
 62
     7
100
AcDbLine
 10
239.8628155345476
 20
403.090594843565
 30
0.0
 11
243.6976682454852
 21
359.2580281301564
 31
0.0
  0
ARC
  5
325
330
1F
100
AcDbEntity
  8
1
  6
Continuous
 62
     7
100
AcDbCircle
 10
43.53749698164663
 20
363.8303185442002
 30
0.0
 40
199.9999999999998
100
AcDbArc
 50
359.5212030716534
 51
10.47879700688883
  0
ARC
  5
326
330
1F
100
AcDbEntity
  8
1
  6
Continuous
 62
     7
100
AcDbCircle
 10
242.53054869063
 20
362.1673779121331
 30
0.0
 40
1.0
100
AcDbArc
 50
340.3828918300389
 51
359.5212030717262
  0
ARC
  5
327
330
1F
100
AcDbEntity
  8
1
  6
Continuous
 62
     7
100
AcDbCircle
 10
240.7090841513892
 20
358.9965608998653
 30
0.0
 40
3.0
100
AcDbArc
 50
294.4712206737817
 51
5.000000039266619
  0
ARC
  5
328
330
1F
100
AcDbEntity
  8
1
  6
Continuous
 62
     7
100
AcDbCircle
 10
239.2186304402727
 20
400.0227764373488
 30
0.0
 40
1.0
100
AcDbArc
 50
10.47879700688979
 51
29.61710824024113
  0
ARC
  5
329
330
1F
100
AcDbEntity
  8
1
  6
Continuous
 62
     7
100
AcDbCircle
 10
236.8742314404516
 20
402.8291276132739
 30
0.0
 40
3.0
100
AcDbArc
 50
5.000000039266619
 51
75.52877940475862
  0
DIMENSION
  5
33D
330
1F
100
AcDbEntity
  8
1
  6
Continuous
 62
     7
100
AcDbDimension
  2
Dim5
 10
139.5965674083942
 20
398.0193128436595
 30
0.0
 11
116.3339061407907
 21
399.2971823081886
 31
0.0
 70
   165
  1
3.5ﾟ
 71
     5
 42
-1.0
 73
     0
 74
     0
 75
     0
  3
Standard
100
AcDb3PointAngularDimension
 13
137.8486218890562
 23
353.9847787921283
 33
0.0
 14
137.4999989153345
 24
354.0000000000003
 34
0.0
 15
137.4999989153345
 25
350.0000000000003
 35
0.0
1001
ACAD
1000
DSTYLE
1002
{
1070
   344
1005
0
1070
   343
1005
0
1070
   173
1070
     1
1070
   289
1070
     2
1070
   279
1070
     2
1070
   288
1070
     1
1070
    77
1070
     1
1070
   172
1070
     1
1070
   174
1070
     0
1070
    74
1070
     0
1070
    73
1070
     0
1070
   284
1070
     8
1070
    78
1070
     8
1070
   140
1040
4.0
1070
    40
1040
1.0
1070
    42
1040
4.000000000000004
1070
    44
1040
4.000000000000004
1070
    43
1040
10.0
1070
   271
1070
     2
1070
    41
1040
4.0
1002
}
  0
DIMENSION
  5
349
330
1F
100
AcDbEntity
  8
1
  6
Continuous
 62
     7
100
AcDbDimension
  2
Dim6
 10
125.0000000000007
 20
338.0000000000006
 30
0.0
 11
170.8261579477523
 21
387.8644487360253
 31
0.0
 70
   164
  1
<>
 71
     5
 42
-1.0
 73
     0
 74
     0
 75
     0
  3
Standard
100
AcDbRadialDimension
 15
224.1202916135154
 25
429.6524292665044
 35
0.0
 40
0.0
1001
ACAD
1000
DSTYLE
1002
{
1070
   344
1005
76
1070
   343
1005
0
1070
   173
1070
     1
1070
   289
1070
     2
1070
   279
1070
     2
1070
   288
1070
     1
1070
    77
1070
     3
1070
   172
1070
     1
1070
   174
1070
     0
1070
    74
1070
     0
1070
    73
1070
     0
1070
   284
1070
     8
1070
    78
1070
     8
1070
   140
1040
4.0
1070
    40
1040
1.0
1070
    42
1040
0.0
1070
    44
1040
0.0
1070
    43
1040
10.0
1070
   271
1070
     2
1070
    41
1040
4.0
1002
}
  0
LINE
  5
34A
330
1F
100
AcDbEntity
  8
1
  6
Continuous
 62
     7
100
AcDbLine
 10
142.7025055550962
 20
409.4649225285443
 30
0.0
 11
137.4999989153345
 21
350.0
 31
0.0
  0
LINE
  5
34B
330
1F
100
AcDbEntity
  8
1
  6
Continuous
 62
     7
100
AcDbLine
 10
137.4999989153345
 20
350.0
 30
0.0
 11
242.5000010846645
 21
350.0
 31
0.0
  0
LINE
  5
34C
330
1F
100
AcDbEntity
  8
1
  6
Continuous
 62
     7
100
AcDbLine
 10
237.2974944449029
 20
409.4649225285443
 30
0.0
 11
242.5000010846645
 21
350.0
 31
0.0
  0
LINE
  5
34D
330
1F
100
AcDbEntity
  8
1
  6
Continuous
 62
     7
100
AcDbLine
 10
177.5000000000002
 20
361.9999999999998
 30
0.0
 11
177.5000000000002
 21
362.9999999999998
 31
0.0
  0
LINE
  5
34E
330
1F
100
AcDbEntity
  8
1
  6
Continuous
 62
     7
100
AcDbLine
 10
177.5000000000002
 20
362.9999999999998
 30
0.0
 11
202.5000000000002
 21
363.0000000000001
 31
0.0
  0
LINE
  5
34F
330
1F
100
AcDbEntity
  8
1
  6
Continuous
 62
     7
100
AcDbLine
 10
202.5000000000002
 20
363.0000000000001
 30
0.0
 11
202.5000000000002
 21
362.0000000000001
 31
0.0
  0
LINE
  5
350
330
1F
100
AcDbEntity
  8
1
  6
Continuous
 62
     7
100
AcDbLine
 10
179.0303456706747
 20
362.9999999999998
 30
0.0
 11
179.0303456706746
 21
371.0303448853966
 31
0.0
  0
LINE
  5
351
330
1F
100
AcDbEntity
  8
1
  6
Continuous
 62
     7
100
AcDbLine
 10
200.9696558998798
 20
371.0303448853977
 30
0.0
 11
200.9696558998801
 21
363.0000000000001
 31
0.0
  0
LINE
  5
352
330
1F
100
AcDbEntity
  8
1
  6
Continuous
 62
     7
100
AcDbLine
 10
184.5151732279756
 20
362.9999999999999
 30
0.0
 11
184.5151732279755
 21
371.0303448853914
 31
0.0
  0
LINE
  5
353
330
1F
100
AcDbEntity
  8
1
  6
Continuous
 62
     7
100
AcDbLine
 10
195.4848283425783
 20
363.0
 30
0.0
 11
195.4848283425782
 21
371.0303448853915
 31
0.0
  0
ARC
  5
354
330
1F
100
AcDbEntity
  8
1
  6
Continuous
 62
     7
100
AcDbCircle
 10
190.0000007852824
 20
361.5303448854395
 30
0.0
 40
10.96965511456848
100
AcDbArc
 50
59.9999999998999
 51
120.0000000001905
  0
ARC
  5
355
330
1F
100
AcDbEntity
  8
1
  6
Continuous
 62
     7
100
AcDbCircle
 10
198.2272421212092
 20
369.2064655533537
 30
0.0
 40
3.293534446624437
100
AcDbArc
 50
33.6264291361819
 51
146.3735708634687
  0
ARC
  5
356
330
1F
100
AcDbEntity
  8
1
  6
Continuous
 62
     7
100
AcDbCircle
 10
181.7727594493074
 20
369.2064655533682
 30
0.0
 40
3.293534446611249
100
AcDbArc
 50
33.62642913586981
 51
146.373570863843
  0
LINE
  5
357
330
1F
100
AcDbEntity
  8
1
  6
Continuous
 62
     7
100
AcDbLine
 10
180.9102780893289
 20
372.9999999999999
 30
0.0
 11
199.0000007852775
 21
373.0
 31
0.0
  0
LINE
  5
358
330
1F
100
AcDbEntity
  8
1
  6
Continuous
 62
     7
100
AcDbLine
 10
180.9912911933896
 20
372.9999999999999
 30
0.0
 11
179.4371884938828
 21
371.5308076781464
 31
0.0
  0
LINE
  5
359
330
1F
100
AcDbEntity
  8
1
  6
Continuous
 62
     7
100
AcDbLine
 10
198.9968915298674
 20
373.0
 30
0.0
 11
200.5624825207342
 21
371.5317014529297
 31
0.0
  0
LINE
  5
35A
330
1F
100
AcDbEntity
  8
1
  6
Continuous
 62
     7
100
AcDbLine
 10
186.5000000000001
 20
372.9999999999999
 30
0.0
 11
186.5000000000001
 21
374.9999999999999
 31
0.0
  0
LINE
  5
35B
330
1F
100
AcDbEntity
  8
1
  6
Continuous
 62
     7
100
AcDbLine
 10
193.5000000000001
 20
373.0
 30
0.0
 11
193.5000000000001
 21
375.0
 31
0.0
  0
LINE
  5
35C
330
1F
100
AcDbEntity
  8
1
  6
Continuous
 62
     7
100
AcDbLine
 10
186.5000000000001
 20
374.9999999999999
 30
0.0
 11
187.5000000000001
 21
375.9999999999999
 31
0.0
  0
LINE
  5
35D
330
1F
100
AcDbEntity
  8
1
  6
Continuous
 62
     7
100
AcDbLine
 10
187.5000000000001
 20
375.9999999999999
 30
0.0
 11
192.5000000000001
 21
375.9999999999999
 31
0.0
  0
LINE
  5
35E
330
1F
100
AcDbEntity
  8
1
  6
Continuous
 62
     7
100
AcDbLine
 10
192.5000000000001
 20
375.9999999999999
 30
0.0
 11
193.5000000000001
 21
375.0
 31
0.0
  0
LINE
  5
35F
330
1F
100
AcDbEntity
  8
1
  6
Continuous
 62
     7
100
AcDbLine
 10
186.5000000000001
 20
374.9999999999999
 30
0.0
 11
193.5000000000001
 21
375.0
 31
0.0
  0
LINE
  5
360
330
1F
100
AcDbEntity
  8
1
  6
Continuous
 62
     7
100
AcDbLine
 10
189.5000000000004
 20
334.9999999999999
 30
0.0
 11
190.5000000000004
 21
334.9999999999999
 31
0.0
  0
LINE
  5
361
330
1F
100
AcDbEntity
  8
1
  6
Continuous
 62
     7
100
AcDbLine
 10
190.5000000000004
 20
334.9999999999999
 30
0.0
 11
191.500000000002
 21
312.9999999999999
 31
0.0
  0
LINE
  5
362
330
1F
100
AcDbEntity
  8
1
  6
Continuous
 62
     7
100
AcDbLine
 10
191.5000000000022
 20
312.9999999999999
 30
0.0
 11
196.9886597938149
 21
313.2494845360824
 31
0.0
  0
LINE
  5
363
330
1F
100
AcDbEntity
  8
1
  6
Continuous
 62
     7
100
AcDbLine
 10
196.8978444719775
 20
315.247421616503
 30
0.0
 11
191.4091846781646
 21
314.9979370804206
 31
0.0
  0
LINE
  5
364
330
1F
100
AcDbEntity
  8
1
  6
Continuous
 62
     7
100
AcDbLine
 10
196.8070291501403
 20
317.2453586969236
 30
0.0
 11
191.3183693563271
 21
316.9958741608411
 31
0.0
  0
LINE
  5
365
330
1F
100
AcDbEntity
  8
1
  6
Continuous
 62
     7
100
AcDbLine
 10
196.7162138283031
 20
319.2432957773444
 30
0.0
 11
191.2275540344897
 21
318.9938112412618
 31
0.0
  0
LINE
  5
366
330
1F
100
AcDbEntity
  8
1
  6
Continuous
 62
     7
100
AcDbLine
 10
196.6253985064658
 20
321.2412328577649
 30
0.0
 11
191.1367387126523
 21
320.9917483216823
 31
0.0
  0
LINE
  5
367
330
1F
100
AcDbEntity
  8
1
  6
Continuous
 62
     7
100
AcDbLine
 10
196.5345831846283
 20
323.2391699381855
 30
0.0
 11
191.0459233908147
 21
322.9896854021029
 31
0.0
  0
LINE
  5
368
330
1F
100
AcDbEntity
  8
1
  6
Continuous
 62
     7
100
AcDbLine
 10
196.4437678627911
 20
325.237107018606
 30
0.0
 11
190.9551080689773
 21
324.9876224825234
 31
0.0
  0
LINE
  5
369
330
1F
100
AcDbEntity
  8
1
  6
Continuous
 62
     7
100
AcDbLine
 10
196.3529525409537
 20
327.2350440990267
 30
0.0
 11
190.86429274714
 21
326.985559562944
 31
0.0
  0
LINE
  5
36A
330
1F
100
AcDbEntity
  8
1
  6
Continuous
 62
     7
100
AcDbLine
 10
196.2621372191164
 20
329.2329811794472
 30
0.0
 11
190.7734774253025
 21
328.9834966433646
 31
0.0
  0
LINE
  5
36B
330
1F
100
AcDbEntity
  8
1
  6
Continuous
 62
     7
100
AcDbLine
 10
196.0000000000004
 20
335.0
 30
0.0
 11
196.2621372191165
 21
329.2329811794446
 31
0.0
  0
LINE
  5
36C
330
1F
100
AcDbEntity
  8
1
  6
Continuous
 62
     7
100
AcDbLine
 10
196.3529525409537
 20
327.2350440990267
 30
0.0
 11
196.443767862791
 21
325.237107018607
 31
0.0
  0
LINE
  5
36D
330
1F
100
AcDbEntity
  8
1
  6
Continuous
 62
     7
100
AcDbLine
 10
196.5345831846284
 20
323.2391699381831
 30
0.0
 11
196.6253985064658
 21
321.2412328577641
 31
0.0
  0
LINE
  5
36E
330
1F
100
AcDbEntity
  8
1
  6
Continuous
 62
     7
100
AcDbLine
 10
196.7162138283031
 20
319.2432957773422
 30
0.0
 11
196.8070291501406
 21
317.2453586969186
 31
0.0
  0
LINE
  5
36F
330
1F
100
AcDbEntity
  8
1
  6
Continuous
 62
     7
100
AcDbLine
 10
196.8978444719777
 20
315.2474216165016
 30
0.0
 11
196.9886597938149
 21
313.2494845360824
 31
0.0
  0
ARC
  5
370
330
1F
100
AcDbEntity
  8
1
  6
Continuous
 62
     7
100
AcDbCircle
 10
198.3675390970791
 20
316.3152584424463
 30
0.0
 40
1.816666666706873
100
AcDbArc
 50
149.2040737355594
 51
216.0010506698846
  0
ARC
  5
371
330
1F
100
AcDbEntity
  8
1
  6
Continuous
 62
     7
100
AcDbCircle
 10
198.1859084533299
 20
320.3111326032545
 30
0.0
 40
1.81666666662863
100
AcDbArc
 50
149.2040737332431
 51
216.0010506704166
  0
ARC
  5
372
330
1F
100
AcDbEntity
  8
1
  6
Continuous
 62
     7
100
AcDbCircle
 10
198.0042778097322
 20
324.3070067640967
 30
0.0
 40
1.816666666686932
100
AcDbArc
 50
149.2040737343729
 51
216.0010506691227
  0
ARC
  5
373
330
1F
100
AcDbEntity
  8
1
  6
Continuous
 62
     7
100
AcDbCircle
 10
197.8226471660374
 20
328.3028809249491
 30
0.0
 40
1.816666666671008
100
AcDbArc
 50
149.2040737343919
 51
216.0010506698223
  0
ARC
  5
374
330
1F
100
AcDbEntity
  8
1
  6
Continuous
 62
     7
100
AcDbCircle
 10
180.0000000000005
 20
315.4999999999999
 30
0.0
 40
12.5
100
AcDbArc
 50
323.1301023541561
 51
348.623414078733
  0
LINE
  5
375
330
1F
100
AcDbEntity
  8
1
  6
Continuous
 62
     7
100
AcDbLine
 10
189.5000000000004
 20
334.9999999999999
 30
0.0
 11
188.4999999999991
 21
312.9999999999999
 31
0.0
  0
LINE
  5
376
330
1F
100
AcDbEntity
  8
1
  6
Continuous
 62
     7
100
AcDbLine
 10
188.4999999999988
 20
312.9999999999999
 30
0.0
 11
183.0113402061862
 21
313.2494845360823
 31
0.0
  0
LINE
  5
377
330
1F
100
AcDbEntity
  8
1
  6
Continuous
 62
     7
100
AcDbLine
 10
183.1021555280235
 20
315.2474216165029
 30
0.0
 11
188.5908153218365
 21
314.9979370804206
 31
0.0
  0
LINE
  5
378
330
1F
100
AcDbEntity
  8
1
  6
Continuous
 62
     7
100
AcDbLine
 10
183.1929708498608
 20
317.2453586969235
 30
0.0
 11
188.681630643674
 21
316.9958741608411
 31
0.0
  0
LINE
  5
379
330
1F
100
AcDbEntity
  8
1
  6
Continuous
 62
     7
100
AcDbLine
 10
183.283786171698
 20
319.2432957773443
 30
0.0
 11
188.7724459655114
 21
318.9938112412618
 31
0.0
  0
LINE
  5
37A
330
1F
100
AcDbEntity
  8
1
  6
Continuous
 62
     7
100
AcDbLine
 10
183.3746014935353
 20
321.2412328577648
 30
0.0
 11
188.8632612873488
 21
320.9917483216823
 31
0.0
  0
LINE
  5
37B
330
1F
100
AcDbEntity
  8
1
  6
Continuous
 62
     7
100
AcDbLine
 10
183.4654168153725
 20
323.2391699381853
 30
0.0
 11
188.9540766091861
 21
322.9896854021029
 31
0.0
  0
LINE
  5
37C
330
1F
100
AcDbEntity
  8
1
  6
Continuous
 62
     7
100
AcDbLine
 10
183.5562321372098
 20
325.2371070186059
 30
0.0
 11
189.0448919310236
 21
324.9876224825234
 31
0.0
  0
LINE
  5
37D
330
1F
100
AcDbEntity
  8
1
  6
Continuous
 62
     7
100
AcDbLine
 10
183.6470474590471
 20
327.2350440990265
 30
0.0
 11
189.1357072528609
 21
326.985559562944
 31
0.0
  0
LINE
  5
37E
330
1F
100
AcDbEntity
  8
1
  6
Continuous
 62
     7
100
AcDbLine
 10
183.7378627808845
 20
329.2329811794471
 30
0.0
 11
189.2265225746984
 21
328.9834966433646
 31
0.0
  0
LINE
  5
37F
330
1F
100
AcDbEntity
  8
1
  6
Continuous
 62
     7
100
AcDbLine
 10
184.0000000000004
 20
334.9999999999999
 30
0.0
 11
183.7378627808843
 21
329.2329811794444
 31
0.0
  0
LINE
  5
380
330
1F
100
AcDbEntity
  8
1
  6
Continuous
 62
     7
100
AcDbLine
 10
183.6470474590471
 20
327.2350440990265
 30
0.0
 11
183.5562321372099
 21
325.2371070186069
 31
0.0
  0
LINE
  5
381
330
1F
100
AcDbEntity
  8
1
  6
Continuous
 62
     7
100
AcDbLine
 10
183.4654168153724
 20
323.239169938183
 30
0.0
 11
183.3746014935353
 21
321.241232857764
 31
0.0
  0
LINE
  5
382
330
1F
100
AcDbEntity
  8
1
  6
Continuous
 62
     7
100
AcDbLine
 10
183.283786171698
 20
319.2432957773421
 30
0.0
 11
183.1929708498605
 21
317.2453586969185
 31
0.0
  0
LINE
  5
383
330
1F
100
AcDbEntity
  8
1
  6
Continuous
 62
     7
100
AcDbLine
 10
183.1021555280234
 20
315.2474216165015
 30
0.0
 11
183.0113402061862
 21
313.2494845360823
 31
0.0
  0
ARC
  5
384
330
1F
100
AcDbEntity
  8
1
  6
Continuous
 62
     7
100
AcDbCircle
 10
181.632460902922
 20
316.3152584424462
 30
0.0
 40
1.816666666706873
100
AcDbArc
 50
323.9989493301147
 51
30.7959262644406
  0
ARC
  5
385
330
1F
100
AcDbEntity
  8
1
  6
Continuous
 62
     7
100
AcDbCircle
 10
181.8140915466712
 20
320.3111326032544
 30
0.0
 40
1.81666666662863
100
AcDbArc
 50
323.9989493295827
 51
30.79592626675685
  0
ARC
  5
386
330
1F
100
AcDbEntity
  8
1
  6
Continuous
 62
     7
100
AcDbCircle
 10
181.9957221902687
 20
324.3070067640966
 30
0.0
 40
1.816666666686932
100
AcDbArc
 50
323.9989493308765
 51
30.7959262656271
  0
ARC
  5
387
330
1F
100
AcDbEntity
  8
1
  6
Continuous
 62
     7
100
AcDbCircle
 10
182.1773528339635
 20
328.302880924949
 30
0.0
 40
1.816666666671008
100
AcDbArc
 50
323.998949330177
 51
30.7959262656081
  0
ARC
  5
388
330
1F
100
AcDbEntity
  8
1
  6
Continuous
 62
     7
100
AcDbCircle
 10
200.0000000000005
 20
315.5
 30
0.0
 40
12.5
100
AcDbArc
 50
191.3765859212668
 51
216.8698976458442
  0
LINE
  5
389
330
1F
100
AcDbEntity
  8
1
  6
DOT
 62
     7
100
AcDbLine
 10
195.2999993586887
 20
353.000000006393
 30
0.0
 11
196.0000000000002
 21
353.6999998064246
 31
0.0
  0
LINE
  5
38A
330
1F
100
AcDbEntity
  8
1
  6
DOT
 62
     7
100
AcDbLine
 10
196.0000000000002
 20
362.0
 30
0.0
 11
196.0000000000002
 21
353.6999998064246
 31
0.0
  0
LINE
  5
38B
330
1F
100
AcDbEntity
  8
1
  6
DOT
 62
     7
100
AcDbLine
 10
195.2999999977626
 20
353.0000000063933
 30
0.0
 11
196.0000000000003
 21
351.0
 31
0.0
  0
LINE
  5
38C
330
1F
100
AcDbEntity
  8
1
  6
DOT
 62
     7
100
AcDbLine
 10
183.9999998904002
 20
361.9999999999999
 30
0.0
 11
183.9999998904002
 21
353.7000002128071
 31
0.0
  0
LINE
  5
38D
330
1F
100
AcDbEntity
  8
1
  6
DOT
 62
     7
100
AcDbLine
 10
184.7000000000001
 20
353.0000001032071
 30
0.0
 11
183.9999998904002
 21
353.7000002128071
 31
0.0
  0
LINE
  5
38E
330
1F
100
AcDbEntity
  8
1
  6
DOT
 62
     7
100
AcDbLine
 10
184.7000000361225
 20
353.0000001032066
 30
0.0
 11
195.2999999977626
 21
353.0000000063933
 31
0.0
  0
LINE
  5
38F
330
1F
100
AcDbEntity
  8
1
  6
DOT
 62
     7
100
AcDbLine
 10
184.7000000361225
 20
353.0000001032066
 30
0.0
 11
184.0000000000003
 21
351.0000003131428
 31
0.0
  0
LINE
  5
390
330
1F
100
AcDbEntity
  8
1
  6
DOT
 62
     7
100
AcDbLine
 10
184.0000000000001
 20
351.0000003131606
 30
0.0
 11
196.0000000000003
 21
351.0
 31
0.0
  0
LINE
  5
391
330
1F
100
AcDbEntity
  8
1
  6
DOT
 62
     7
100
AcDbLine
 10
183.9999998904002
 20
353.7000002127837
 30
0.0
 11
196.0000000000002
 21
353.7000006477044
 31
0.0
  0
LINE
  5
392
330
1F
100
AcDbEntity
  8
1
  6
DOT
 62
     7
100
AcDbLine
 10
184.7000000000001
 20
361.9999999999999
 30
0.0
 11
184.7000000000001
 21
353.7000002381538
 31
0.0
  0
LINE
  5
393
330
1F
100
AcDbEntity
  8
1
  6
DOT
 62
     7
100
AcDbLine
 10
195.2999992887573
 20
362.0000003841798
 30
0.0
 11
195.2999998903975
 21
353.7000006223337
 31
0.0
  0
LINE
  5
394
330
1F
100
AcDbEntity
  8
1
  6
Continuous
 62
     7
100
AcDbLine
 10
184.0000000000004
 20
350.0
 30
0.0
 11
184.0000000000004
 21
334.9999999999999
 31
0.0
  0
LINE
  5
395
330
1F
100
AcDbEntity
  8
1
  6
Continuous
 62
     7
100
AcDbLine
 10
196.0000000000004
 20
335.0
 30
0.0
 11
196.0000000000004
 21
350.0000000000001
 31
0.0
  0
LINE
  5
396
330
1F
100
AcDbEntity
  8
1
  6
DOT
 62
     7
100
AcDbLine
 10
184.0000000000003
 20
351.0000003131428
 30
0.0
 11
184.0000000000006
 21
350.0000000000001
 31
0.0
  0
LINE
  5
397
330
1F
100
AcDbEntity
  8
1
  6
DOT
 62
     7
100
AcDbLine
 10
196.0000000000004
 20
350.0000000000002
 30
0.0
 11
196.0000000000003
 21
351.0
 31
0.0
  0
LINE
  5
398
330
1F
100
AcDbEntity
  8
1
  6
DOT
 62
     7
100
AcDbLine
 10
183.5000002287659
 20
362.0000000000001
 30
0.0
 11
183.5000002287661
 21
350.0
 31
0.0
  0
LINE
  5
399
330
1F
100
AcDbEntity
  8
1
  6
DOT
 62
     7
100
AcDbLine
 10
196.500000228766
 20
362.0
 30
0.0
 11
196.5000002287661
 21
350.0000000000001
 31
0.0
  0
LINE
  5
39A
330
1F
100
AcDbEntity
  8
1
  6
Continuous
 62
     7
100
AcDbLine
 10
115.0
 20
338.0
 30
0.0
 11
135.0
 21
338.0
 31
0.0
  0
LINE
  5
39B
330
1F
100
AcDbEntity
  8
1
  6
Continuous
 62
     7
100
AcDbLine
 10
125.0
 20
348.0
 30
0.0
 11
124.9999999999993
 21
328.0
 31
0.0
  0
LINE
  5
39C
330
1F
100
AcDbEntity
  8
1
  6
Continuous
 62
     7
100
AcDbLine
 10
151.6987298412384
 20
362.0
 30
0.0
 11
228.3012701587591
 21
361.9999999999999
 31
0.0
  0
DIMENSION
  5
3AC
330
1F
100
AcDbEntity
  8
1
  6
Continuous
 62
     7
100
AcDbDimension
  2
Dim7
 10
89.99999999999952
 20
350.0000000000002
 30
0.0
 11
83.99999999999952
 21
356.0000000000002
 31
0.0
 70
   160
  1
<>
 71
     5
 42
-1.0
 73
     0
 74
     0
 75
     0
  3
Standard
100
AcDbAlignedDimension
 13
137.9777629341777
 23
350.0
 33
0.0
 14
150.9555258683554
 24
361.9999999999999
 34
0.0
 50
89.99999999999991
100
AcDbRotatedDimension
1001
ACAD
1000
DSTYLE
1002
{
1070
   344
1005
0
1070
   343
1005
48
1070
   173
1070
     1
1070
   289
1070
     2
1070
   279
1070
     2
1070
   288
1070
     1
1070
    77
1070
     3
1070
   172
1070
     1
1070
   174
1070
     0
1070
    74
1070
     0
1070
    73
1070
     0
1070
   284
1070
     8
1070
    78
1070
     8
1070
   140
1040
4.0
1070
    40
1040
1.0
1070
    42
1040
2.0
1070
    44
1040
2.0
1070
    43
1040
10.0
1070
   271
1070
     2
1070
    41
1040
4.0
1002
}
  0
DIMENSION
  5
3BC
330
1F
100
AcDbEntity
  8
1
  6
Continuous
 62
     7
100
AcDbDimension
  2
Dim8
 10
89.99999999999952
 20
350.0000000000002
 30
0.0
 11
83.99999999999952
 21
344.0000000000001
 31
0.0
 70
   160
  1
<>
 71
     5
 42
-1.0
 73
     0
 74
     0
 75
     0
  3
Standard
100
AcDbAlignedDimension
 13
137.4999989153345
 23
350.0
 33
0.0
 14
124.9999999999995
 24
338.0
 34
0.0
 50
89.99999999999991
100
AcDbRotatedDimension
1001
ACAD
1000
DSTYLE
1002
{
1070
   344
1005
0
1070
   343
1005
48
1070
   173
1070
     1
1070
   289
1070
     2
1070
   279
1070
     2
1070
   288
1070
     1
1070
    77
1070
     3
1070
   172
1070
     1
1070
   174
1070
     0
1070
    74
1070
     0
1070
    73
1070
     0
1070
   284
1070
     8
1070
    78
1070
     8
1070
   140
1040
4.0
1070
    40
1040
1.0
1070
    42
1040
2.0
1070
    44
1040
2.0
1070
    43
1040
10.0
1070
   271
1070
     2
1070
    41
1040
4.0
1002
}
  0
LINE
  5
3BD
330
1F
100
AcDbEntity
  8
1
  6
Continuous
 62
     7
100
AcDbLine
 10
143.4576673609972
 20
413.0266216075685
 30
0.0
 11
135.9219439049537
 21
415.7123006639777
 31
0.0
  0
LINE
  5
3BE
330
1F
100
AcDbEntity
  8
1
  6
Continuous
 62
     7
100
AcDbLine
 10
143.4576673609972
 20
413.0266216075685
 30
0.0
 11
138.2743789403738
 21
419.1203496248525
 31
0.0
  0
LINE
  5
3BF
330
1F
100
AcDbEntity
  8
1
  6
Continuous
 62
     7
100
AcDbLine
 10
135.9219439049537
 20
415.7123006639777
 30
0.0
 11
138.2743789403738
 21
419.1203496248525
 31
0.0
  0
LINE
  5
3C0
330
1F
100
AcDbEntity
  8
1
  6
Continuous
 62
     7
100
AcDbLine
 10
141.8677908764138
 20
414.1240474917802
 30
0.0
 11
138.0999291483921
 21
415.4668870199848
 31
0.0
  0
LINE
  5
3C1
330
1F
100
AcDbEntity
  8
1
  6
Continuous
 62
     7
100
AcDbLine
 10
141.8677908764138
 20
414.1240474917802
 30
0.0
 11
139.2761466661021
 21
417.1709115004222
 31
0.0
  0
LINE
  5
3C2
330
1F
100
AcDbEntity
  8
1
  6
Continuous
 62
     7
100
AcDbLine
 10
138.0999291483921
 20
415.4668870199848
 30
0.0
 11
139.2761466661021
 21
417.1709115004222
 31
0.0
  0
POLYLINE
  5
3C3
330
1F
100
AcDbEntity
  8
1
  6
Continuous
 62
     7
100
AcDb2dPolyline
 66
     1
 10
0.0
 20
0.0
 30
0.0
  0
VERTEX
  5
3C4
330
3C3
100
AcDbEntity
  8
1
  6
Continuous
 62
     7
100
AcDbVertex
100
AcDb2dVertex
 10
143.4576673609972
 20
413.0266216075685
 30
0.0
  0
VERTEX
  5
3C5
330
3C3
100
AcDbEntity
  8
1
  6
Continuous
 62
     7
100
AcDbVertex
100
AcDb2dVertex
 10
120.7568764568761
 20
428.6960372960376
 30
0.0
  0
VERTEX
  5
3C6
330
3C3
100
AcDbEntity
  8
1
  6
Continuous
 62
     7
100
AcDbVertex
100
AcDb2dVertex
 10
79.68391608391562
 20
428.6960372960376
 30
0.0
  0
SEQEND
  5
3C7
330
3C3
100
AcDbEntity
  8
1
  6
Continuous
 62
     7
  0
TEXT
  5
3C8
330
1F
100
AcDbEntity
  8
1
  6
Continuous
 62
     7
100
AcDbText
 10
79.68391608391559
 20
428.6960372960376
 30
0.0
 40
12.0
  1
4-R15
 41
0.5
100
AcDbText
  0
ELLIPSE
  5
3C9
330
1F
100
AcDbEntity
  8
1
  6
Continuous
 62
     7
100
AcDbEllipse
 10
190.0
 20
391.4539239968836
 30
0.0
 11
6.995513206061615E-14
 21
43.30127015231744
 31
0.0
210
0.0
220
0.0
230
1.0
 40
0.5773502696816857
 41
-1.072303611993259
 42
1.047197551688609
  0
LINE
  5
3CA
330
1F
100
AcDbEntity
  8
1
  6
Continuous
 62
     7
100
AcDbLine
 10
168.3493648992389
 20
413.104559054592
 30
0.0
 11
150.9555258683551
 21
361.9999999999998
 31
0.0
  0
LINE
  5
3CB
330
1F
100
AcDbEntity
  8
1
  6
Continuous
 62
     7
100
AcDbLine
 10
228.3012701587591
 20
361.9999999999999
 30
0.0
 11
211.957604893532
 21
412.1563577013558
 31
0.0
  0
CIRCLE
  5
3CC
330
1F
100
AcDbEntity
  8
1
  6
Continuous
 62
     7
100
AcDbCircle
 10
479.9999999999997
 20
622.5000000000001
 30
0.0
 40
12.5
  0
INSERT
  5
3D6
330
1F
100
AcDbEntity
  8
0
100
AcDbBlockReference
  2
*G22
 10
0.0
 20
0.0
 30
0.0
  0
CIRCLE
  5
3D7
330
1F
100
AcDbEntity
  8
1
  6
Continuous
 62
     7
100
AcDbCircle
 10
479.9999999999997
 20
622.5000000000001
 30
0.0
 40
6.0
  0
CIRCLE
  5
3D8
330
1F
100
AcDbEntity
  8
1
  6
Continuous
 62
     7
100
AcDbCircle
 10
479.9999999999997
 20
622.5000000000001
 30
0.0
 40
5.3
  0
CIRCLE
  5
3D9
330
1F
100
AcDbEntity
  8
1
  6
Continuous
 62
     7
100
AcDbCircle
 10
479.9999999999997
 20
622.5000000000001
 30
0.0
 40
3.5
  0
CIRCLE
  5
3DA
330
1F
100
AcDbEntity
  8
1
  6
Continuous
 62
     7
100
AcDbCircle
 10
479.9999999999997
 20
622.5000000000001
 30
0.0
 40
2.5
  0
CIRCLE
  5
3DB
330
1F
100
AcDbEntity
  8
1
  6
Continuous
 62
     7
100
AcDbCircle
 10
480.0000007852768
 20
622.5000000000001
 30
0.0
 40
9.0
  0
CIRCLE
  5
3DC
330
1F
100
AcDbEntity
  8
1
  6
Continuous
 62
     7
100
AcDbCircle
 10
960.0000003061618
 20
622.5000000000001
 30
0.0
 40
12.5
  0
INSERT
  5
3E6
330
1F
100
AcDbEntity
  8
0
100
AcDbBlockReference
  2
*G23
 10
0.0
 20
0.0
 30
0.0
  0
CIRCLE
  5
3E7
330
1F
100
AcDbEntity
  8
1
  6
Continuous
 62
     7
100
AcDbCircle
 10
960.0000003061618
 20
622.5000000000001
 30
0.0
 40
6.0
  0
CIRCLE
  5
3E8
330
1F
100
AcDbEntity
  8
1
  6
Continuous
 62
     7
100
AcDbCircle
 10
960.0000003061618
 20
622.5000000000001
 30
0.0
 40
5.3
  0
CIRCLE
  5
3E9
330
1F
100
AcDbEntity
  8
1
  6
Continuous
 62
     7
100
AcDbCircle
 10
960.0000003061618
 20
622.5000000000001
 30
0.0
 40
3.5
  0
CIRCLE
  5
3EA
330
1F
100
AcDbEntity
  8
1
  6
Continuous
 62
     7
100
AcDbCircle
 10
960.0000003061618
 20
622.5000000000001
 30
0.0
 40
2.5
  0
CIRCLE
  5
3EB
330
1F
100
AcDbEntity
  8
1
  6
Continuous
 62
     7
100
AcDbCircle
 10
960.0000010914389
 20
622.5000000000001
 30
0.0
 40
9.0
  0
CIRCLE
  5
3EC
330
1F
100
AcDbEntity
  8
1
  6
Continuous
 62
     7
100
AcDbCircle
 10
474.6068558892413
 20
626.1282222369348
 30
0.0
 40
2.5
  0
CIRCLE
  5
3ED
330
1F
100
AcDbEntity
  8
1
  6
Continuous
 62
     7
100
AcDbCircle
 10
474.6068558892413
 20
626.1282222369348
 30
0.0
 40
1.25
  0
POLYLINE
  5
3EE
330
1F
100
AcDbEntity
  8
1
  6
Continuous
 62
     7
100
AcDb2dPolyline
 66
     1
 10
0.0
 20
0.0
 30
0.0
  0
VERTEX
  5
3EF
330
3EE
100
AcDbEntity
  8
1
  6
Continuous
 62
     7
100
AcDbVertex
100
AcDb2dVertex
 10
474.6068558892413
 20
626.1282222369348
 30
0.0
  0
VERTEX
  5
3F0
330
3EE
100
AcDbEntity
  8
1
  6
Continuous
 62
     7
100
AcDbVertex
100
AcDb2dVertex
 10
440.0
 20
640.0
 30
0.0
  0
VERTEX
  5
3F1
330
3EE
100
AcDbEntity
  8
1
  6
Continuous
 62
     7
100
AcDbVertex
100
AcDb2dVertex
 10
399.0
 20
640.0
 30
0.0
  0
SEQEND
  5
3F2
330
3EE
100
AcDbEntity
  8
1
  6
Continuous
 62
     7
  0
TEXT
  5
3F3
330
1F
100
AcDbEntity
  8
1
  6
Continuous
 62
     7
100
AcDbText
 10
399.0
 20
640.0
 30
0.0
 40
12.0
  1
2-C1255
 41
0.5
100
AcDbText
  0
ARC
  5
3F4
330
1F
100
AcDbEntity
  8
1
  6
Continuous
 62
     7
100
AcDbCircle
 10
480.0000001535998
 20
207.5
 30
0.0
 40
23.0
100
AcDbArc
 50
6.240131098257755
 51
53.75986860300782
  0
ARC
  5
3F5
330
1F
100
AcDbEntity
  8
1
  6
Continuous
 62
     7
100
AcDbCircle
 10
480.0000001535998
 20
207.5
 30
0.0
 40
23.0
100
AcDbArc
 50
306.2401316957262
 51
353.7598689017415
  0
LINE
  5
3F6
330
1F
100
AcDbEntity
  8
1
  6
Continuous
 62
     7
100
AcDbLine
 10
489.33493668568
 20
186.3314157375125
 30
0.0
 11
461.3301277268686
 21
170.1628317539221
 31
0.0
  0
LINE
  5
3F7
330
1F
100
AcDbEntity
  8
1
  6
Continuous
 62
     7
100
AcDbLine
 10
489.3349365792861
 20
228.6685841838992
 30
0.0
 11
461.3301278431805
 21
244.8371680885899
 31
0.0
  0
ARC
  5
3F8
330
1F
100
AcDbEntity
  8
1
  6
Continuous
 62
     7
100
AcDbCircle
 10
480.0000003056143
 20
207.5000000000008
 30
0.0
 40
28.0
100
AcDbArc
 50
2.046713097671008
 51
60.00000096723259
  0
ARC
  5
3F9
330
1F
100
AcDbEntity
  8
1
  6
Continuous
 62
     7
100
AcDbCircle
 10
480.0000003056143
 20
207.5000000000008
 30
0.0
 40
28.0
100
AcDbArc
 50
299.9999990918024
 51
357.9532869023255
  0
LINE
  5
3FA
330
1F
100
AcDbEntity
  8
1
  6
Continuous
 62
     7
100
AcDbLine
 10
507.9821374648807
 20
208.5
 30
0.0
 11
528.171572875254
 21
208.5
 31
0.0
  0
LINE
  5
3FB
330
1F
100
AcDbEntity
  8
1
  6
Continuous
 62
     7
100
AcDbLine
 10
507.9821374648806
 20
206.5
 30
0.0
 11
528.171572875254
 21
206.5
 31
0.0
  0
LINE
  5
3FC
330
1F
100
AcDbEntity
  8
1
  6
Continuous
 62
     7
100
AcDbLine
 10
494.2828565644963
 20
210.0
 30
0.0
 11
502.8637268839472
 21
210.0
 31
0.0
  0
LINE
  5
3FD
330
1F
100
AcDbEntity
  8
1
  6
Continuous
 62
     7
100
AcDbLine
 10
489.3064920311165
 20
218.6193165540341
 30
0.0
 11
493.5969271249554
 21
226.0505681027731
 31
0.0
  0
ARC
  5
3FE
330
1F
100
AcDbEntity
  8
1
  6
Continuous
 62
     7
100
AcDbCircle
 10
479.9999997074104
 20
207.5000000000007
 30
0.0
 40
14.5
100
AcDbArc
 50
9.928191842283507
 51
50.07180617026206
  0
LINE
  5
3FF
330
1F
100
AcDbEntity
  8
1
  6
Continuous
 62
     7
100
AcDbLine
 10
461.3301278431805
 20
244.8371680885899
 30
0.0
 11
475.0236353818258
 21
221.1193170937117
 31
0.0
  0
LINE
  5
400
330
1F
100
AcDbEntity
  8
1
  6
Continuous
 62
     7
100
AcDbLine
 10
461.3301277268686
 20
170.1628317539221
 30
0.0
 11
475.023635277467
 21
193.8806829444214
 31
0.0
  0
LINE
  5
401
330
1F
100
AcDbEntity
  8
1
  6
Continuous
 62
     7
100
AcDbLine
 10
489.33493668568
 20
186.3314157375125
 30
0.0
 11
484.9763650014237
 21
193.8806832511804
 31
0.0
  0
ARC
  5
402
330
1F
100
AcDbEntity
  8
1
  6
Continuous
 62
     7
100
AcDbCircle
 10
479.9999997074104
 20
207.5000000000007
 30
0.0
 40
14.5
100
AcDbArc
 50
249.9281939000659
 51
290.0718099129404
  0
LINE
  5
403
330
1F
100
AcDbEntity
  8
1
  6
Continuous
 62
     7
100
AcDbLine
 10
489.3064921185547
 20
196.3806835329371
 30
0.0
 11
493.5969272216763
 21
188.94943196812
 31
0.0
  0
LINE
  5
404
330
1F
100
AcDbEntity
  8
1
  6
Continuous
 62
     7
100
AcDbLine
 10
494.282856564496
 20
205.0
 30
0.0
 11
502.8637268839472
 21
205.0
 31
0.0
  0
ARC
  5
405
330
1F
100
AcDbEntity
  8
1
  6
Continuous
 62
     7
100
AcDbCircle
 10
479.9999997074104
 20
207.5000000000007
 30
0.0
 40
14.5
100
AcDbArc
 50
309.9281945539308
 51
350.0718081577099
  0
LINE
  5
406
330
1F
100
AcDbEntity
  8
1
  6
Continuous
 62
     7
100
AcDbLine
 10
484.9763649840648
 20
221.1193167462002
 30
0.0
 11
489.3349365792861
 21
228.6685841838992
 31
0.0
  0
ARC
  5
407
330
1F
100
AcDbEntity
  8
1
  6
Continuous
 62
     7
100
AcDbCircle
 10
479.9999997074104
 20
207.5000000000007
 30
0.0
 40
14.5
100
AcDbArc
 50
69.92819033799658
 51
110.0718056609009
  0
LINE
  5
408
330
1F
100
AcDbEntity
  8
1
  6
Continuous
 62
     7
100
AcDbLine
 10
455.9618162914904
 20
210.0
 30
0.0
 11
465.7171428503246
 21
210.0
 31
0.0
  0
ARC
  5
409
330
1F
100
AcDbEntity
  8
1
  6
Continuous
 62
     7
100
AcDbCircle
 10
479.9999997074104
 20
207.5000000000007
 30
0.0
 40
14.5
100
AcDbArc
 50
129.9281903439152
 51
170.0718081577165
  0
LINE
  5
40A
330
1F
100
AcDbEntity
  8
1
  6
Continuous
 62
     7
100
AcDbLine
 10
465.7171428503249
 20
205.0
 30
0.0
 11
455.9618162914904
 21
205.0
 31
0.0
  0
ARC
  5
40B
330
1F
100
AcDbEntity
  8
1
  6
Continuous
 62
     7
100
AcDbCircle
 10
479.9999997074104
 20
207.5000000000007
 30
0.0
 40
14.5
100
AcDbArc
 50
189.9281918422888
 51
230.0718096738979
  0
LINE
  5
40C
330
1F
100
AcDbEntity
  8
1
  6
Continuous
 62
     7
100
AcDbLine
 10
460.5076695317173
 20
205.0
 30
0.0
 11
460.5076695317173
 21
178.7382929504651
 31
0.0
  0
LINE
  5
40D
330
1F
100
AcDbEntity
  8
1
  6
Continuous
 62
     7
100
AcDbLine
 10
455.9618162914904
 20
205.0
 30
0.0
 11
455.9618162914904
 21
170.8646441427711
 31
0.0
  0
LINE
  5
40E
330
1F
100
AcDbEntity
  8
1
  6
Continuous
 62
     7
100
AcDbLine
 10
470.6935080636505
 20
196.3806828768755
 30
0.0
 11
455.9618162914904
 21
170.8646441427711
 31
0.0
  0
LINE
  5
40F
330
1F
100
AcDbEntity
  8
1
  6
Continuous
 62
     7
100
AcDbLine
 10
460.5076695317173
 20
236.2617069814973
 30
0.0
 11
460.5076695317173
 21
210.0
 31
0.0
  0
LINE
  5
410
330
1F
100
AcDbEntity
  8
1
  6
Continuous
 62
     7
100
AcDbLine
 10
455.9618162914904
 20
244.1353557627896
 30
0.0
 11
455.9618162914904
 21
210.0
 31
0.0
  0
LINE
  5
411
330
1F
100
AcDbEntity
  8
1
  6
Continuous
 62
     7
100
AcDbLine
 10
470.6935080601934
 20
218.6193171202325
 30
0.0
 11
455.9618162914904
 21
244.1353557627896
 31
0.0
  0
ELLIPSE
  5
412
330
1F
100
AcDbEntity
  8
1
  6
Continuous
 62
     7
100
AcDbEllipse
 10
467.2910000453807
 20
245.472
 30
0.0
 11
-17.291
 21
5.586876247302770E-14
 31
0.0
210
0.0
220
0.0
230
1.0
 40
0.8402058874559016
 41
-1.570796326794916
 42
0.0
  0
LINE
  5
413
330
1F
100
AcDbEntity
  8
1
  6
Continuous
 62
     7
100
AcDbLine
 10
467.2910000453807
 20
260.0
 30
0.0
 11
720.0
 21
260.0
 31
0.0
  0
LINE
  5
414
330
1F
100
AcDbEntity
  8
1
  6
Continuous
 62
     7
100
AcDbLine
 10
450.0000000453807
 20
245.4720000000001
 30
0.0
 11
450.0000000453807
 21
207.500001797383
 31
0.0
  0
ELLIPSE
  5
415
330
1F
100
AcDbEntity
  8
1
  6
Continuous
 62
     7
100
AcDbEllipse
 10
467.2910000453807
 20
243.28
 30
0.0
 11
1.893418241234996E-14
 21
11.72000000000003
 31
0.0
210
0.0
220
0.0
230
1.0
 40
0.9666539039155504
 41
0.0
 42
0.7677741774205712
  0
LINE
  5
416
330
1F
100
AcDbEntity
  8
1
  6
Continuous
 62
     7
100
AcDbLine
 10
528.1715730724318
 20
255.0
 30
0.0
 11
467.2910000453807
 21
255.0
 31
0.0
  0
LINE
  5
417
330
1F
100
AcDbEntity
  8
1
  6
Continuous
 62
     7
100
AcDbLine
 10
459.4224789068384
 20
251.7120520201881
 30
0.0
 11
494.0000001536001
 21
231.7487113059642
 31
0.0
  0
ELLIPSE
  5
418
330
1F
100
AcDbEntity
  8
1
  6
Continuous
 62
     7
100
AcDbEllipse
 10
467.2910000453807
 20
169.528
 30
0.0
 11
17.291
 21
0.0
 31
0.0
210
0.0
220
0.0
230
1.0
 40
0.8402058874559016
 41
-3.14159265358979
 42
-1.570796326794874
  0
LINE
  5
419
330
1F
100
AcDbEntity
  8
1
  6
Continuous
 62
     7
100
AcDbLine
 10
467.2910000453807
 20
155.0
 30
0.0
 11
720.0
 21
155.0
 31
0.0
  0
ELLIPSE
  5
41A
330
1F
100
AcDbEntity
  8
1
  6
Continuous
 62
     7
100
AcDbEllipse
 10
467.2910000453807
 20
171.72
 30
0.0
 11
1.893418241234996E-14
 21
-11.72000000000003
 31
0.0
210
0.0
220
0.0
230
1.0
 40
0.9666539039155504
 41
-0.7677741774205709
 42
0.0
  0
LINE
  5
41B
330
1F
100
AcDbEntity
  8
1
  6
Continuous
 62
     7
100
AcDbLine
 10
528.1715730724318
 20
160.0
 30
0.0
 11
467.2910000453807
 21
160.0
 31
0.0
  0
LINE
  5
41C
330
1F
100
AcDbEntity
  8
1
  6
Continuous
 62
     7
100
AcDbLine
 10
459.4224789068384
 20
163.2879479798119
 30
0.0
 11
494.0000001536001
 21
183.2512886940358
 31
0.0
  0
LINE
  5
41D
330
1F
100
AcDbEntity
  8
1
  6
Continuous
 62
     7
100
AcDbLine
 10
696.1715728752536
 20
159.9999999999995
 30
0.0
 11
659.8284271247463
 21
159.9999999999995
 31
0.0
  0
ARC
  5
41E
330
1F
100
AcDbEntity
  8
1
  6
Continuous
 62
     7
100
AcDbCircle
 10
698.9999999999999
 20
161.0
 30
0.0
 40
3.0
100
AcDbArc
 50
109.4712206344885
 51
199.4712206344807
  0
LINE
  5
41F
330
1F
100
AcDbEntity
  8
1
  6
Continuous
 62
     7
100
AcDbLine
 10
720.0
 20
160.0
 30
0.0
 11
701.8284271247462
 21
160.0
 31
0.0
  0
ARC
  5
420
330
1F
100
AcDbEntity
  8
1
  6
Continuous
 62
     7
100
AcDbCircle
 10
698.9999999999999
 20
161.0
 30
0.0
 40
3.0
100
AcDbArc
 50
340.528779365518
 51
70.52877936550705
  0
ARC
  5
421
330
1F
100
AcDbEntity
  8
1
  6
Continuous
 62
     7
100
AcDbCircle
 10
741.0
 20
207.4999999999995
 30
0.0
 40
3.0
100
AcDbArc
 50
199.4712206344902
 51
250.5287793655089
  0
ARC
  5
422
330
1F
100
AcDbEntity
  8
1
  6
Continuous
 62
     7
100
AcDbCircle
 10
741.0
 20
207.4999999999995
 30
0.0
 40
3.0
100
AcDbArc
 50
109.4712206344907
 51
160.5287793655095
  0
ARC
  5
423
330
1F
100
AcDbEntity
  8
1
  6
Continuous
 62
     7
100
AcDbCircle
 10
741.0
 20
207.4999999999995
 30
0.0
 40
3.0
100
AcDbArc
 50
19.47122063449055
 51
70.52877936550927
  0
ARC
  5
424
330
1F
100
AcDbEntity
  8
1
  6
Continuous
 62
     7
100
AcDbCircle
 10
741.0
 20
207.4999999999995
 30
0.0
 40
3.0
100
AcDbArc
 50
289.4712206344904
 51
340.5287793655091
  0
LINE
  5
425
330
1F
100
AcDbEntity
  8
1
  6
Continuous
 62
     7
100
AcDbLine
 10
738.1715728752538
 20
208.4999999999995
 30
0.0
 11
720.0
 21
208.5
 31
0.0
  0
LINE
  5
426
330
1F
100
AcDbEntity
  8
1
  6
Continuous
 62
     7
100
AcDbLine
 10
738.1715728752538
 20
206.4999999999995
 30
0.0
 11
720.0
 21
206.5
 31
0.0
  0
ARC
  5
427
330
1F
100
AcDbEntity
  8
1
  6
Continuous
 62
     7
100
AcDbCircle
 10
741.0
 20
207.4999999999995
 30
0.0
 40
3.0
100
AcDbArc
 50
199.4712206344902
 51
250.5287793655089
  0
LINE
  5
428
330
1F
100
AcDbEntity
  8
1
  6
Continuous
 62
     7
100
AcDbLine
 10
738.1715728752538
 20
206.4999999999995
 30
0.0
 11
720.0
 21
206.5
 31
0.0
  0
ARC
  5
429
330
1F
100
AcDbEntity
  8
1
  6
Continuous
 62
     7
100
AcDbCircle
 10
741.0
 20
207.4999999999995
 30
0.0
 40
3.0
100
AcDbArc
 50
289.4712206344904
 51
340.5287793655091
  0
ARC
  5
42A
330
1F
100
AcDbEntity
  8
1
  6
Continuous
 62
     7
100
AcDbCircle
 10
782.9999999999999
 20
207.5
 30
0.0
 40
3.0
100
AcDbArc
 50
199.4712206344902
 51
250.5287793655089
  0
ARC
  5
42B
330
1F
100
AcDbEntity
  8
1
  6
Continuous
 62
     7
100
AcDbCircle
 10
782.9999999999999
 20
207.5
 30
0.0
 40
3.0
100
AcDbArc
 50
109.4712206344907
 51
160.5287793655095
  0
ARC
  5
42C
330
1F
100
AcDbEntity
  8
1
  6
Continuous
 62
     7
100
AcDbCircle
 10
782.9999999999999
 20
207.5
 30
0.0
 40
3.0
100
AcDbArc
 50
19.47122063449055
 51
70.52877936550927
  0
ARC
  5
42D
330
1F
100
AcDbEntity
  8
1
  6
Continuous
 62
     7
100
AcDbCircle
 10
782.9999999999999
 20
207.5
 30
0.0
 40
3.0
100
AcDbArc
 50
289.4712206344904
 51
340.5287793655091
  0
ARC
  5
42E
330
1F
100
AcDbEntity
  8
1
  6
Continuous
 62
     7
100
AcDbCircle
 10
782.9999999999999
 20
207.5
 30
0.0
 40
3.0
100
AcDbArc
 50
199.4712206344902
 51
250.5287793655089
  0
ARC
  5
42F
330
1F
100
AcDbEntity
  8
1
  6
Continuous
 62
     7
100
AcDbCircle
 10
782.9999999999999
 20
207.5
 30
0.0
 40
3.0
100
AcDbArc
 50
289.4712206344904
 51
340.5287793655091
  0
LINE
  5
430
330
1F
100
AcDbEntity
  8
1
  6
Continuous
 62
     7
100
AcDbLine
 10
780.1715728752537
 20
208.5
 30
0.0
 11
743.8284271247462
 21
208.4999999999995
 31
0.0
  0
LINE
  5
431
330
1F
100
AcDbEntity
  8
1
  6
Continuous
 62
     7
100
AcDbLine
 10
780.1715728752537
 20
206.5
 30
0.0
 11
743.8284271247462
 21
206.4999999999995
 31
0.0
  0
LINE
  5
432
330
1F
100
AcDbEntity
  8
1
  6
Continuous
 62
     7
100
AcDbLine
 10
780.1715728752537
 20
206.5
 30
0.0
 11
743.8284271247462
 21
206.4999999999995
 31
0.0
  0
ARC
  5
433
330
1F
100
AcDbEntity
  8
1
  6
Continuous
 62
     7
100
AcDbCircle
 10
825.0
 20
207.4999999999995
 30
0.0
 40
3.0
100
AcDbArc
 50
199.4712206344902
 51
250.5287793655089
  0
ARC
  5
434
330
1F
100
AcDbEntity
  8
1
  6
Continuous
 62
     7
100
AcDbCircle
 10
825.0
 20
207.4999999999995
 30
0.0
 40
3.0
100
AcDbArc
 50
109.4712206344907
 51
160.5287793655095
  0
ARC
  5
435
330
1F
100
AcDbEntity
  8
1
  6
Continuous
 62
     7
100
AcDbCircle
 10
825.0
 20
207.4999999999995
 30
0.0
 40
3.0
100
AcDbArc
 50
289.4712206344904
 51
340.5287793655091
  0
ARC
  5
436
330
1F
100
AcDbEntity
  8
1
  6
Continuous
 62
     7
100
AcDbCircle
 10
825.0
 20
207.4999999999995
 30
0.0
 40
3.0
100
AcDbArc
 50
19.47122063449055
 51
70.52877936550927
  0
ARC
  5
437
330
1F
100
AcDbEntity
  8
1
  6
Continuous
 62
     7
100
AcDbCircle
 10
825.0
 20
207.4999999999995
 30
0.0
 40
3.0
100
AcDbArc
 50
199.4712206344902
 51
250.5287793655089
  0
ARC
  5
438
330
1F
100
AcDbEntity
  8
1
  6
Continuous
 62
     7
100
AcDbCircle
 10
825.0
 20
207.4999999999995
 30
0.0
 40
3.0
100
AcDbArc
 50
289.4712206344904
 51
340.5287793655091
  0
LINE
  5
439
330
1F
100
AcDbEntity
  8
1
  6
Continuous
 62
     7
100
AcDbLine
 10
822.1715728752538
 20
208.4999999999995
 30
0.0
 11
785.8284271247461
 21
208.5
 31
0.0
  0
LINE
  5
43A
330
1F
100
AcDbEntity
  8
1
  6
Continuous
 62
     7
100
AcDbLine
 10
822.1715728752538
 20
206.4999999999995
 30
0.0
 11
785.8284271247461
 21
206.5
 31
0.0
  0
LINE
  5
43B
330
1F
100
AcDbEntity
  8
1
  6
Continuous
 62
     7
100
AcDbLine
 10
822.1715728752538
 20
206.4999999999995
 30
0.0
 11
785.8284271247461
 21
206.5
 31
0.0
  0
ARC
  5
43C
330
1F
100
AcDbEntity
  8
1
  6
Continuous
 62
     7
100
AcDbCircle
 10
866.9999999999999
 20
207.5
 30
0.0
 40
3.0
100
AcDbArc
 50
199.4712206344902
 51
250.5287793655089
  0
ARC
  5
43D
330
1F
100
AcDbEntity
  8
1
  6
Continuous
 62
     7
100
AcDbCircle
 10
866.9999999999999
 20
207.5
 30
0.0
 40
3.0
100
AcDbArc
 50
109.4712206344907
 51
160.5287793655095
  0
ARC
  5
43E
330
1F
100
AcDbEntity
  8
1
  6
Continuous
 62
     7
100
AcDbCircle
 10
866.9999999999999
 20
207.5
 30
0.0
 40
3.0
100
AcDbArc
 50
19.47122063449127
 51
70.52877936550927
  0
ARC
  5
43F
330
1F
100
AcDbEntity
  8
1
  6
Continuous
 62
     7
100
AcDbCircle
 10
866.9999999999999
 20
207.5
 30
0.0
 40
3.0
100
AcDbArc
 50
289.4712206344904
 51
340.5287793655091
  0
ARC
  5
440
330
1F
100
AcDbEntity
  8
1
  6
Continuous
 62
     7
100
AcDbCircle
 10
866.9999999999999
 20
207.5
 30
0.0
 40
3.0
100
AcDbArc
 50
199.4712206344902
 51
250.5287793655089
  0
ARC
  5
441
330
1F
100
AcDbEntity
  8
1
  6
Continuous
 62
     7
100
AcDbCircle
 10
866.9999999999999
 20
207.5
 30
0.0
 40
3.0
100
AcDbArc
 50
289.4712206344904
 51
340.5287793655083
  0
LINE
  5
442
330
1F
100
AcDbEntity
  8
1
  6
Continuous
 62
     7
100
AcDbLine
 10
864.1715728752537
 20
206.5
 30
0.0
 11
827.8284271247462
 21
206.4999999999995
 31
0.0
  0
LINE
  5
443
330
1F
100
AcDbEntity
  8
1
  6
Continuous
 62
     7
100
AcDbLine
 10
864.1715728752537
 20
208.5
 30
0.0
 11
827.8284271247462
 21
208.4999999999995
 31
0.0
  0
LINE
  5
444
330
1F
100
AcDbEntity
  8
1
  6
Continuous
 62
     7
100
AcDbLine
 10
864.1715728752537
 20
206.5
 30
0.0
 11
827.8284271247462
 21
206.4999999999995
 31
0.0
  0
ARC
  5
445
330
1F
100
AcDbEntity
  8
1
  6
Continuous
 62
     7
100
AcDbCircle
 10
908.9999999999998
 20
207.5
 30
0.0
 40
3.0
100
AcDbArc
 50
199.4712206344902
 51
250.5287793655089
  0
ARC
  5
446
330
1F
100
AcDbEntity
  8
1
  6
Continuous
 62
     7
100
AcDbCircle
 10
908.9999999999998
 20
207.5
 30
0.0
 40
3.0
100
AcDbArc
 50
109.4712206344907
 51
160.5287793655095
  0
ARC
  5
447
330
1F
100
AcDbEntity
  8
1
  6
Continuous
 62
     7
100
AcDbCircle
 10
908.9999999999998
 20
207.5
 30
0.0
 40
3.0
100
AcDbArc
 50
19.47122063449055
 51
70.52877936550927
  0
ARC
  5
448
330
1F
100
AcDbEntity
  8
1
  6
Continuous
 62
     7
100
AcDbCircle
 10
908.9999999999998
 20
207.5
 30
0.0
 40
3.0
100
AcDbArc
 50
289.4712206344904
 51
340.5287793655091
  0
ARC
  5
449
330
1F
100
AcDbEntity
  8
1
  6
Continuous
 62
     7
100
AcDbCircle
 10
908.9999999999998
 20
207.5
 30
0.0
 40
3.0
100
AcDbArc
 50
199.4712206344902
 51
250.5287793655089
  0
ARC
  5
44A
330
1F
100
AcDbEntity
  8
1
  6
Continuous
 62
     7
100
AcDbCircle
 10
908.9999999999998
 20
207.5
 30
0.0
 40
3.0
100
AcDbArc
 50
289.4712206344904
 51
340.5287793655091
  0
LINE
  5
44B
330
1F
100
AcDbEntity
  8
1
  6
Continuous
 62
     7
100
AcDbLine
 10
906.1715728752536
 20
208.5
 30
0.0
 11
869.828427124746
 21
208.5
 31
0.0
  0
LINE
  5
44C
330
1F
100
AcDbEntity
  8
1
  6
Continuous
 62
     7
100
AcDbLine
 10
906.1715728752536
 20
206.5
 30
0.0
 11
869.8284271247461
 21
206.5
 31
0.0
  0
LINE
  5
44D
330
1F
100
AcDbEntity
  8
1
  6
Continuous
 62
     7
100
AcDbLine
 10
906.1715728752536
 20
206.5
 30
0.0
 11
869.828427124746
 21
206.5
 31
0.0
  0
LINE
  5
44E
330
1F
100
AcDbEntity
  8
1
  6
Continuous
 62
     7
100
AcDbLine
 10
742.0
 20
251.1715728752538
 30
0.0
 11
742.0
 21
210.3284271247457
 31
0.0
  0
ARC
  5
44F
330
1F
100
AcDbEntity
  8
1
  6
Continuous
 62
     7
100
AcDbCircle
 10
741.0000000000001
 20
254.0
 30
0.0
 40
3.0
100
AcDbArc
 50
289.4712206344881
 51
19.47122063448112
  0
LINE
  5
450
330
1F
100
AcDbEntity
  8
1
  6
Continuous
 62
     7
100
AcDbLine
 10
740.0
 20
210.3284271247457
 30
0.0
 11
740.0
 21
251.1715728752538
 31
0.0
  0
LINE
  5
451
330
1F
100
AcDbEntity
  8
1
  6
Continuous
 62
     7
100
AcDbLine
 10
720.0
 20
255.0
 30
0.0
 11
738.1715728752538
 21
255.0
 31
0.0
  0
ARC
  5
452
330
1F
100
AcDbEntity
  8
1
  6
Continuous
 62
     7
100
AcDbCircle
 10
741.0000000000001
 20
254.0
 30
0.0
 40
3.0
100
AcDbArc
 50
160.5287793655184
 51
250.5287793655067
  0
LINE
  5
453
330
1F
100
AcDbEntity
  8
1
  6
Continuous
 62
     7
100
AcDbLine
 10
742.0
 20
163.8284271247462
 30
0.0
 11
742.0
 21
204.6715728752543
 31
0.0
  0
LINE
  5
454
330
1F
100
AcDbEntity
  8
1
  6
Continuous
 62
     7
100
AcDbLine
 10
740.0
 20
204.6715728752543
 30
0.0
 11
740.0
 21
163.8284271247462
 31
0.0
  0
LINE
  5
455
330
1F
100
AcDbEntity
  8
1
  6
Continuous
 62
     7
100
AcDbLine
 10
783.9999999999999
 20
251.1715728752538
 30
0.0
 11
783.9999999999999
 21
210.3284271247457
 31
0.0
  0
LINE
  5
456
330
1F
100
AcDbEntity
  8
1
  6
Continuous
 62
     7
100
AcDbLine
 10
781.9999999999999
 20
210.3284271247457
 30
0.0
 11
781.9999999999999
 21
251.1715728752538
 31
0.0
  0
LINE
  5
457
330
1F
100
AcDbEntity
  8
1
  6
Continuous
 62
     7
100
AcDbLine
 10
783.9999999999999
 20
163.8284271247462
 30
0.0
 11
783.9999999999999
 21
204.6715728752543
 31
0.0
  0
LINE
  5
458
330
1F
100
AcDbEntity
  8
1
  6
Continuous
 62
     7
100
AcDbLine
 10
781.9999999999999
 20
204.6715728752543
 30
0.0
 11
781.9999999999999
 21
163.8284271247462
 31
0.0
  0
LINE
  5
459
330
1F
100
AcDbEntity
  8
1
  6
Continuous
 62
     7
100
AcDbLine
 10
826.0
 20
251.1715728752538
 30
0.0
 11
826.0
 21
210.3284271247457
 31
0.0
  0
LINE
  5
45A
330
1F
100
AcDbEntity
  8
1
  6
Continuous
 62
     7
100
AcDbLine
 10
824.0
 20
210.3284271247457
 30
0.0
 11
824.0
 21
251.1715728752538
 31
0.0
  0
LINE
  5
45B
330
1F
100
AcDbEntity
  8
1
  6
Continuous
 62
     7
100
AcDbLine
 10
826.0
 20
163.8284271247462
 30
0.0
 11
826.0
 21
204.6715728752543
 31
0.0
  0
LINE
  5
45C
330
1F
100
AcDbEntity
  8
1
  6
Continuous
 62
     7
100
AcDbLine
 10
824.0
 20
204.6715728752543
 30
0.0
 11
824.0
 21
163.8284271247462
 31
0.0
  0
LINE
  5
45D
330
1F
100
AcDbEntity
  8
1
  6
Continuous
 62
     7
100
AcDbLine
 10
867.9999999999984
 20
251.1715728752543
 30
0.0
 11
867.9999999999998
 21
210.3284271247462
 31
0.0
  0
LINE
  5
45E
330
1F
100
AcDbEntity
  8
1
  6
Continuous
 62
     7
100
AcDbLine
 10
865.9999999999998
 20
210.3284271247462
 30
0.0
 11
865.9999999999984
 21
251.1715728752543
 31
0.0
  0
LINE
  5
45F
330
1F
100
AcDbEntity
  8
1
  6
Continuous
 62
     7
100
AcDbLine
 10
868.0000000000014
 20
163.8284271247468
 30
0.0
 11
868.0
 21
204.6715728752549
 31
0.0
  0
LINE
  5
460
330
1F
100
AcDbEntity
  8
1
  6
Continuous
 62
     7
100
AcDbLine
 10
866.0
 20
204.6715728752548
 30
0.0
 11
866.0000000000014
 21
163.8284271247466
 31
0.0
  0
LINE
  5
461
330
1F
100
AcDbEntity
  8
1
  6
Continuous
 62
     7
100
AcDbLine
 10
909.9999998187141
 20
251.1715728794055
 30
0.0
 11
909.9999999882587
 21
210.3284271288974
 31
0.0
  0
LINE
  5
462
330
1F
100
AcDbEntity
  8
1
  6
Continuous
 62
     7
100
AcDbLine
 10
907.9999999882587
 20
210.3284271205952
 30
0.0
 11
907.999999818714
 21
251.1715728711033
 31
0.0
  0
LINE
  5
463
330
1F
100
AcDbEntity
  8
1
  6
Continuous
 62
     7
100
AcDbLine
 10
910.0000001812855
 20
163.8284271288979
 30
0.0
 11
910.0000000117409
 21
204.671572879406
 31
0.0
  0
LINE
  5
464
330
1F
100
AcDbEntity
  8
1
  6
Continuous
 62
     7
100
AcDbLine
 10
908.0000000117409
 20
204.6715728711038
 30
0.0
 11
908.0000001812855
 21
163.8284271205956
 31
0.0
  0
LINE
  5
465
330
1F
100
AcDbEntity
  8
1
  6
Continuous
 62
     7
100
AcDbLine
 10
743.8284271247464
 20
254.9999999999995
 30
0.0
 11
780.1715728752537
 21
254.9999999999995
 31
0.0
  0
ARC
  5
466
330
1F
100
AcDbEntity
  8
1
  6
Continuous
 62
     7
100
AcDbCircle
 10
783.0
 20
254.0
 30
0.0
 40
3.0
100
AcDbArc
 50
160.5287793655184
 51
250.5287793655067
  0
ARC
  5
467
330
1F
100
AcDbEntity
  8
1
  6
Continuous
 62
     7
100
AcDbCircle
 10
783.0
 20
254.0
 30
0.0
 40
3.0
100
AcDbArc
 50
289.4712206344881
 51
19.47122063448112
  0
ARC
  5
468
330
1F
100
AcDbEntity
  8
1
  6
Continuous
 62
     7
100
AcDbCircle
 10
783.0
 20
161.0
 30
0.0
 40
3.0
100
AcDbArc
 50
109.471220634493
 51
199.4712206344813
  0
ARC
  5
469
330
1F
100
AcDbEntity
  8
1
  6
Continuous
 62
     7
100
AcDbCircle
 10
783.0
 20
161.0
 30
0.0
 40
3.0
100
AcDbArc
 50
340.5287793655185
 51
70.5287793655115
  0
LINE
  5
46A
330
1F
100
AcDbEntity
  8
1
  6
Continuous
 62
     7
100
AcDbLine
 10
785.8284271247463
 20
255.0
 30
0.0
 11
822.1715728752538
 21
255.0
 31
0.0
  0
ARC
  5
46B
330
1F
100
AcDbEntity
  8
1
  6
Continuous
 62
     7
100
AcDbCircle
 10
825.0000000000001
 20
254.0
 30
0.0
 40
3.0
100
AcDbArc
 50
160.5287793655184
 51
250.5287793655067
  0
ARC
  5
46C
330
1F
100
AcDbEntity
  8
1
  6
Continuous
 62
     7
100
AcDbCircle
 10
825.0000000000001
 20
254.0
 30
0.0
 40
3.0
100
AcDbArc
 50
289.4712206344881
 51
19.47122063448112
  0
LINE
  5
46D
330
1F
100
AcDbEntity
  8
1
  6
Continuous
 62
     7
100
AcDbLine
 10
785.8284271247463
 20
160.0
 30
0.0
 11
822.1715728752538
 21
160.0
 31
0.0
  0
ARC
  5
46E
330
1F
100
AcDbEntity
  8
1
  6
Continuous
 62
     7
100
AcDbCircle
 10
825.0000000000001
 20
161.0
 30
0.0
 40
3.0
100
AcDbArc
 50
109.471220634493
 51
199.4712206344813
  0
ARC
  5
46F
330
1F
100
AcDbEntity
  8
1
  6
Continuous
 62
     7
100
AcDbCircle
 10
825.0000000000001
 20
161.0
 30
0.0
 40
3.0
100
AcDbArc
 50
340.5287793655185
 51
70.5287793655115
  0
LINE
  5
470
330
1F
100
AcDbEntity
  8
1
  6
Continuous
 62
     7
100
AcDbLine
 10
827.8284271247464
 20
159.9999999999995
 30
0.0
 11
864.1715728752553
 21
159.9999999999995
 31
0.0
  0
ARC
  5
471
330
1F
100
AcDbEntity
  8
1
  6
Continuous
 62
     7
100
AcDbCircle
 10
867.0000000000016
 20
161.0000000000005
 30
0.0
 40
3.0
100
AcDbArc
 50
109.4712206344952
 51
199.4712206344828
  0
ARC
  5
472
330
1F
100
AcDbEntity
  8
1
  6
Continuous
 62
     7
100
AcDbCircle
 10
867.0000000000016
 20
161.0000000000005
 30
0.0
 40
3.0
100
AcDbArc
 50
340.5287793655201
 51
70.52877936551373
  0
LINE
  5
473
330
1F
100
AcDbEntity
  8
1
  6
Continuous
 62
     7
100
AcDbLine
 10
827.8284271247464
 20
254.9999999999995
 30
0.0
 11
864.1715728752521
 21
254.9999999999995
 31
0.0
  0
ARC
  5
474
330
1F
100
AcDbEntity
  8
1
  6
Continuous
 62
     7
100
AcDbCircle
 10
866.9999999999984
 20
254.0000000000005
 30
0.0
 40
3.0
100
AcDbArc
 50
160.5287793655199
 51
250.5287793655089
  0
ARC
  5
475
330
1F
100
AcDbEntity
  8
1
  6
Continuous
 62
     7
100
AcDbCircle
 10
866.9999999999984
 20
254.0000000000005
 30
0.0
 40
3.0
100
AcDbArc
 50
289.4712206344904
 51
19.47122063448266
  0
LINE
  5
476
330
1F
100
AcDbEntity
  8
1
  6
Continuous
 62
     7
100
AcDbLine
 10
869.8284271247447
 20
255.0
 30
0.0
 11
906.1715726780756
 21
255.0
 31
0.0
  0
ARC
  5
477
330
1F
100
AcDbEntity
  8
1
  6
Continuous
 62
     7
100
AcDbCircle
 10
908.9999998069729
 20
254.0000000000006
 30
0.0
 40
3.0
100
AcDbArc
 50
160.5287796033593
 51
250.5287796033481
  0
ARC
  5
478
330
1F
100
AcDbEntity
  8
1
  6
Continuous
 62
     7
100
AcDbCircle
 10
908.9999998069729
 20
254.0000000000006
 30
0.0
 40
3.0
100
AcDbArc
 50
289.4712208723316
 51
19.47122087232198
  0
LINE
  5
479
330
1F
100
AcDbEntity
  8
1
  6
Continuous
 62
     7
100
AcDbLine
 10
869.8284271247479
 20
160.0
 30
0.0
 11
906.1715730724316
 21
160.0
 31
0.0
  0
ARC
  5
47A
330
1F
100
AcDbEntity
  8
1
  6
Continuous
 62
     7
100
AcDbCircle
 10
909.0000001930268
 20
161.0000000000006
 30
0.0
 40
3.0
100
AcDbArc
 50
109.4712208723364
 51
199.4712208723221
  0
ARC
  5
47B
330
1F
100
AcDbEntity
  8
1
  6
Continuous
 62
     7
100
AcDbCircle
 10
909.0000001930268
 20
161.0000000000006
 30
0.0
 40
3.0
100
AcDbArc
 50
340.5287796033594
 51
70.52877960335495
  0
ARC
  5
47C
330
1F
100
AcDbEntity
  8
1
  6
Continuous
 62
     7
100
AcDbCircle
 10
959.9999998464002
 20
207.5
 30
0.0
 40
23.0
100
AcDbArc
 50
126.2401313969923
 51
173.7598689017423
  0
ARC
  5
47D
330
1F
100
AcDbEntity
  8
1
  6
Continuous
 62
     7
100
AcDbCircle
 10
959.9999998464002
 20
207.5
 30
0.0
 40
23.0
100
AcDbArc
 50
186.2401310982578
 51
233.7598683042729
  0
LINE
  5
47E
330
1F
100
AcDbEntity
  8
1
  6
Continuous
 62
     7
100
AcDbLine
 10
950.66506331432
 20
186.3314157375125
 30
0.0
 11
978.6698722731314
 21
170.1628317539221
 31
0.0
  0
LINE
  5
47F
330
1F
100
AcDbEntity
  8
1
  6
Continuous
 62
     7
100
AcDbLine
 10
950.665063420714
 20
228.6685841838992
 30
0.0
 11
978.6698721568195
 21
244.8371680885899
 31
0.0
  0
ARC
  5
480
330
1F
100
AcDbEntity
  8
1
  6
Continuous
 62
     7
100
AcDbCircle
 10
959.9999996943857
 20
207.5000000000008
 30
0.0
 40
28.0
100
AcDbArc
 50
119.9999990327673
 51
177.953286902329
  0
ARC
  5
481
330
1F
100
AcDbEntity
  8
1
  6
Continuous
 62
     7
100
AcDbCircle
 10
959.9999996943857
 20
207.5000000000008
 30
0.0
 40
28.0
100
AcDbArc
 50
182.0467130976738
 51
240.0000009081971
  0
LINE
  5
482
330
1F
100
AcDbEntity
  8
1
  6
Continuous
 62
     7
100
AcDbLine
 10
932.0178625351193
 20
208.5
 30
0.0
 11
911.828427124746
 21
208.5
 31
0.0
  0
LINE
  5
483
330
1F
100
AcDbEntity
  8
1
  6
Continuous
 62
     7
100
AcDbLine
 10
932.0178625351193
 20
206.5
 30
0.0
 11
911.828427124746
 21
206.5
 31
0.0
  0
LINE
  5
484
330
1F
100
AcDbEntity
  8
1
  6
Continuous
 62
     7
100
AcDbLine
 10
945.7171434355037
 20
210.0
 30
0.0
 11
937.1362731160527
 21
210.0
 31
0.0
  0
LINE
  5
485
330
1F
100
AcDbEntity
  8
1
  6
Continuous
 62
     7
100
AcDbLine
 10
950.6935079688835
 20
218.6193165540341
 30
0.0
 11
946.4030728750446
 21
226.0505681027731
 31
0.0
  0
ARC
  5
486
330
1F
100
AcDbEntity
  8
1
  6
Continuous
 62
     7
100
AcDbCircle
 10
960.0000002925896
 20
207.5000000000007
 30
0.0
 40
14.5
100
AcDbArc
 50
129.9281938297379
 51
170.0718081577165
  0
LINE
  5
487
330
1F
100
AcDbEntity
  8
1
  6
Continuous
 62
     7
100
AcDbLine
 10
978.6698721568195
 20
244.8371680885899
 30
0.0
 11
964.9763646181741
 21
221.1193170937117
 31
0.0
  0
LINE
  5
488
330
1F
100
AcDbEntity
  8
1
  6
Continuous
 62
     7
100
AcDbLine
 10
978.6698722731314
 20
170.1628317539221
 30
0.0
 11
964.976364722533
 21
193.8806829444214
 31
0.0
  0
LINE
  5
489
330
1F
100
AcDbEntity
  8
1
  6
Continuous
 62
     7
100
AcDbLine
 10
950.66506331432
 20
186.3314157375125
 30
0.0
 11
955.0236349985762
 21
193.8806832511804
 31
0.0
  0
ARC
  5
48A
330
1F
100
AcDbEntity
  8
1
  6
Continuous
 62
     7
100
AcDbCircle
 10
960.0000002925896
 20
207.5000000000007
 30
0.0
 40
14.5
100
AcDbArc
 50
249.9281900870591
 51
290.0718060999336
  0
LINE
  5
48B
330
1F
100
AcDbEntity
  8
1
  6
Continuous
 62
     7
100
AcDbLine
 10
950.6935078814454
 20
196.3806835329371
 30
0.0
 11
946.4030727783237
 21
188.94943196812
 31
0.0
  0
LINE
  5
48C
330
1F
100
AcDbEntity
  8
1
  6
Continuous
 62
     7
100
AcDbLine
 10
945.717143435504
 20
205.0
 30
0.0
 11
937.1362731160527
 21
205.0
 31
0.0
  0
ARC
  5
48D
330
1F
100
AcDbEntity
  8
1
  6
Continuous
 62
     7
100
AcDbCircle
 10
960.0000002925896
 20
207.5000000000007
 30
0.0
 40
14.5
100
AcDbArc
 50
189.9281918422894
 51
230.0718054460683
  0
LINE
  5
48E
330
1F
100
AcDbEntity
  8
1
  6
Continuous
 62
     7
100
AcDbLine
 10
955.0236350159353
 20
221.1193167462002
 30
0.0
 11
950.665063420714
 21
228.6685841838992
 31
0.0
  0
ARC
  5
48F
330
1F
100
AcDbEntity
  8
1
  6
Continuous
 62
     7
100
AcDbCircle
 10
960.0000002925896
 20
207.5000000000007
 30
0.0
 40
14.5
100
AcDbArc
 50
69.92819433909928
 51
110.0718096620032
  0
LINE
  5
490
330
1F
100
AcDbEntity
  8
1
  6
Continuous
 62
     7
100
AcDbLine
 10
984.0381837085097
 20
210.0
 30
0.0
 11
974.2828571496755
 21
210.0
 31
0.0
  0
ARC
  5
491
330
1F
100
AcDbEntity
  8
1
  6
Continuous
 62
     7
100
AcDbCircle
 10
960.0000002925896
 20
207.5000000000007
 30
0.0
 40
14.5
100
AcDbArc
 50
9.92819184228347
 51
50.0718096560846
  0
LINE
  5
492
330
1F
100
AcDbEntity
  8
1
  6
Continuous
 62
     7
100
AcDbLine
 10
974.2828571496751
 20
205.0
 30
0.0
 11
984.0381837085097
 21
205.0
 31
0.0
  0
ARC
  5
493
330
1F
100
AcDbEntity
  8
1
  6
Continuous
 62
     7
100
AcDbCircle
 10
960.0000002925896
 20
207.5000000000007
 30
0.0
 40
14.5
100
AcDbArc
 50
309.9281903261014
 51
350.0718081577105
  0
LINE
  5
494
330
1F
100
AcDbEntity
  8
1
  6
Continuous
 62
     7
100
AcDbLine
 10
979.4923304682827
 20
205.0
 30
0.0
 11
979.4923304682827
 21
178.7382929504651
 31
0.0
  0
LINE
  5
495
330
1F
100
AcDbEntity
  8
1
  6
Continuous
 62
     7
100
AcDbLine
 10
984.0381837085097
 20
205.0
 30
0.0
 11
984.0381837085097
 21
170.8646441427711
 31
0.0
  0
LINE
  5
496
330
1F
100
AcDbEntity
  8
1
  6
Continuous
 62
     7
100
AcDbLine
 10
969.3064919363494
 20
196.3806828768755
 30
0.0
 11
984.0381837085097
 21
170.8646441427711
 31
0.0
  0
LINE
  5
497
330
1F
100
AcDbEntity
  8
1
  6
Continuous
 62
     7
100
AcDbLine
 10
979.4923304682827
 20
236.2617069814973
 30
0.0
 11
979.4923304682827
 21
210.0
 31
0.0
  0
LINE
  5
498
330
1F
100
AcDbEntity
  8
1
  6
Continuous
 62
     7
100
AcDbLine
 10
984.0381837085097
 20
244.1353557627896
 30
0.0
 11
984.0381837085097
 21
210.0
 31
0.0
  0
LINE
  5
499
330
1F
100
AcDbEntity
  8
1
  6
Continuous
 62
     7
100
AcDbLine
 10
969.3064919398066
 20
218.6193171202325
 30
0.0
 11
984.0381837085097
 21
244.1353557627896
 31
0.0
  0
ELLIPSE
  5
49A
330
1F
100
AcDbEntity
  8
1
  6
Continuous
 62
     7
100
AcDbEllipse
 10
972.7089999546193
 20
245.472
 30
0.0
 11
-17.291
 21
1.019412416381323E-13
 31
0.0
210
0.0
220
0.0
230
1.0
 40
0.8402058874559016
 41
-3.14159265358979
 42
-1.570796326794874
  0
LINE
  5
49B
330
1F
100
AcDbEntity
  8
1
  6
Continuous
 62
     7
100
AcDbLine
 10
972.7089999546193
 20
260.0
 30
0.0
 11
720.0
 21
260.0
 31
0.0
  0
LINE
  5
49C
330
1F
100
AcDbEntity
  8
1
  6
Continuous
 62
     7
100
AcDbLine
 10
989.9999999546193
 20
245.4720000000001
 30
0.0
 11
989.9999999546193
 21
207.500001797383
 31
0.0
  0
ELLIPSE
  5
49D
330
1F
100
AcDbEntity
  8
1
  6
Continuous
 62
     7
100
AcDbEllipse
 10
972.7089999546193
 20
243.28
 30
0.0
 11
5.016253564900644E-14
 21
11.72000000000003
 31
0.0
210
0.0
220
0.0
230
1.0
 40
0.9666539039155504
 41
-0.7677741774205709
 42
0.0
  0
LINE
  5
49E
330
1F
100
AcDbEntity
  8
1
  6
Continuous
 62
     7
100
AcDbLine
 10
911.8284269275682
 20
255.0
 30
0.0
 11
972.7089999546193
 21
255.0
 31
0.0
  0
LINE
  5
49F
330
1F
100
AcDbEntity
  8
1
  6
Continuous
 62
     7
100
AcDbLine
 10
980.5775210931616
 20
251.7120520201881
 30
0.0
 11
945.9999998464
 21
231.7487113059642
 31
0.0
  0
ELLIPSE
  5
4A0
330
1F
100
AcDbEntity
  8
1
  6
Continuous
 62
     7
100
AcDbEllipse
 10
972.7089999546193
 20
169.528
 30
0.0
 11
17.291
 21
-5.375122569262202E-14
 31
0.0
210
0.0
220
0.0
230
1.0
 40
0.8402058874559016
 41
-1.570796326794916
 42
-0.0000000000000002
  0
LINE
  5
4A1
330
1F
100
AcDbEntity
  8
1
  6
Continuous
 62
     7
100
AcDbLine
 10
972.7089999546193
 20
155.0
 30
0.0
 11
720.0
 21
155.0
 31
0.0
  0
ELLIPSE
  5
4A2
330
1F
100
AcDbEntity
  8
1
  6
Continuous
 62
     7
100
AcDbEllipse
 10
972.7089999546193
 20
171.72
 30
0.0
 11
-1.749889636374926E-14
 21
-11.72000000000003
 31
0.0
210
0.0
220
0.0
230
1.0
 40
0.9666539039155504
 41
0.0
 42
0.7677741774205709
  0
LINE
  5
4A3
330
1F
100
AcDbEntity
  8
1
  6
Continuous
 62
     7
100
AcDbLine
 10
911.8284269275682
 20
160.0
 30
0.0
 11
972.7089999546193
 21
160.0
 31
0.0
  0
LINE
  5
4A4
330
1F
100
AcDbEntity
  8
1
  6
Continuous
 62
     7
100
AcDbLine
 10
980.5775210931616
 20
163.2879479798119
 30
0.0
 11
945.9999998464
 21
183.2512886940358
 31
0.0
  0
LINE
  5
4A5
330
1F
100
AcDbEntity
  8
1
  6
Continuous
 62
     7
100
AcDbLine
 10
743.8284271247464
 20
159.9999999999995
 30
0.0
 11
780.1715728752537
 21
159.9999999999995
 31
0.0
  0
ARC
  5
4A6
330
1F
100
AcDbEntity
  8
1
  6
Continuous
 62
     7
100
AcDbCircle
 10
741.0000000000001
 20
161.0
 30
0.0
 40
3.0
100
AcDbArc
 50
340.5287793655185
 51
70.5287793655115
  0
LINE
  5
4A7
330
1F
100
AcDbEntity
  8
1
  6
Continuous
 62
     7
100
AcDbLine
 10
720.0
 20
160.0
 30
0.0
 11
738.1715728752538
 21
160.0
 31
0.0
  0
ARC
  5
4A8
330
1F
100
AcDbEntity
  8
1
  6
Continuous
 62
     7
100
AcDbCircle
 10
741.0000000000001
 20
161.0
 30
0.0
 40
3.0
100
AcDbArc
 50
109.471220634493
 51
199.4712206344813
  0
LINE
  5
4A9
330
1F
100
AcDbEntity
  8
1
  6
Continuous
 62
     7
100
AcDbLine
 10
450.0000000453807
 20
169.5279999999999
 30
0.0
 11
450.0000000453807
 21
207.499998202617
 31
0.0
  0
LINE
  5
4AA
330
1F
100
AcDbEntity
  8
1
  6
Continuous
 62
     7
100
AcDbLine
 10
989.9999999546193
 20
169.5279999999999
 30
0.0
 11
989.9999999546193
 21
207.499998202617
 31
0.0
  0
ELLIPSE
  5
4AB
330
1F
100
AcDbEntity
  8
1
  6
Continuous
 62
     7
100
AcDbEllipse
 10
467.2910000453807
 20
660.472
 30
0.0
 11
-17.291
 21
5.586876247302770E-14
 31
0.0
210
0.0
220
0.0
230
1.0
 40
0.8402058874559016
 41
-1.570796326794916
 42
0.0
  0
LINE
  5
4AC
330
1F
100
AcDbEntity
  8
1
  6
Continuous
 62
     7
100
AcDbLine
 10
467.2910000453807
 20
675.0
 30
0.0
 11
720.0
 21
675.0
 31
0.0
  0
LINE
  5
4AD
330
1F
100
AcDbEntity
  8
1
  6
Continuous
 62
     7
100
AcDbLine
 10
450.0000000453807
 20
660.4720000000001
 30
0.0
 11
450.0000000453807
 21
622.500001797383
 31
0.0
  0
ELLIPSE
  5
4AE
330
1F
100
AcDbEntity
  8
1
  6
Continuous
 62
     7
100
AcDbEllipse
 10
467.2910000453807
 20
584.528
 30
0.0
 11
17.291
 21
0.0
 31
0.0
210
0.0
220
0.0
230
1.0
 40
0.8402058874559016
 41
-3.14159265358979
 42
-1.570796326794874
  0
ELLIPSE
  5
4AF
330
1F
100
AcDbEntity
  8
1
  6
Continuous
 62
     7
100
AcDbEllipse
 10
972.7089999546193
 20
660.472
 30
0.0
 11
-17.291
 21
1.019412416381323E-13
 31
0.0
210
0.0
220
0.0
230
1.0
 40
0.8402058874559016
 41
-3.14159265358979
 42
-1.570796326794874
  0
LINE
  5
4B0
330
1F
100
AcDbEntity
  8
1
  6
Continuous
 62
     7
100
AcDbLine
 10
972.7089999546193
 20
675.0
 30
0.0
 11
720.0
 21
675.0
 31
0.0
  0
LINE
  5
4B1
330
1F
100
AcDbEntity
  8
1
  6
Continuous
 62
     7
100
AcDbLine
 10
989.9999999546193
 20
660.4720000000001
 30
0.0
 11
989.9999999546193
 21
622.500001797383
 31
0.0
  0
ELLIPSE
  5
4B2
330
1F
100
AcDbEntity
  8
1
  6
Continuous
 62
     7
100
AcDbEllipse
 10
972.7089999546193
 20
584.528
 30
0.0
 11
17.291
 21
-5.375122569262202E-14
 31
0.0
210
0.0
220
0.0
230
1.0
 40
0.8402058874559016
 41
-1.570796326794916
 42
-0.0000000000000002
  0
LINE
  5
4B3
330
1F
100
AcDbEntity
  8
1
  6
Continuous
 62
     7
100
AcDbLine
 10
450.0000000453807
 20
584.5279999999999
 30
0.0
 11
450.0000000453807
 21
622.499998202617
 31
0.0
  0
LINE
  5
4B4
330
1F
100
AcDbEntity
  8
1
  6
Continuous
 62
     7
100
AcDbLine
 10
989.9999999546193
 20
584.5279999999999
 30
0.0
 11
989.9999999546193
 21
622.499998202617
 31
0.0
  0
CIRCLE
  5
4B5
330
1F
100
AcDbEntity
  8
1
  6
Continuous
 62
     7
100
AcDbCircle
 10
479.9999900416028
 20
207.4999999999999
 30
0.0
 40
2.5
  0
ARC
  5
4B6
330
1F
100
AcDbEntity
  8
1
  6
Continuous
 62
     7
100
AcDbCircle
 10
479.9999999999997
 20
207.4999999999999
 30
0.0
 40
6.0
100
AcDbArc
 50
355.2197127252608
 51
4.780096419522478
  0
LINE
  5
4B7
330
1F
100
AcDbEntity
  8
1
  6
Continuous
 62
     7
100
AcDbLine
 10
485.9791312043057
 20
207.9999900415952
 30
0.0
 11
482.4494917755126
 21
207.9999900415952
 31
0.0
  0
LINE
  5
4B8
330
1F
100
AcDbEntity
  8
1
  6
Continuous
 62
     7
100
AcDbLine
 10
485.9791295387796
 20
206.9999900416109
 30
0.0
 11
482.4494877100141
 21
206.9999900416109
 31
0.0
  0
LINE
  5
4B9
330
1F
100
AcDbEntity
  8
1
  6
Continuous
 62
     7
100
AcDbLine
 10
481.5000000000014
 20
214.4791303715504
 30
0.0
 11
481.5000000000011
 21
209.4999925311625
 31
0.0
  0
LINE
  5
4BA
330
1F
100
AcDbEntity
  8
1
  6
Continuous
 62
     7
100
AcDbLine
 10
486.9791312043051
 20
208.9999900416032
 30
0.0
 11
482.0000074687584
 21
208.9999900416032
 31
0.0
  0
ARC
  5
4BB
330
1F
100
AcDbEntity
  8
1
  6
Continuous
 62
     7
100
AcDbCircle
 10
480.9999999999999
 20
208.4999999999999
 30
0.0
 40
5.999999999999943
100
AcDbArc
 50
4.780096419598886
 51
85.21980815278606
  0
LINE
  5
4BC
330
1F
100
AcDbEntity
  8
1
  6
Continuous
 62
     7
100
AcDbLine
 10
479.5000000000075
 20
213.479131204306
 30
0.0
 11
479.5000000000075
 21
209.9494917755128
 31
0.0
  0
LINE
  5
4BD
330
1F
100
AcDbEntity
  8
1
  6
Continuous
 62
     7
100
AcDbLine
 10
480.4999999999918
 20
213.4791295387798
 30
0.0
 11
480.4999999999918
 21
209.9494877100144
 31
0.0
  0
ARC
  5
4BE
330
1F
100
AcDbEntity
  8
1
  6
Continuous
 62
     7
100
AcDbCircle
 10
479.9999900416028
 20
207.4999999999999
 30
0.0
 40
6.0
100
AcDbArc
 50
85.21971272526119
 51
94.78009641952242
  0
LINE
  5
4BF
330
1F
100
AcDbEntity
  8
1
  6
Continuous
 62
     7
100
AcDbLine
 10
481.5000000000014
 20
214.4791303715504
 30
0.0
 11
480.4999999999921
 21
213.4999999999999
 31
0.0
  0
LINE
  5
4C0
330
1F
100
AcDbEntity
  8
1
  6
Continuous
 62
     7
100
AcDbLine
 10
486.9886597938861
 20
208.9999900416032
 30
0.0
 11
485.9791312043057
 21
207.9999900415952
 31
0.0
  0
ARC
  5
4C1
330
1F
100
AcDbEntity
  8
1
  6
Continuous
 62
     7
100
AcDbCircle
 10
480.0000000000002
 20
207.4999999999999
 30
0.0
 40
6.0
100
AcDbArc
 50
175.2197127252612
 51
184.7800964195221
  0
LINE
  5
4C2
330
1F
100
AcDbEntity
  8
1
  6
Continuous
 62
     7
100
AcDbLine
 10
474.0208687956942
 20
207.0000099584046
 30
0.0
 11
477.5505082244873
 21
207.0000099584046
 31
0.0
  0
LINE
  5
4C3
330
1F
100
AcDbEntity
  8
1
  6
Continuous
 62
     7
100
AcDbLine
 10
474.0208704612203
 20
208.0000099583889
 30
0.0
 11
477.5505122899858
 21
208.0000099583889
 31
0.0
  0
LINE
  5
4C4
330
1F
100
AcDbEntity
  8
1
  6
Continuous
 62
     7
100
AcDbLine
 10
478.4999999999985
 20
200.5208696284494
 30
0.0
 11
478.4999999999987
 21
205.5000074688373
 31
0.0
  0
LINE
  5
4C5
330
1F
100
AcDbEntity
  8
1
  6
Continuous
 62
     7
100
AcDbLine
 10
473.0208687956948
 20
206.0000099583967
 30
0.0
 11
477.9999925312415
 21
206.0000099583967
 31
0.0
  0
ARC
  5
4C6
330
1F
100
AcDbEntity
  8
1
  6
Continuous
 62
     7
100
AcDbCircle
 10
479.0
 20
206.5
 30
0.0
 40
5.999999999999943
100
AcDbArc
 50
184.7800964195985
 51
265.2198081527857
  0
LINE
  5
4C7
330
1F
100
AcDbEntity
  8
1
  6
Continuous
 62
     7
100
AcDbLine
 10
480.4999999999924
 20
201.5208687956939
 30
0.0
 11
480.4999999999924
 21
205.050508224487
 31
0.0
  0
LINE
  5
4C8
330
1F
100
AcDbEntity
  8
1
  6
Continuous
 62
     7
100
AcDbLine
 10
479.5000000000081
 20
201.52087046122
 30
0.0
 11
479.5000000000081
 21
205.0505122899855
 31
0.0
  0
ARC
  5
4C9
330
1F
100
AcDbEntity
  8
1
  6
Continuous
 62
     7
100
AcDbCircle
 10
480.0000099583971
 20
207.4999999999999
 30
0.0
 40
6.0
100
AcDbArc
 50
265.2197127252608
 51
274.7800964195221
  0
LINE
  5
4CA
330
1F
100
AcDbEntity
  8
1
  6
Continuous
 62
     7
100
AcDbLine
 10
478.4999999999985
 20
200.5208696284494
 30
0.0
 11
479.5000000000078
 21
201.5
 31
0.0
  0
LINE
  5
4CB
330
1F
100
AcDbEntity
  8
1
  6
Continuous
 62
     7
100
AcDbLine
 10
473.0113402061138
 20
206.0000099583967
 30
0.0
 11
474.0208687956942
 21
207.0000099584046
 31
0.0
  0
LINE
  5
4CC
330
1F
100
AcDbEntity
  8
1
  6
Continuous
 62
     7
100
AcDbLine
 10
473.0208696284495
 20
209.0000000000014
 30
0.0
 11
478.0000074688373
 21
209.0000000000011
 31
0.0
  0
LINE
  5
4CD
330
1F
100
AcDbEntity
  8
1
  6
Continuous
 62
     7
100
AcDbLine
 10
478.5000099583967
 20
214.4791312043051
 30
0.0
 11
478.5000099583967
 21
209.5000074687583
 31
0.0
  0
ARC
  5
4CE
330
1F
100
AcDbEntity
  8
1
  6
Continuous
 62
     7
100
AcDbCircle
 10
479.0
 20
208.4999999999999
 30
0.0
 40
5.999999999999943
100
AcDbArc
 50
94.78009641959889
 51
175.2198081527866
  0
LINE
  5
4CF
330
1F
100
AcDbEntity
  8
1
  6
Continuous
 62
     7
100
AcDbLine
 10
486.9791303715504
 20
205.9999999999984
 30
0.0
 11
481.9999925311625
 21
205.9999999999987
 31
0.0
  0
LINE
  5
4D0
330
1F
100
AcDbEntity
  8
1
  6
Continuous
 62
     7
100
AcDbLine
 10
481.4999900416032
 20
200.5208687956948
 30
0.0
 11
481.4999900416032
 21
205.4999925312414
 31
0.0
  0
ARC
  5
4D1
330
1F
100
AcDbEntity
  8
1
  6
Continuous
 62
     7
100
AcDbCircle
 10
480.9999999999999
 20
206.5
 30
0.0
 40
5.999999999999943
100
AcDbArc
 50
274.7800964195985
 51
355.2198081527852
  0
LINE
  5
4D2
330
1F
100
AcDbEntity
  8
1
  6
Continuous
 62
     7
100
AcDbLine
 10
478.4999999999996
 20
214.4791303715504
 30
0.0
 11
479.5000000000075
 21
213.4999999999999
 31
0.0
  0
LINE
  5
4D3
330
1F
100
AcDbEntity
  8
1
  6
Continuous
 62
     7
100
AcDbLine
 10
473.0208696284495
 20
209.0000000000014
 30
0.0
 11
474.0208687956942
 21
207.9999900415952
 31
0.0
  0
LINE
  5
4D4
330
1F
100
AcDbEntity
  8
1
  6
Continuous
 62
     7
100
AcDbLine
 10
485.9791295387796
 20
206.9999900416109
 30
0.0
 11
486.979129538779
 21
205.9999900416016
 31
0.0
  0
LINE
  5
4D5
330
1F
100
AcDbEntity
  8
1
  6
Continuous
 62
     7
100
AcDbLine
 10
480.4999999999918
 20
201.5208687956939
 30
0.0
 11
481.4999900416032
 21
200.5208687956948
 31
0.0
  0
CIRCLE
  5
4D6
330
1F
100
AcDbEntity
  8
1
  6
Continuous
 62
     7
100
AcDbCircle
 10
959.9999903477647
 20
207.4999999999999
 30
0.0
 40
2.5
  0
ARC
  5
4D7
330
1F
100
AcDbEntity
  8
1
  6
Continuous
 62
     7
100
AcDbCircle
 10
960.0000003061616
 20
207.4999999999999
 30
0.0
 40
6.0
100
AcDbArc
 50
355.2197127252608
 51
4.780096419522524
  0
LINE
  5
4D8
330
1F
100
AcDbEntity
  8
1
  6
Continuous
 62
     7
100
AcDbLine
 10
965.9791315104676
 20
207.9999900415952
 30
0.0
 11
962.4494920816744
 21
207.9999900415952
 31
0.0
  0
LINE
  5
4D9
330
1F
100
AcDbEntity
  8
1
  6
Continuous
 62
     7
100
AcDbLine
 10
965.9791298449416
 20
206.9999900416109
 30
0.0
 11
962.449488016176
 21
206.9999900416109
 31
0.0
  0
LINE
  5
4DA
330
1F
100
AcDbEntity
  8
1
  6
Continuous
 62
     7
100
AcDbLine
 10
961.5000003061633
 20
214.4791303715504
 30
0.0
 11
961.500000306163
 21
209.4999925311625
 31
0.0
  0
LINE
  5
4DB
330
1F
100
AcDbEntity
  8
1
  6
Continuous
 62
     7
100
AcDbLine
 10
966.9791315104669
 20
208.9999900416032
 30
0.0
 11
962.0000077749203
 21
208.9999900416032
 31
0.0
  0
ARC
  5
4DC
330
1F
100
AcDbEntity
  8
1
  6
Continuous
 62
     7
100
AcDbCircle
 10
961.0000003061618
 20
208.4999999999999
 30
0.0
 40
5.999999999999943
100
AcDbArc
 50
4.780096419598976
 51
85.2198081527866
  0
LINE
  5
4DD
330
1F
100
AcDbEntity
  8
1
  6
Continuous
 62
     7
100
AcDbLine
 10
959.5000003061693
 20
213.479131204306
 30
0.0
 11
959.5000003061693
 21
209.9494917755128
 31
0.0
  0
LINE
  5
4DE
330
1F
100
AcDbEntity
  8
1
  6
Continuous
 62
     7
100
AcDbLine
 10
960.5000003061537
 20
213.4791295387798
 30
0.0
 11
960.5000003061537
 21
209.9494877100144
 31
0.0
  0
ARC
  5
4DF
330
1F
100
AcDbEntity
  8
1
  6
Continuous
 62
     7
100
AcDbCircle
 10
959.9999903477647
 20
207.4999999999999
 30
0.0
 40
6.0
100
AcDbArc
 50
85.21971272526119
 51
94.78009641952242
  0
LINE
  5
4E0
330
1F
100
AcDbEntity
  8
1
  6
Continuous
 62
     7
100
AcDbLine
 10
961.5000003061633
 20
214.4791303715504
 30
0.0
 11
960.500000306154
 21
213.4999999999999
 31
0.0
  0
LINE
  5
4E1
330
1F
100
AcDbEntity
  8
1
  6
Continuous
 62
     7
100
AcDbLine
 10
966.988660100048
 20
208.9999900416032
 30
0.0
 11
965.9791315104676
 21
207.9999900415952
 31
0.0
  0
ARC
  5
4E2
330
1F
100
AcDbEntity
  8
1
  6
Continuous
 62
     7
100
AcDbCircle
 10
960.0000003061621
 20
207.4999999999999
 30
0.0
 40
6.0
100
AcDbArc
 50
175.2197127252612
 51
184.7800964195222
  0
LINE
  5
4E3
330
1F
100
AcDbEntity
  8
1
  6
Continuous
 62
     7
100
AcDbLine
 10
954.0208691018561
 20
207.0000099584046
 30
0.0
 11
957.5505085306493
 21
207.0000099584046
 31
0.0
  0
LINE
  5
4E4
330
1F
100
AcDbEntity
  8
1
  6
Continuous
 62
     7
100
AcDbLine
 10
954.0208707673821
 20
208.0000099583889
 30
0.0
 11
957.5505125961477
 21
208.0000099583889
 31
0.0
  0
LINE
  5
4E5
330
1F
100
AcDbEntity
  8
1
  6
Continuous
 62
     7
100
AcDbLine
 10
958.5000003061604
 20
200.5208696284494
 30
0.0
 11
958.5000003061607
 21
205.5000074688373
 31
0.0
  0
LINE
  5
4E6
330
1F
100
AcDbEntity
  8
1
  6
Continuous
 62
     7
100
AcDbLine
 10
953.0208691018568
 20
206.0000099583967
 30
0.0
 11
957.9999928374034
 21
206.0000099583967
 31
0.0
  0
ARC
  5
4E7
330
1F
100
AcDbEntity
  8
1
  6
Continuous
 62
     7
100
AcDbCircle
 10
959.0000003061618
 20
206.5
 30
0.0
 40
5.999999999999943
100
AcDbArc
 50
184.7800964195986
 51
265.2198081527863
  0
LINE
  5
4E8
330
1F
100
AcDbEntity
  8
1
  6
Continuous
 62
     7
100
AcDbLine
 10
960.5000003061543
 20
201.5208687956939
 30
0.0
 11
960.5000003061543
 21
205.050508224487
 31
0.0
  0
LINE
  5
4E9
330
1F
100
AcDbEntity
  8
1
  6
Continuous
 62
     7
100
AcDbLine
 10
959.50000030617
 20
201.52087046122
 30
0.0
 11
959.50000030617
 21
205.0505122899855
 31
0.0
  0
ARC
  5
4EA
330
1F
100
AcDbEntity
  8
1
  6
Continuous
 62
     7
100
AcDbCircle
 10
960.000010264559
 20
207.4999999999999
 30
0.0
 40
6.0
100
AcDbArc
 50
265.2197127252608
 51
274.7800964195221
  0
LINE
  5
4EB
330
1F
100
AcDbEntity
  8
1
  6
Continuous
 62
     7
100
AcDbLine
 10
958.5000003061604
 20
200.5208696284494
 30
0.0
 11
959.5000003061697
 21
201.5
 31
0.0
  0
LINE
  5
4EC
330
1F
100
AcDbEntity
  8
1
  6
Continuous
 62
     7
100
AcDbLine
 10
953.0113405122756
 20
206.0000099583967
 30
0.0
 11
954.0208691018561
 21
207.0000099584046
 31
0.0
  0
LINE
  5
4ED
330
1F
100
AcDbEntity
  8
1
  6
Continuous
 62
     7
100
AcDbLine
 10
953.0208699346114
 20
209.0000000000014
 30
0.0
 11
958.0000077749992
 21
209.0000000000011
 31
0.0
  0
LINE
  5
4EE
330
1F
100
AcDbEntity
  8
1
  6
Continuous
 62
     7
100
AcDbLine
 10
958.5000102645586
 20
214.4791312043051
 30
0.0
 11
958.5000102645586
 21
209.5000074687583
 31
0.0
  0
ARC
  5
4EF
330
1F
100
AcDbEntity
  8
1
  6
Continuous
 62
     7
100
AcDbCircle
 10
959.0000003061618
 20
208.4999999999999
 30
0.0
 40
5.999999999999943
100
AcDbArc
 50
94.78009641959889
 51
175.2198081527866
  0
LINE
  5
4F0
330
1F
100
AcDbEntity
  8
1
  6
Continuous
 62
     7
100
AcDbLine
 10
966.9791306777123
 20
205.9999999999984
 30
0.0
 11
961.9999928373245
 21
205.9999999999987
 31
0.0
  0
LINE
  5
4F1
330
1F
100
AcDbEntity
  8
1
  6
Continuous
 62
     7
100
AcDbLine
 10
961.4999903477651
 20
200.5208687956948
 30
0.0
 11
961.4999903477651
 21
205.4999925312414
 31
0.0
  0
ARC
  5
4F2
330
1F
100
AcDbEntity
  8
1
  6
Continuous
 62
     7
100
AcDbCircle
 10
961.0000003061618
 20
206.5
 30
0.0
 40
5.999999999999943
100
AcDbArc
 50
274.7800964195985
 51
355.2198081527852
  0
LINE
  5
4F3
330
1F
100
AcDbEntity
  8
1
  6
Continuous
 62
     7
100
AcDbLine
 10
958.5000003061615
 20
214.4791303715504
 30
0.0
 11
959.5000003061693
 21
213.4999999999999
 31
0.0
  0
LINE
  5
4F4
330
1F
100
AcDbEntity
  8
1
  6
Continuous
 62
     7
100
AcDbLine
 10
953.0208699346114
 20
209.0000000000014
 30
0.0
 11
954.0208691018561
 21
207.9999900415952
 31
0.0
  0
LINE
  5
4F5
330
1F
100
AcDbEntity
  8
1
  6
Continuous
 62
     7
100
AcDbLine
 10
965.9791298449416
 20
206.9999900416109
 30
0.0
 11
966.9791298449409
 21
205.9999900416016
 31
0.0
  0
LINE
  5
4F6
330
1F
100
AcDbEntity
  8
1
  6
Continuous
 62
     7
100
AcDbLine
 10
960.5000003061537
 20
201.5208687956939
 30
0.0
 11
961.4999903477651
 21
200.5208687956948
 31
0.0
  0
TEXT
  5
4F7
330
1F
100
AcDbEntity
  8
1
  6
Continuous
 62
     7
100
AcDbText
 10
649.0000000000002
 20
44.0
 30
0.0
 40
12.0
  1
PH2-ＸC
 41
0.5833333333333334
100
AcDbText
  0
LINE
  5
4F8
330
1F
100
AcDbEntity
  8
1
  6
Continuous
 62
     7
100
AcDbLine
 10
467.2910000453807
 20
570.0
 30
0.0
 11
545.6088071415312
 21
570.0
 31
0.0
  0
LINE
  5
4F9
330
1F
100
AcDbEntity
  8
1
  6
Continuous
 62
     7
100
AcDbLine
 10
586.3911928584689
 20
570.0
 30
0.0
 11
720.0
 21
570.0
 31
0.0
  0
LINE
  5
4FA
330
1F
100
AcDbEntity
  8
1
  6
Continuous
 62
     7
100
AcDbLine
 10
972.7089999546193
 20
570.0
 30
0.0
 11
894.39119316463
 21
570.0
 31
0.0
  0
LINE
  5
4FB
330
1F
100
AcDbEntity
  8
1
  6
Continuous
 62
     7
100
AcDbLine
 10
853.6088074476933
 20
570.0
 30
0.0
 11
720.0
 21
570.0
 31
0.0
  0
DIMENSION
  5
50F
330
1F
100
AcDbEntity
  8
1
  6
Continuous
 62
     7
100
AcDbDimension
  2
Dim9
 10
480.0000000000002
 20
710.0
 30
0.0
 11
720.0000001530811
 21
716.0
 31
0.0
 70
   160
  1
<>
 71
     5
 42
-1.0
 73
     0
 74
     0
 75
     0
  3
Standard
100
AcDbAlignedDimension
 13
479.9999999999999
 23
541.50000243998
 33
0.0
 14
960.0000003061618
 24
541.50000243998
 34
0.0
100
AcDbRotatedDimension
1001
ACAD
1000
DSTYLE
1002
{
1070
   344
1005
0
1070
   343
1005
0
1070
   173
1070
     1
1070
   289
1070
     2
1070
   279
1070
     2
1070
   288
1070
     1
1070
    77
1070
     3
1070
   172
1070
     1
1070
   174
1070
     0
1070
    74
1070
     0
1070
    73
1070
     0
1070
   284
1070
     8
1070
    78
1070
     8
1070
   140
1040
4.0
1070
    40
1040
1.0
1070
    42
1040
4.0
1070
    44
1040
4.0
1070
    43
1040
10.0
1070
   271
1070
     2
1070
    41
1040
4.0
1002
}
  0
DIMENSION
  5
523
330
1F
100
AcDbEntity
  8
1
  6
Continuous
 62
     7
100
AcDbDimension
  2
Dim10
 10
450.0000000453809
 20
490.0
 30
0.0
 11
720.0000001530811
 21
496.0
 31
0.0
 70
   160
  1
<>
 71
     5
 42
-1.0
 73
     0
 74
     0
 75
     0
  3
Standard
100
AcDbAlignedDimension
 13
450.0000000453807
 23
350.0
 33
0.0
 14
990.000000260781
 24
350.0
 34
0.0
100
AcDbRotatedDimension
1001
ACAD
1000
DSTYLE
1002
{
1070
   344
1005
0
1070
   343
1005
0
1070
   173
1070
     1
1070
   289
1070
     2
1070
   279
1070
     2
1070
   288
1070
     1
1070
    77
1070
     3
1070
   172
1070
     1
1070
   174
1070
     0
1070
    74
1070
     0
1070
    73
1070
     0
1070
   284
1070
     8
1070
    78
1070
     8
1070
   140
1040
4.0
1070
    40
1040
1.0
1070
    42
1040
2.0
1070
    44
1040
2.0
1070
    43
1040
10.0
1070
   271
1070
     2
1070
    41
1040
4.0
1002
}
  0
DIMENSION
  5
537
330
1F
100
AcDbEntity
  8
1
  6
Continuous
 62
     7
100
AcDbDimension
  2
Dim11
 10
242.4999999999989
 20
290.0
 30
0.0
 11
189.9999994576664
 21
296.0
 31
0.0
 70
   160
  1
<>
 71
     5
 42
-1.0
 73
     0
 74
     0
 75
     0
  3
Standard
100
AcDbAlignedDimension
 13
242.4999999999995
 23
350.0
 33
0.0
 14
137.4999989153345
 24
350.0
 34
0.0
100
AcDbRotatedDimension
1001
ACAD
1000
DSTYLE
1002
{
1070
   344
1005
0
1070
   343
1005
0
1070
   173
1070
     1
1070
   289
1070
     2
1070
   279
1070
     2
1070
   288
1070
     1
1070
    77
1070
     3
1070
   172
1070
     1
1070
   174
1070
     0
1070
    74
1070
     0
1070
    73
1070
     0
1070
   284
1070
     8
1070
    78
1070
     8
1070
   140
1040
4.0
1070
    40
1040
1.0
1070
    42
1040
2.0
1070
    44
1040
2.0
1070
    43
1040
10.0
1070
   271
1070
     2
1070
    41
1040
4.0
1002
}
  0
DIMENSION
  5
54B
330
1F
100
AcDbEntity
  8
1
  6
Continuous
 62
     7
100
AcDbDimension
  2
Dim12
 10
189.9999999999988
 20
270.0
 30
0.0
 11
157.4999999999991
 21
276.0
 31
0.0
 70
   160
  1
<>
 71
     5
 42
-1.0
 73
     0
 74
     0
 75
     0
  3
Standard
100
AcDbAlignedDimension
 13
190.0000000000002
 23
457.667074573852
 33
0.0
 14
125.0
 24
338.0
 34
0.0
100
AcDbRotatedDimension
1001
ACAD
1000
DSTYLE
1002
{
1070
   344
1005
0
1070
   343
1005
0
1070
   173
1070
     1
1070
   289
1070
     2
1070
   279
1070
     2
1070
   288
1070
     1
1070
    77
1070
     3
1070
   172
1070
     1
1070
   174
1070
     0
1070
    74
1070
     0
1070
    73
1070
     0
1070
   284
1070
     8
1070
    78
1070
     8
1070
   140
1040
4.0
1070
    40
1040
1.0
1070
    42
1040
2.0
1070
    44
1040
2.0
1070
    43
1040
10.0
1070
   271
1070
     2
1070
    41
1040
4.0
1002
}
  0
DIMENSION
  5
55F
330
1F
100
AcDbEntity
  8
1
  6
Continuous
 62
     7
100
AcDbDimension
  2
Dim13
 10
572.9999999999994
 20
310.0
 30
0.0
 11
720.0000001530802
 21
316.0
 31
0.0
 70
   160
  1
<>
 71
     5
 42
-1.0
 73
     0
 74
     0
 75
     0
  3
Standard
100
AcDbAlignedDimension
 13
573.0
 23
418.0000000000008
 33
0.0
 14
867.0000003061617
 24
418.0
 34
0.0
100
AcDbRotatedDimension
1001
ACAD
1000
DSTYLE
1002
{
1070
   344
1005
0
1070
   343
1005
0
1070
   173
1070
     1
1070
   289
1070
     2
1070
   279
1070
     2
1070
   288
1070
     1
1070
    77
1070
     3
1070
   172
1070
     1
1070
   174
1070
     0
1070
    74
1070
     0
1070
    73
1070
     0
1070
   284
1070
     8
1070
    78
1070
     8
1070
   140
1040
4.0
1070
    40
1040
1.0
1070
    42
1040
2.0
1070
    44
1040
2.0
1070
    43
1040
10.0
1070
   271
1070
     2
1070
    41
1040
4.0
1002
}
  0
TEXT
  5
560
330
1F
100
AcDbEntity
  8
1
  6
Continuous
 62
     7
100
AcDbText
 10
814.9926860986758
 20
45.51605049705844
 30
0.0
 40
10.0
  1
駐車場車止め　プラストップ・ＰＨ２タイプ（アンカー2本止め）
 50
-0.0857019916198696
 41
0.9833333333333333
100
AcDbText
  0
TEXT
  5
561
330
1F
100
AcDbEntity
  8
1
  6
Continuous
 62
     7
100
AcDbText
 10
848.4864040556415
 20
14.55957023597822
 30
0.0
 40
12.0
  1
コンクリートアンカー工法（Ｃ工法専用）
 50
-0.1327539268950804
100
AcDbText
  0
DIMENSION
  5
575
330
1F
100
AcDbEntity
  8
1
  6
Continuous
 62
     7
100
AcDbDimension
  2
Dim14
 10
389.9999999999999
 20
447.9999999999999
 30
0.0
 11
383.9999999999999
 21
398.9999999999999
 31
0.0
 70
   160
  1
100
 71
     5
 42
-1.0
 73
     0
 74
     0
 75
     0
  3
Standard
100
AcDbAlignedDimension
 13
515.2405804638096
 23
448.0
 33
0.0
 14
450.0000000453807
 24
350.0
 34
0.0
 50
89.99999999999999
100
AcDbRotatedDimension
1001
ACAD
1000
DSTYLE
1002
{
1070
   344
1005
0
1070
   343
1005
0
1070
   173
1070
     1
1070
   289
1070
     2
1070
   279
1070
     2
1070
   288
1070
     1
1070
    77
1070
     3
1070
   172
1070
     1
1070
   174
1070
     0
1070
    74
1070
     0
1070
    73
1070
     0
1070
   284
1070
     8
1070
    78
1070
     8
1070
   140
1040
4.0
1070
    40
1040
1.0
1070
    42
1040
2.0
1070
    44
1040
2.0
1070
    43
1040
10.0
1070
   271
1070
     2
1070
    41
1040
4.0
1002
}
  0
VIEWPORT
  5
3B
330
1B
100
AcDbEntity
 67
     1
  8
0
100
AcDbViewport
 10
594.5
 20
420.5
 30
0.0
 40
1189.0
 41
841.0
 68
     1
 69
     1
 12
594.5
 22
420.5
 13
0.0
 23
0.0
 14
0.5
 24
0.5
 15
0.5
 25
0.5
 16
0.0
 26
0.0
 36
1.0
 17
0.0
 27
0.0
 37
0.0
 42
50.0
 43
0.0
 44
0.0
 45
9.0
 50
0.0
 51
0.0
 72
   100
 90
   557152
  1

281
     0
 71
     1
 74
     0
110
0.0
120
0.0
130
0.0
111
1.0
121
0.0
131
0.0
112
0.0
122
1.0
132
0.0
 79
     0
146
0.0
170
     0
 61
     5
292
     1
282
     1
141
0.0
142
0.0
 63
   256
  0
ENDSEC
  0
SECTION
  2
OBJECTS
  0
DICTIONARY
  5
C
330
0
100
AcDbDictionary
281
     1
  3
ACAD_GROUP
350
D
  3
ACAD_LAYOUT
350
1A
  3
ACAD_MLEADERSTYLE
350
579
  3
ACAD_MLINESTYLE
350
17
  3
ACAD_PLOTSETTINGS
350
19
  3
ACAD_PLOTSTYLENAME
350
E
  3
ACAD_SCALELIST
350
A7
  3
ACAD_TABLESTYLE
350
578
  3
ACAD_VISUALSTYLE
350
2A
  3
AcDbVariableDictionary
350
576
  0
DICTIONARY
  5
D
102
{ACAD_REACTORS
330
C
102
}
330
C
100
AcDbDictionary
281
     1
  0
DICTIONARY
  5
1A
102
{ACAD_REACTORS
330
C
102
}
330
C
100
AcDbDictionary
281
     1
  3
Layout1
350
1E
  3
Layout2
350
26
  3
Model
350
22
  0
DICTIONARY
  5
579
102
{ACAD_REACTORS
330
C
102
}
330
C
100
AcDbDictionary
281
     1
  0
DICTIONARY
  5
17
102
{ACAD_REACTORS
330
C
102
}
330
C
100
AcDbDictionary
281
     1
  3
Standard
350
18
  0
DICTIONARY
  5
19
102
{ACAD_REACTORS
330
C
102
}
330
C
100
AcDbDictionary
281
     1
  0
ACDBDICTIONARYWDFLT
  5
E
102
{ACAD_REACTORS
330
C
102
}
330
C
100
AcDbDictionary
281
     1
  3
Normal
350
F
100
AcDbDictionaryWithDefault
340
F
  0
DICTIONARY
  5
A7
102
{ACAD_REACTORS
330
C
102
}
330
C
100
AcDbDictionary
281
     1
  3
A0
350
A8
  3
A1
350
A9
  3
A2
350
AA
  3
A3
350
AB
  3
A4
350
AC
  3
A5
350
AD
  3
A6
350
AE
  3
A7
350
AF
  3
A8
350
B0
  3
A9
350
B1
  3
B0
350
B2
  3
B1
350
B3
  3
B2
350
B4
  3
B3
350
B5
  3
B4
350
B6
  3
B5
350
B7
  3
B6
350
B8
  3
B7
350
B9
  3
B8
350
BA
  3
B9
350
BB
  3
C0
350
BC
  3
C1
350
BD
  3
C2
350
BE
  3
C3
350
BF
  3
C4
350
C0
  3
C5
350
C1
  3
C6
350
C2
  3
C7
350
C3
  3
C8
350
C4
  3
C9
350
C5
  3
D0
350
C6
  3
D1
350
C7
  3
D2
350
C8
  0
DICTIONARY
  5
578
102
{ACAD_REACTORS
330
C
102
}
330
C
100
AcDbDictionary
281
     1
  0
DICTIONARY
  5
2A
102
{ACAD_REACTORS
330
C
102
}
330
C
100
AcDbDictionary
281
     1
  3
2dWireframe
350
2F
  3
3D Hidden
350
31
  3
3dWireframe
350
30
  3
Basic
350
32
  3
Brighten
350
36
  3
ColorChange
350
3A
  3
Conceptual
350
34
  3
Dim
350
35
  3
Facepattern
350
39
  3
Flat
350
2B
  3
FlatWithEdges
350
2C
  3
Gouraud
350
2D
  3
GouraudWithEdges
350
2E
  3
Linepattern
350
38
  3
Realistic
350
33
  3
Thicken
350
37
  0
DICTIONARY
  5
576
102
{ACAD_REACTORS
330
C
102
}
330
C
100
AcDbDictionary
281
     1
  3
CANNOSCALE
350
577
  0
LAYOUT
  5
1E
102
{ACAD_REACTORS
330
1A
102
}
330
1A
100
AcDbPlotSettings
  1

  2
none_device
  4

  6

 40
0.0
 41
0.0
 42
0.0
 43
0.0
 44
0.0
 45
0.0
 46
0.0
 47
0.0
 48
0.0
 49
0.0
140
0.0
141
0.0
142
1.0
143
1.0
 70
   688
 72
     0
 73
     0
 74
     5
  7

 75
    16
 76
     0
 77
     2
 78
   300
147
1.0
148
0.0
149
0.0
100
AcDbLayout
  1
Layout1
 70
     1
 71
     1
 10
0.0
 20
0.0
 11
1189.0
 21
841.0
 12
0.0
 22
0.0
 32
0.0
 14
0.0
 24
0.0
 34
0.0
 15
1189.0
 25
841.0
 35
0.0
146
0.0
 13
0.0
 23
0.0
 33
0.0
 16
1.0
 26
0.0
 36
0.0
 17
0.0
 27
1.0
 37
0.0
 76
     0
330
1B
331
3B
  0
LAYOUT
  5
26
102
{ACAD_REACTORS
330
1A
102
}
330
1A
100
AcDbPlotSettings
  1

  2
none_device
  4

  6

 40
0.0
 41
0.0
 42
0.0
 43
0.0
 44
0.0
 45
0.0
 46
0.0
 47
0.0
 48
0.0
 49
0.0
140
0.0
141
0.0
142
1.0
143
1.0
 70
   688
 72
     0
 73
     0
 74
     5
  7

 75
    16
 76
     0
 77
     2
 78
   300
147
1.0
148
0.0
149
0.0
100
AcDbLayout
  1
Layout2
 70
     1
 71
     2
 10
0.0
 20
0.0
 11
0.0
 21
0.0
 12
0.0
 22
0.0
 32
0.0
 14
0.0
 24
0.0
 34
0.0
 15
0.0
 25
0.0
 35
0.0
146
0.0
 13
0.0
 23
0.0
 33
0.0
 16
1.0
 26
0.0
 36
0.0
 17
0.0
 27
1.0
 37
0.0
 76
     0
330
23
  0
LAYOUT
  5
22
102
{ACAD_REACTORS
330
1A
102
}
330
1A
100
AcDbPlotSettings
  1

  2
none_device
  4

  6

 40
0.0
 41
0.0
 42
0.0
 43
0.0
 44
0.0
 45
0.0
 46
0.0
 47
0.0
 48
0.0
 49
0.0
140
0.0
141
0.0
142
1.0
143
1.0
 70
  1712
 72
     0
 73
     0
 74
     0
  7

 75
     0
 76
     0
 77
     2
 78
   300
147
1.0
148
0.0
149
0.0
100
AcDbLayout
  1
Model
 70
     1
 71
     0
 10
0.0
 20
0.0
 11
1189.0
 21
841.0
 12
0.0
 22
0.0
 32
0.0
 14
0.0
 24
0.0
 34
0.0
 15
1189.0
 25
841.0
 35
0.0
146
0.0
 13
0.0
 23
0.0
 33
0.0
 16
1.0
 26
0.0
 36
0.0
 17
0.0
 27
1.0
 37
0.0
 76
     0
330
1F
331
29
  0
MLINESTYLE
  5
18
102
{ACAD_REACTORS
330
17
102
}
330
17
100
AcDbMlineStyle
  2
Standard
 70
     0
  3

 62
   256
 51
90.0
 52
90.0
 71
     2
 49
0.5
 62
   256
  6
BYLAYER
 49
-0.5
 62
   256
  6
BYLAYER
  0
ACDBPLACEHOLDER
  5
F
102
{ACAD_REACTORS
330
E
102
}
330
E
  0
SCALE
  5
A8
102
{ACAD_REACTORS
330
A7
102
}
330
A7
100
AcDbScale
 70
     0
300
1:1
140
1.0
141
1.0
290
     1
  0
SCALE
  5
A9
102
{ACAD_REACTORS
330
A7
102
}
330
A7
100
AcDbScale
 70
     0
300
1:2
140
1.0
141
2.0
290
     0
  0
SCALE
  5
AA
102
{ACAD_REACTORS
330
A7
102
}
330
A7
100
AcDbScale
 70
     0
300
1:4
140
1.0
141
4.0
290
     0
  0
SCALE
  5
AB
102
{ACAD_REACTORS
330
A7
102
}
330
A7
100
AcDbScale
 70
     0
300
1:5
140
1.0
141
5.0
290
     0
  0
SCALE
  5
AC
102
{ACAD_REACTORS
330
A7
102
}
330
A7
100
AcDbScale
 70
     0
300
1:8
140
1.0
141
8.0
290
     0
  0
SCALE
  5
AD
102
{ACAD_REACTORS
330
A7
102
}
330
A7
100
AcDbScale
 70
     0
300
1:10
140
1.0
141
10.0
290
     0
  0
SCALE
  5
AE
102
{ACAD_REACTORS
330
A7
102
}
330
A7
100
AcDbScale
 70
     0
300
1:16
140
1.0
141
16.0
290
     0
  0
SCALE
  5
AF
102
{ACAD_REACTORS
330
A7
102
}
330
A7
100
AcDbScale
 70
     0
300
1:20
140
1.0
141
20.0
290
     0
  0
SCALE
  5
B0
102
{ACAD_REACTORS
330
A7
102
}
330
A7
100
AcDbScale
 70
     0
300
1:30
140
1.0
141
30.0
290
     0
  0
SCALE
  5
B1
102
{ACAD_REACTORS
330
A7
102
}
330
A7
100
AcDbScale
 70
     0
300
1:40
140
1.0
141
40.0
290
     0
  0
SCALE
  5
B2
102
{ACAD_REACTORS
330
A7
102
}
330
A7
100
AcDbScale
 70
     0
300
1:50
140
1.0
141
50.0
290
     0
  0
SCALE
  5
B3
102
{ACAD_REACTORS
330
A7
102
}
330
A7
100
AcDbScale
 70
     0
300
1:100
140
1.0
141
100.0
290
     0
  0
SCALE
  5
B4
102
{ACAD_REACTORS
330
A7
102
}
330
A7
100
AcDbScale
 70
     0
300
2:1
140
2.0
141
1.0
290
     0
  0
SCALE
  5
B5
102
{ACAD_REACTORS
330
A7
102
}
330
A7
100
AcDbScale
 70
     0
300
4:1
140
4.0
141
1.0
290
     0
  0
SCALE
  5
B6
102
{ACAD_REACTORS
330
A7
102
}
330
A7
100
AcDbScale
 70
     0
300
8:1
140
8.0
141
1.0
290
     0
  0
SCALE
  5
B7
102
{ACAD_REACTORS
330
A7
102
}
330
A7
100
AcDbScale
 70
     0
300
10:1
140
10.0
141
1.0
290
     0
  0
SCALE
  5
B8
102
{ACAD_REACTORS
330
A7
102
}
330
A7
100
AcDbScale
 70
     0
300
100:1
140
100.0
141
1.0
290
     0
  0
SCALE
  5
B9
102
{ACAD_REACTORS
330
A7
102
}
330
A7
100
AcDbScale
 70
     0
300
1/128" = 1'-0"
140
0.0078125
141
12.0
290
     0
  0
SCALE
  5
BA
102
{ACAD_REACTORS
330
A7
102
}
330
A7
100
AcDbScale
 70
     0
300
1/64" = 1'-0"
140
0.015625
141
12.0
290
     0
  0
SCALE
  5
BB
102
{ACAD_REACTORS
330
A7
102
}
330
A7
100
AcDbScale
 70
     0
300
1/32" = 1'-0"
140
0.03125
141
12.0
290
     0
  0
SCALE
  5
BC
102
{ACAD_REACTORS
330
A7
102
}
330
A7
100
AcDbScale
 70
     0
300
1/16" = 1'-0"
140
0.0625
141
12.0
290
     0
  0
SCALE
  5
BD
102
{ACAD_REACTORS
330
A7
102
}
330
A7
100
AcDbScale
 70
     0
300
3/32" = 1'-0"
140
0.09375
141
12.0
290
     0
  0
SCALE
  5
BE
102
{ACAD_REACTORS
330
A7
102
}
330
A7
100
AcDbScale
 70
     0
300
1/8" = 1'-0"
140
0.125
141
12.0
290
     0
  0
SCALE
  5
BF
102
{ACAD_REACTORS
330
A7
102
}
330
A7
100
AcDbScale
 70
     0
300
3/16" = 1'-0"
140
0.1875
141
12.0
290
     0
  0
SCALE
  5
C0
102
{ACAD_REACTORS
330
A7
102
}
330
A7
100
AcDbScale
 70
     0
300
1/4" = 1'-0"
140
0.25
141
12.0
290
     0
  0
SCALE
  5
C1
102
{ACAD_REACTORS
330
A7
102
}
330
A7
100
AcDbScale
 70
     0
300
3/8" = 1'-0"
140
0.375
141
12.0
290
     0
  0
SCALE
  5
C2
102
{ACAD_REACTORS
330
A7
102
}
330
A7
100
AcDbScale
 70
     0
300
1/2" = 1'-0"
140
0.5
141
12.0
290
     0
  0
SCALE
  5
C3
102
{ACAD_REACTORS
330
A7
102
}
330
A7
100
AcDbScale
 70
     0
300
3/4" = 1'-0"
140
0.75
141
12.0
290
     0
  0
SCALE
  5
C4
102
{ACAD_REACTORS
330
A7
102
}
330
A7
100
AcDbScale
 70
     0
300
1" = 1'-0"
140
1.0
141
12.0
290
     0
  0
SCALE
  5
C5
102
{ACAD_REACTORS
330
A7
102
}
330
A7
100
AcDbScale
 70
     0
300
1-1/2" = 1'-0"
140
1.5
141
12.0
290
     0
  0
SCALE
  5
C6
102
{ACAD_REACTORS
330
A7
102
}
330
A7
100
AcDbScale
 70
     0
300
3" = 1'-0"
140
3.0
141
12.0
290
     0
  0
SCALE
  5
C7
102
{ACAD_REACTORS
330
A7
102
}
330
A7
100
AcDbScale
 70
     0
300
6" = 1'-0"
140
6.0
141
12.0
290
     0
  0
SCALE
  5
C8
102
{ACAD_REACTORS
330
A7
102
}
330
A7
100
AcDbScale
 70
     0
300
1'-0" = 1'-0"
140
12.0
141
12.0
290
     0
  0
VISUALSTYLE
  5
2F
102
{ACAD_REACTORS
330
2A
102
}
330
2A
100
AcDbVisualStyle
  2
2dWireframe
 70
     4
 71
     0
 72
     2
 73
     0
 90
        0
 40
-0.6
 41
-30.0
 62
     5
 63
     7
421
 16777215
 74
     1
 91
        4
 64
     7
 65
   257
 75
     1
175
     1
 42
1.0
 92
        0
 66
   257
 43
1.0
 76
     1
 77
     6
 78
     2
 67
     7
 79
     5
170
     0
171
     0
290
     0
174
     0
 93
        1
 44
0.0
173
     0
291
     0
 45
0.0
  0
VISUALSTYLE
  5
31
102
{ACAD_REACTORS
330
2A
102
}
330
2A
100
AcDbVisualStyle
  2
3D Hidden
 70
     6
 71
     1
 72
     2
 73
     2
 90
        0
 40
-0.6
 41
-30.0
 62
     5
 63
     7
421
 16777215
 74
     2
 91
        2
 64
     7
 65
   257
 75
     2
175
     1
 42
40.0
 92
        0
 66
   257
 43
1.0
 76
     1
 77
     6
 78
     2
 67
     7
 79
     3
170
     0
171
     0
290
     0
174
     0
 93
        1
 44
0.0
173
     0
291
     0
 45
0.0
  0
VISUALSTYLE
  5
30
102
{ACAD_REACTORS
330
2A
102
}
330
2A
100
AcDbVisualStyle
  2
3dWireframe
 70
     5
 71
     0
 72
     2
 73
     0
 90
        0
 40
-0.6
 41
-30.0
 62
     5
 63
     7
421
 16777215
 74
     1
 91
        4
 64
     7
 65
   257
 75
     1
175
     1
 42
1.0
 92
        0
 66
   257
 43
1.0
 76
     1
 77
     6
 78
     2
 67
     7
 79
     5
170
     0
171
     0
290
     0
174
     0
 93
        1
 44
0.0
173
     0
291
     0
 45
0.0
  0
VISUALSTYLE
  5
32
102
{ACAD_REACTORS
330
2A
102
}
330
2A
100
AcDbVisualStyle
  2
Basic
 70
     7
 71
     1
 72
     0
 73
     1
 90
        0
 40
-0.6
 41
-30.0
 62
     5
 63
     7
421
 16777215
 74
     0
 91
        4
 64
     7
 65
   257
 75
     1
175
     1
 42
1.0
 92
        8
 66
     7
 43
1.0
 76
     1
 77
     6
 78
     2
 67
     7
 79
     5
170
     0
171
     0
290
     0
174
     0
 93
        1
 44
0.0
173
     0
291
     1
 45
0.0
  0
VISUALSTYLE
  5
36
102
{ACAD_REACTORS
330
2A
102
}
330
2A
100
AcDbVisualStyle
  2
Brighten
 70
    12
 71
     2
 72
     2
 73
     0
 90
        0
 40
-0.6
 41
-30.0
 62
     5
 63
     7
421
 16777215
 74
     1
 91
        4
 64
     7
 65
   257
 75
     1
175
     1
 42
1.0
 92
        8
 66
     7
 43
1.0
 76
     1
 77
     6
 78
     2
 67
     7
 79
     5
170
     0
171
     0
290
     0
174
     0
 93
        1
 44
50.0
173
     0
291
     1
 45
0.0
  0
VISUALSTYLE
  5
3A
102
{ACAD_REACTORS
330
2A
102
}
330
2A
100
AcDbVisualStyle
  2
ColorChange
 70
    16
 71
     2
 72
     2
 73
     3
 90
        0
 40
-0.6
 41
-30.0
 62
     5
 63
     8
421
  8421504
 74
     1
 91
        4
 64
     7
 65
   257
 75
     1
175
     1
 42
1.0
 92
        8
 66
     8
424
  8421504
 43
1.0
 76
     1
 77
     6
 78
     2
 67
     7
 79
     5
170
     0
171
     0
290
     0
174
     0
 93
        1
 44
0.0
173
     0
291
     1
 45
0.0
  0
VISUALSTYLE
  5
34
102
{ACAD_REACTORS
330
2A
102
}
330
2A
100
AcDbVisualStyle
  2
Conceptual
 70
     9
 71
     3
 72
     2
 73
     0
 90
        0
 40
-0.6
 41
-30.0
 62
     5
 63
     7
421
 16777215
 74
     2
 91
        2
 64
     7
 65
   257
 75
     1
175
     1
 42
40.0
 92
        8
 66
     7
 43
1.0
 76
     1
 77
     6
 78
     2
 67
     7
 79
     3
170
     0
171
     0
290
     0
174
     0
 93
        1
 44
0.0
173
     0
291
     0
 45
0.0
  0
VISUALSTYLE
  5
35
102
{ACAD_REACTORS
330
2A
102
}
330
2A
100
AcDbVisualStyle
  2
Dim
 70
    11
 71
     2
 72
     2
 73
     0
 90
        0
 40
-0.6
 41
-30.0
 62
     5
 63
     7
421
 16777215
 74
     1
 91
        4
 64
     7
 65
   257
 75
     1
175
     1
 42
1.0
 92
        8
 66
     7
 43
1.0
 76
     1
 77
     6
 78
     2
 67
     7
 79
     5
170
     0
171
     0
290
     0
174
     0
 93
        1
 44
-50.0
173
     0
291
     1
 45
0.0
  0
VISUALSTYLE
  5
39
102
{ACAD_REACTORS
330
2A
102
}
330
2A
100
AcDbVisualStyle
  2
Facepattern
 70
    15
 71
     2
 72
     2
 73
     0
 90
        0
 40
-0.6
 41
-30.0
 62
     5
 63
     7
421
 16777215
 74
     1
 91
        4
 64
     7
 65
   257
 75
     1
175
     1
 42
1.0
 92
        8
 66
     7
 43
1.0
 76
     1
 77
     6
 78
     2
 67
     7
 79
     5
170
     0
171
     0
290
     0
174
     0
 93
        1
 44
0.0
173
     0
291
     1
 45
0.0
  0
VISUALSTYLE
  5
2B
102
{ACAD_REACTORS
330
2A
102
}
330
2A
100
AcDbVisualStyle
  2
Flat
 70
     0
 71
     2
 72
     1
 73
     1
 90
        2
 40
-0.6
 41
30.0
 62
     5
 63
     7
421
 16777215
 74
     0
 91
        4
 64
     7
 65
   257
 75
     1
175
     1
 42
1.0
 92
        8
 66
     7
 43
1.0
 76
     1
 77
     6
 78
     2
 67
     7
 79
     5
170
     0
171
     0
290
     0
174
     0
 93
       13
 44
0.0
173
     0
291
     1
 45
0.0
  0
VISUALSTYLE
  5
2C
102
{ACAD_REACTORS
330
2A
102
}
330
2A
100
AcDbVisualStyle
  2
FlatWithEdges
 70
     1
 71
     2
 72
     1
 73
     1
 90
        2
 40
-0.6
 41
30.0
 62
     5
 63
     7
421
 16777215
 74
     1
 91
        4
 64
     7
 65
   257
 75
     1
175
     1
 42
1.0
 92
        0
 66
   257
 43
1.0
 76
     1
 77
     6
 78
     2
 67
     7
 79
     5
170
     0
171
     0
290
     0
174
     0
 93
       13
 44
0.0
173
     0
291
     1
 45
0.0
  0
VISUALSTYLE
  5
2D
102
{ACAD_REACTORS
330
2A
102
}
330
2A
100
AcDbVisualStyle
  2
Gouraud
 70
     2
 71
     2
 72
     2
 73
     1
 90
        2
 40
-0.6
 41
30.0
 62
     5
 63
     7
421
 16777215
 74
     0
 91
        4
 64
     7
 65
   257
 75
     1
175
     1
 42
1.0
 92
        0
 66
     7
 43
1.0
 76
     1
 77
     6
 78
     2
 67
     7
 79
     5
170
     0
171
     0
290
     0
174
     0
 93
       13
 44
0.0
173
     0
291
     1
 45
0.0
  0
VISUALSTYLE
  5
2E
102
{ACAD_REACTORS
330
2A
102
}
330
2A
100
AcDbVisualStyle
  2
GouraudWithEdges
 70
     3
 71
     2
 72
     2
 73
     1
 90
        2
 40
-0.6
 41
30.0
 62
     5
 63
     7
421
 16777215
 74
     1
 91
        4
 64
     7
 65
   257
 75
     1
175
     1
 42
1.0
 92
        0
 66
   257
 43
1.0
 76
     1
 77
     6
 78
     2
 67
     7
 79
     5
170
     0
171
     0
290
     0
174
     0
 93
       13
 44
0.0
173
     0
291
     1
 45
0.0
  0
VISUALSTYLE
  5
38
102
{ACAD_REACTORS
330
2A
102
}
330
2A
100
AcDbVisualStyle
  2
Linepattern
 70
    14
 71
     2
 72
     2
 73
     0
 90
        0
 40
-0.6
 41
-30.0
 62
     5
 63
     7
421
 16777215
 74
     1
 91
        4
 64
     7
 65
   257
 75
     7
175
     7
 42
1.0
 92
        8
 66
     7
 43
1.0
 76
     1
 77
     6
 78
     2
 67
     7
 79
     5
170
     0
171
     0
290
     0
174
     0
 93
        1
 44
0.0
173
     0
291
     1
 45
0.0
  0
VISUALSTYLE
  5
33
102
{ACAD_REACTORS
330
2A
102
}
330
2A
100
AcDbVisualStyle
  2
Realistic
 70
     8
 71
     2
 72
     2
 73
     0
 90
        0
 40
-0.6
 41
-30.0
 62
     5
 63
     7
421
 16777215
 74
     1
 91
        0
 64
     7
 65
   257
 75
     1
175
     1
 42
1.0
 92
        8
 66
     8
424
  7895160
 43
1.0
 76
     1
 77
     6
 78
     2
 67
     7
 79
     5
170
     0
171
     0
290
     0
174
     0
 93
       13
 44
0.0
173
     0
291
     0
 45
0.0
  0
VISUALSTYLE
  5
37
102
{ACAD_REACTORS
330
2A
102
}
330
2A
100
AcDbVisualStyle
  2
Thicken
 70
    13
 71
     2
 72
     2
 73
     0
 90
        0
 40
-0.6
 41
-30.0
 62
     5
 63
     7
421
 16777215
 74
     1
 91
        4
 64
     7
 65
   257
 75
     1
175
     1
 42
1.0
 92
       12
 66
     7
 43
1.0
 76
     1
 77
     6
 78
     2
 67
     7
 79
     5
170
     0
171
     0
290
     0
174
     0
 93
        1
 44
0.0
173
     0
291
     1
 45
0.0
  0
DICTIONARYVAR
  5
577
102
{ACAD_REACTORS
330
576
102
}
330
576
100
DictionaryVariables
280
     0
  1
1:1
  0
ENDSEC
  0
EOF
