  0
SECTION
  2
HEADER
  9
$ACADVER
  1
AC1015
  9
$ACADMAINTVER
 70
     6
  9
$DWGCODEPAGE
  3
ANSI_932
  9
$INSBASE
 10
0.0
 20
0.0
 30
0.0
  9
$EXTMIN
 10
0.0
 20
0.0
 30
0.0
  9
$EXTMAX
 10
1189.0
 20
841.0
 30
0.0
  9
$LIMMIN
 10
0.0
 20
0.0
  9
$LIMMAX
 10
1189.0
 20
841.0
  9
$ORTHOMODE
 70
     0
  9
$REGENMODE
 70
     1
  9
$FILLMODE
 70
     1
  9
$QTEXTMODE
 70
     0
  9
$MIRRTEXT
 70
     1
  9
$LTSCALE
 40
0.25
  9
$ATTMODE
 70
     1
  9
$TEXTSIZE
 40
5.0
  9
$TRACEWID
 40
0.05
  9
$TEXTSTYLE
  7
Standard
  9
$CLAYER
  8
0
  9
$CELTYPE
  6
ByLayer
  9
$CECOLOR
 62
   256
  9
$CELTSCALE
 40
1.0
  9
$DISPSILH
 70
     0
  9
$DIMSCALE
 40
1.0
  9
$DIMASZ
 40
4.0
  9
$DIMEXO
 40
2.0
  9
$DIMDLI
 40
10.0
  9
$DIMRND
 40
0.0
  9
$DIMDLE
 40
0.0
  9
$DIMEXE
 40
2.0
  9
$DIMTP
 40
0.0
  9
$DIMTM
 40
0.0
  9
$DIMTXT
 40
4.0
  9
$DIMCEN
 40
0.09
  9
$DIMTSZ
 40
0.0
  9
$DIMTOL
 70
     0
  9
$DIMLIM
 70
     0
  9
$DIMTIH
 70
     0
  9
$DIMTOH
 70
     0
  9
$DIMSE1
 70
     0
  9
$DIMSE2
 70
     0
  9
$DIMTAD
 70
     3
  9
$DIMZIN
 70
     8
  9
$DIMBLK
  1

  9
$DIMASO
 70
     1
  9
$DIMSHO
 70
     1
  9
$DIMPOST
  1

  9
$DIMAPOST
  1

  9
$DIMALT
 70
     0
  9
$DIMALTD
 70
     2
  9
$DIMALTF
 40
25.4
  9
$DIMLFAC
 40
1.0
  9
$DIMTOFL
 70
     1
  9
$DIMTVP
 40
0.7
  9
$DIMTIX
 70
     0
  9
$DIMSOXD
 70
     0
  9
$DIMSAH
 70
     0
  9
$DIMBLK1
  1

  9
$DIMBLK2
  1

  9
$DIMSTYLE
  2
Standard
  9
$DIMCLRD
 70
     0
  9
$DIMCLRE
 70
     0
  9
$DIMCLRT
 70
     0
  9
$DIMTFAC
 40
0.5
  9
$DIMGAP
 40
0.09
  9
$DIMJUST
 70
     0
  9
$DIMSD1
 70
     0
  9
$DIMSD2
 70
     0
  9
$DIMTOLJ
 70
     1
  9
$DIMTZIN
 70
     8
  9
$DIMALTZ
 70
     0
  9
$DIMALTTZ
 70
     0
  9
$DIMUPT
 70
     1
  9
$DIMDEC
 70
     2
  9
$DIMTDEC
 70
     4
  9
$DIMALTU
 70
     2
  9
$DIMALTTD
 70
     2
  9
$DIMTXSTY
  7
Standard
  9
$DIMAUNIT
 70
     0
  9
$DIMADEC
 70
     0
  9
$DIMALTRND
 40
0.0
  9
$DIMAZIN
 70
     0
  9
$DIMDSEP
 70
    46
  9
$DIMATFIT
 70
     2
  9
$DIMFRAC
 70
     0
  9
$DIMLDRBLK
  1

  9
$DIMLUNIT
 70
     2
  9
$DIMLWD
 70
    -2
  9
$DIMLWE
 70
    -2
  9
$DIMTMOVE
 70
     2
  9
$LUNITS
 70
     2
  9
$LUPREC
 70
     4
  9
$SKETCHINC
 40
0.1
  9
$FILLETRAD
 40
0.5
  9
$AUNITS
 70
     0
  9
$AUPREC
 70
     0
  9
$MENU
  1
.
  9
$ELEVATION
 40
0.0
  9
$PELEVATION
 40
0.0
  9
$THICKNESS
 40
0.0
  9
$LIMCHECK
 70
     0
  9
$CHAMFERA
 40
0.5
  9
$CHAMFERB
 40
0.5
  9
$CHAMFERC
 40
1.0
  9
$CHAMFERD
 40
0.0
  9
$SKPOLY
 70
     0
  9
$TDCREATE
 40
2455460.054050926
  9
$TDUCREATE
 40
2455459.679050926
  9
$TDUPDATE
 40
2455460.054050926
  9
$TDUUPDATE
 40
2455459.679050926
  9
$TDINDWG
 40
0.0000000116
  9
$TDUSRTIMER
 40
0.0000000116
  9
$USRTIMER
 70
     1
  9
$ANGBASE
 50
0.0
  9
$ANGDIR
 70
     0
  9
$PDMODE
 70
     0
  9
$PDSIZE
 40
0.0
  9
$PLINEWID
 40
0.0
  9
$SPLFRAME
 70
     0
  9
$SPLINETYPE
 70
     6
  9
$SPLINESEGS
 70
     8
  9
$HANDSEED
  5
4C9
  9
$SURFTAB1
 70
     6
  9
$SURFTAB2
 70
     6
  9
$SURFTYPE
 70
     6
  9
$SURFU
 70
     6
  9
$SURFV
 70
     6
  9
$UCSBASE
  2

  9
$UCSNAME
  2

  9
$UCSORG
 10
0.0
 20
0.0
 30
0.0
  9
$UCSXDIR
 10
1.0
 20
0.0
 30
0.0
  9
$UCSYDIR
 10
0.0
 20
1.0
 30
0.0
  9
$UCSORTHOREF
  2

  9
$UCSORTHOVIEW
 70
     0
  9
$UCSORGTOP
 10
0.0
 20
0.0
 30
0.0
  9
$UCSORGBOTTOM
 10
0.0
 20
0.0
 30
0.0
  9
$UCSORGLEFT
 10
0.0
 20
0.0
 30
0.0
  9
$UCSORGRIGHT
 10
0.0
 20
0.0
 30
0.0
  9
$UCSORGFRONT
 10
0.0
 20
0.0
 30
0.0
  9
$UCSORGBACK
 10
0.0
 20
0.0
 30
0.0
  9
$PUCSBASE
  2

  9
$PUCSNAME
  2

  9
$PUCSORG
 10
0.0
 20
0.0
 30
0.0
  9
$PUCSXDIR
 10
1.0
 20
0.0
 30
0.0
  9
$PUCSYDIR
 10
0.0
 20
1.0
 30
0.0
  9
$PUCSORTHOREF
  2

  9
$PUCSORTHOVIEW
 70
     0
  9
$PUCSORGTOP
 10
0.0
 20
0.0
 30
0.0
  9
$PUCSORGBOTTOM
 10
0.0
 20
0.0
 30
0.0
  9
$PUCSORGLEFT
 10
0.0
 20
0.0
 30
0.0
  9
$PUCSORGRIGHT
 10
0.0
 20
0.0
 30
0.0
  9
$PUCSORGFRONT
 10
0.0
 20
0.0
 30
0.0
  9
$PUCSORGBACK
 10
0.0
 20
0.0
 30
0.0
  9
$USERI1
 70
     0
  9
$USERI2
 70
     0
  9
$USERI3
 70
     0
  9
$USERI4
 70
     0
  9
$USERI5
 70
     0
  9
$USERR1
 40
0.0
  9
$USERR2
 40
0.0
  9
$USERR3
 40
0.0
  9
$USERR4
 40
0.0
  9
$USERR5
 40
0.0
  9
$WORLDVIEW
 70
     1
  9
$SHADEDGE
 70
     3
  9
$SHADEDIF
 70
    70
  9
$TILEMODE
 70
     1
  9
$MAXACTVP
 70
    64
  9
$PINSBASE
 10
0.0
 20
0.0
 30
0.0
  9
$PLIMCHECK
 70
     0
  9
$PEXTMIN
 10
0.0
 20
0.0
 30
0.0
  9
$PEXTMAX
 10
1189.0
 20
841.0
 30
0.0
  9
$PLIMMIN
 10
0.0
 20
0.0
  9
$PLIMMAX
 10
1189.0
 20
841.0
  9
$UNITMODE
 70
     0
  9
$VISRETAIN
 70
     1
  9
$PLINEGEN
 70
     0
  9
$PSLTSCALE
 70
     1
  9
$TREEDEPTH
 70
  3020
  9
$CMLSTYLE
  2
Standard
  9
$CMLJUST
 70
     0
  9
$CMLSCALE
 40
1.0
  9
$PROXYGRAPHICS
 70
     1
  9
$MEASUREMENT
 70
     1
  9
$CELWEIGHT
370
    -1
  9
$ENDCAPS
280
     0
  9
$JOINSTYLE
280
     0
  9
$LWDISPLAY
290
     0
  9
$INSUNITS
 70
     4
  9
$HYPERLINKBASE
  1

  9
$STYLESHEET
  1

  9
$XEDIT
290
     1
  9
$CEPSNTYPE
380
     0
  9
$PSTYLEMODE
290
     1
  9
$FINGERPRINTGUID
  2
{28C718B5-2069-4155-9E97-81259ABCA557}
  9
$VERSIONGUID
  2
{FAEB1C32-E019-11D5-929B-00C0DF256EC4}
  9
$EXTNAMES
290
     1
  9
$PSVPSCALE
 40
0.0
  9
$OLESTARTUP
290
     0
  0
ENDSEC
  0
SECTION
  2
CLASSES
  0
CLASS
  1
ACDBDICTIONARYWDFLT
  2
AcDbDictionaryWithDefault
  3
ObjectDBX Classes
 90
        0
280
     0
281
     0
  0
CLASS
  1
DICTIONARYVAR
  2
AcDbDictionaryVar
  3
ObjectDBX Classes
 90
        0
280
     0
281
     0
  0
CLASS
  1
ACDBPLACEHOLDER
  2
AcDbPlaceHolder
  3
ObjectDBX Classes
 90
        0
280
     0
281
     0
  0
CLASS
  1
LAYOUT
  2
AcDbLayout
  3
ObjectDBX Classes
 90
        0
280
     0
281
     0
  0
ENDSEC
  0
SECTION
  2
TABLES
  0
TABLE
  2
VPORT
  5
8
330
0
100
AcDbSymbolTable
 70
     1
  0
VPORT
  5
29
330
8
100
AcDbSymbolTableRecord
100
AcDbViewportTableRecord
  2
*Active
 70
     0
 10
0.0
 20
0.0
 11
1.0
 21
1.0
 12
10.42990654205607
 22
4.5
 13
0.0
 23
0.0
 14
0.5
 24
0.5
 15
0.5
 25
0.5
 16
0.0
 26
0.0
 36
1.0
 17
0.0
 27
0.0
 37
0.0
 40
9.0
 41
1.972972972850329
 42
50.0
 43
0.0
 44
0.0
 50
0.0
 51
0.0
 71
     0
 72
   100
 73
     1
 74
     3
 75
     0
 76
     0
 77
     0
 78
     0
281
     0
 65
     1
110
0.0
120
0.0
130
0.0
111
1.0
121
0.0
131
0.0
112
0.0
122
1.0
132
0.0
 79
     0
146
0.0
  0
ENDTAB
  0
TABLE
  2
LTYPE
  5
5
330
0
100
AcDbSymbolTable
 70
     9
  0
LTYPE
  5
14
330
5
100
AcDbSymbolTableRecord
100
AcDbLinetypeTableRecord
  2
ByBlock
 70
     0
  3

 72
    65
 73
     0
 40
0.0
  0
LTYPE
  5
15
330
5
100
AcDbSymbolTableRecord
100
AcDbLinetypeTableRecord
  2
ByLayer
 70
     0
  3

 72
    65
 73
     0
 40
0.0
  0
LTYPE
  5
16
330
5
100
AcDbSymbolTableRecord
100
AcDbLinetypeTableRecord
  2
Continuous
 70
     0
  3
Solid line
 72
    65
 73
     0
 40
0.0
  0
LTYPE
  5
68
330
5
100
AcDbSymbolTableRecord
100
AcDbLinetypeTableRecord
  2
DOT
 70
     0
  3
DOT
 72
    65
 73
     2
 40
4.0
 49
6.0
 74
     0
 49
-2.0
 74
     0
  0
LTYPE
  5
69
330
5
100
AcDbSymbolTableRecord
100
AcDbLinetypeTableRecord
  2
HIDDEN
 70
     0
  3
HIDDEN
 72
    65
 73
     2
 40
4.2
 49
8.4
 74
     0
 49
-4.2
 74
     0
  0
LTYPE
  5
6A
330
5
100
AcDbSymbolTableRecord
100
AcDbLinetypeTableRecord
  2
DASHDOT
 70
     0
  3
DASHDOT
 72
    65
 73
     4
 40
14.5
 49
30.0
 74
     0
 49
-9.0
 74
     0
 49
2.5
 74
     0
 49
-9.0
 74
     0
  0
LTYPE
  5
6B
330
5
100
AcDbSymbolTableRecord
100
AcDbLinetypeTableRecord
  2
PHANTOM
 70
     0
  3
PHANTOM
 72
    65
 73
     6
 40
12.0
 49
30.0
 74
     0
 49
-9.0
 74
     0
 49
2.5
 74
     0
 49
-5.0
 74
     0
 49
2.5
 74
     0
 49
-9.0
 74
     0
  0
LTYPE
  5
6C
330
5
100
AcDbSymbolTableRecord
100
AcDbLinetypeTableRecord
  2
ACAD_ISO14W100
 70
     0
  3
ACAD_ISO14W100
 72
    65
 73
     8
 40
1.5
 49
12.0
 74
     0
 49
-3.0
 74
     0
 49
0.5
 74
     0
 49
-3.0
 74
     0
 49
0.5
 74
     0
 49
-3.0
 74
     0
 49
0.5
 74
     0
 49
-3.0
 74
     0
  0
LTYPE
  5
6D
330
5
100
AcDbSymbolTableRecord
100
AcDbLinetypeTableRecord
  2
ACAD_ISO06W100
 70
     0
  3
ACAD_ISO06W100
 72
    65
 73
     8
 40
13.5
 49
24.0
 74
     0
 49
-3.0
 74
     0
 49
0.5
 74
     0
 49
-3.0
 74
     0
 49
0.5
 74
     0
 49
-3.0
 74
     0
 49
0.5
 74
     0
 49
-3.0
 74
     0
  0
LTYPE
  5
6E
330
5
100
AcDbSymbolTableRecord
100
AcDbLinetypeTableRecord
  2
ACAD_ISO11W100
 70
     0
  3
ACAD_ISO11W100
 72
    65
 73
     6
 40
15.5
 49
12.0
 74
     0
 49
-3.0
 74
     0
 49
12.0
 74
     0
 49
-3.0
 74
     0
 49
0.5
 74
     0
 49
-3.0
 74
     0
  0
LTYPE
  5
6F
330
5
100
AcDbSymbolTableRecord
100
AcDbLinetypeTableRecord
  2
ACAD_ISO13W100
 70
     0
  3
ACAD_ISO13W100
 72
    65
 73
     8
 40
13.0
 49
12.0
 74
     0
 49
-3.0
 74
     0
 49
12.0
 74
     0
 49
-3.0
 74
     0
 49
0.5
 74
     0
 49
-3.0
 74
     0
 49
0.5
 74
     0
 49
-3.0
 74
     0
  0
ENDTAB
  0
TABLE
  2
LAYER
  5
2
330
0
100
AcDbSymbolTable
 70
    22
  0
LAYER
  5
10
330
2
100
AcDbSymbolTableRecord
100
AcDbLayerTableRecord
  2
0
 70
     0
 62
     7
  6
Continuous
370
    -3
390
F
  0
LAYER
  5
70
330
2
100
AcDbSymbolTableRecord
100
AcDbLayerTableRecord
  2
1
 70
     0
 62
     7
  6
Continuous
370
    -3
390
F
  0
LAYER
  5
71
330
2
100
AcDbSymbolTableRecord
100
AcDbLayerTableRecord
  2
2
 70
     0
 62
   134
  6
Continuous
370
    -3
390
F
  0
LAYER
  5
72
330
2
100
AcDbSymbolTableRecord
100
AcDbLayerTableRecord
  2
3
 70
     0
 62
   214
  6
Continuous
370
    -3
390
F
  0
LAYER
  5
73
330
2
100
AcDbSymbolTableRecord
100
AcDbLayerTableRecord
  2
4
 70
     0
 62
    54
  6
Continuous
370
    -3
390
F
  0
LAYER
  5
74
330
2
100
AcDbSymbolTableRecord
100
AcDbLayerTableRecord
  2
5
 70
     0
 62
    94
  6
Continuous
370
    -3
390
F
  0
LAYER
  5
75
330
2
100
AcDbSymbolTableRecord
100
AcDbLayerTableRecord
  2
6
 70
     0
 62
    14
  6
Continuous
370
    -3
390
F
  0
LAYER
  5
76
330
2
100
AcDbSymbolTableRecord
100
AcDbLayerTableRecord
  2
7
 70
     0
 62
     4
  6
Continuous
370
    -3
390
F
  0
LAYER
  5
77
330
2
100
AcDbSymbolTableRecord
100
AcDbLayerTableRecord
  2
8
 70
     0
 62
     6
  6
Continuous
370
    -3
390
F
  0
LAYER
  5
78
330
2
100
AcDbSymbolTableRecord
100
AcDbLayerTableRecord
  2
9
 70
     0
 62
     2
  6
Continuous
370
    -3
390
F
  0
LAYER
  5
79
330
2
100
AcDbSymbolTableRecord
100
AcDbLayerTableRecord
  2
10
 70
     0
 62
     3
  6
Continuous
370
    -3
390
F
  0
LAYER
  5
7A
330
2
100
AcDbSymbolTableRecord
100
AcDbLayerTableRecord
  2
11
 70
     0
 62
   251
  6
Continuous
370
    -3
390
F
  0
LAYER
  5
7B
330
2
100
AcDbSymbolTableRecord
100
AcDbLayerTableRecord
  2
12
 70
     0
 62
   136
  6
Continuous
370
    -3
390
F
  0
LAYER
  5
7C
330
2
100
AcDbSymbolTableRecord
100
AcDbLayerTableRecord
  2
13
 70
     0
 62
   216
  6
Continuous
370
    -3
390
F
  0
LAYER
  5
7D
330
2
100
AcDbSymbolTableRecord
100
AcDbLayerTableRecord
  2
14
 70
     0
 62
    56
  6
Continuous
370
    -3
390
F
  0
LAYER
  5
7E
330
2
100
AcDbSymbolTableRecord
100
AcDbLayerTableRecord
  2
15
 70
     0
 62
    96
  6
Continuous
370
    -3
390
F
  0
LAYER
  5
7F
330
2
100
AcDbSymbolTableRecord
100
AcDbLayerTableRecord
  2
16
 70
     0
 62
    16
  6
Continuous
370
    -3
390
F
  0
LAYER
  5
80
330
2
100
AcDbSymbolTableRecord
100
AcDbLayerTableRecord
  2
17
 70
     0
 62
   132
  6
Continuous
370
    -3
390
F
  0
LAYER
  5
81
330
2
100
AcDbSymbolTableRecord
100
AcDbLayerTableRecord
  2
18
 70
     0
 62
   212
  6
Continuous
370
    -3
390
F
  0
LAYER
  5
82
330
2
100
AcDbSymbolTableRecord
100
AcDbLayerTableRecord
  2
19
 70
     0
 62
    52
  6
Continuous
370
    -3
390
F
  0
LAYER
  5
83
330
2
100
AcDbSymbolTableRecord
100
AcDbLayerTableRecord
  2
20
 70
     0
 62
   250
  6
Continuous
370
    -3
390
F
  0
LAYER
  5
84
330
2
100
AcDbSymbolTableRecord
100
AcDbLayerTableRecord
  2
128
 70
     0
 62
     7
  6
Continuous
370
    -3
390
F
  0
ENDTAB
  0
TABLE
  2
STYLE
  5
3
330
0
100
AcDbSymbolTable
 70
     2
  0
STYLE
  5
11
330
3
100
AcDbSymbolTableRecord
100
AcDbTextStyleTableRecord
  2
Standard
 70
     0
 40
0.0
 41
1.0
 50
0.0
 71
     0
 42
0.2
  3
txt
  4
bigfont
  0
STYLE
  5
2C
330
3
100
AcDbSymbolTableRecord
100
AcDbTextStyleTableRecord
  2
T_STANDARD
 70
     4
 40
10.0
 41
1.0
 50
0.0
 71
     0
 42
10.0
  3
txt
  4
bigfont
  0
ENDTAB
  0
TABLE
  2
VIEW
  5
6
330
0
100
AcDbSymbolTable
 70
     0
  0
ENDTAB
  0
TABLE
  2
UCS
  5
7
330
0
100
AcDbSymbolTable
 70
     0
  0
ENDTAB
  0
TABLE
  2
APPID
  5
9
330
0
100
AcDbSymbolTable
 70
     2
  0
APPID
  5
12
330
9
100
AcDbSymbolTableRecord
100
AcDbRegAppTableRecord
  2
ACAD
 70
     0
  0
APPID
  5
2B
330
9
100
AcDbSymbolTableRecord
100
AcDbRegAppTableRecord
  2
ODA
 70
     0
  0
ENDTAB
  0
TABLE
  2
DIMSTYLE
  5
A
330
0
100
AcDbSymbolTable
 70
     1
100
AcDbDimStyleTable
  0
DIMSTYLE
105
27
102
{ACAD_REACTORS
330
18E
330
1A0
330
1D6
330
1EA
330
1FE
330
212
330
241
330
280
330
2E5
102
}
330
A
100
AcDbSymbolTableRecord
100
AcDbDimStyleTableRecord
  2
Standard
 70
     0
340
11
  0
ENDTAB
  0
TABLE
  2
BLOCK_RECORD
  5
1
330
0
100
AcDbSymbolTable
 70
    24
  0
BLOCK_RECORD
  5
1F
330
1
100
AcDbSymbolTableRecord
100
AcDbBlockTableRecord
  2
*Model_Space
340
22
  0
BLOCK_RECORD
  5
1B
330
1
100
AcDbSymbolTableRecord
100
AcDbBlockTableRecord
  2
*Paper_Space
340
1E
  0
BLOCK_RECORD
  5
23
330
1
100
AcDbSymbolTableRecord
100
AcDbBlockTableRecord
  2
*Paper_Space0
340
26
  0
BLOCK_RECORD
  5
2D
330
1
100
AcDbSymbolTableRecord
100
AcDbBlockTableRecord
  2
_ORIGIN
340
0
  0
BLOCK_RECORD
  5
32
330
1
100
AcDbSymbolTableRecord
100
AcDbBlockTableRecord
  2
_DOTBLANK
340
0
  0
BLOCK_RECORD
  5
37
330
1
100
AcDbSymbolTableRecord
100
AcDbBlockTableRecord
  2
_DOT
340
0
  0
BLOCK_RECORD
  5
3C
330
1
100
AcDbSymbolTableRecord
100
AcDbBlockTableRecord
  2
_OPEN
340
0
  0
BLOCK_RECORD
  5
42
330
1
100
AcDbSymbolTableRecord
100
AcDbBlockTableRecord
  2
_CLOSED
340
0
  0
BLOCK_RECORD
  5
49
330
1
100
AcDbSymbolTableRecord
100
AcDbBlockTableRecord
  2
_CLOSEDBLANK
340
0
  0
BLOCK_RECORD
  5
4F
330
1
100
AcDbSymbolTableRecord
100
AcDbBlockTableRecord
  2
_BOXBLANK
340
0
  0
BLOCK_RECORD
  5
57
330
1
100
AcDbSymbolTableRecord
100
AcDbBlockTableRecord
  2
_BOXFILLED
340
0
  0
BLOCK_RECORD
  5
5C
330
1
100
AcDbSymbolTableRecord
100
AcDbBlockTableRecord
  2
_INTEGRAL
340
0
  0
BLOCK_RECORD
  5
61
330
1
100
AcDbSymbolTableRecord
100
AcDbBlockTableRecord
  2
_OBLIQUE
340
0
  0
BLOCK_RECORD
  5
65
330
1
100
AcDbSymbolTableRecord
100
AcDbBlockTableRecord
  2
_NONE
340
0
  0
BLOCK_RECORD
  5
97
330
1
100
AcDbSymbolTableRecord
100
AcDbBlockTableRecord
  2
*G12
340
0
102
{BLKREFS
331
F6
102
}
  0
BLOCK_RECORD
  5
F7
330
1
100
AcDbSymbolTableRecord
100
AcDbBlockTableRecord
  2
*G13
340
0
102
{BLKREFS
331
156
102
}
  0
BLOCK_RECORD
  5
17B
330
1
100
AcDbSymbolTableRecord
100
AcDbBlockTableRecord
  2
Dim1
340
0
  0
BLOCK_RECORD
  5
18F
330
1
100
AcDbSymbolTableRecord
100
AcDbBlockTableRecord
  2
Dim2
340
0
  0
BLOCK_RECORD
  5
1C3
330
1
100
AcDbSymbolTableRecord
100
AcDbBlockTableRecord
  2
Dim3
340
0
  0
BLOCK_RECORD
  5
1D7
330
1
100
AcDbSymbolTableRecord
100
AcDbBlockTableRecord
  2
Dim4
340
0
  0
BLOCK_RECORD
  5
1EB
330
1
100
AcDbSymbolTableRecord
100
AcDbBlockTableRecord
  2
Dim5
340
0
  0
BLOCK_RECORD
  5
1FF
330
1
100
AcDbSymbolTableRecord
100
AcDbBlockTableRecord
  2
Dim6
340
0
  0
BLOCK_RECORD
  5
22E
330
1
100
AcDbSymbolTableRecord
100
AcDbBlockTableRecord
  2
Dim7
340
0
  0
BLOCK_RECORD
  5
26D
330
1
100
AcDbSymbolTableRecord
100
AcDbBlockTableRecord
  2
Dim8
340
0
  0
BLOCK_RECORD
  5
2D2
330
1
100
AcDbSymbolTableRecord
100
AcDbBlockTableRecord
  2
Dim9
340
0
  0
BLOCK_RECORD
  5
4BA
330
1
100
AcDbSymbolTableRecord
100
AcDbBlockTableRecord
  2
*G23
340
0
102
{BLKREFS
331
4C6
102
}
  0
ENDTAB
  0
ENDSEC
  0
SECTION
  2
BLOCKS
  0
BLOCK
  5
20
330
1F
100
AcDbEntity
  8
0
100
AcDbBlockBegin
  2
*Model_Space
 70
     0
 71
     0
 10
0.0
 20
0.0
 30
0.0
  3
*Model_Space
  1

  0
ENDBLK
  5
21
330
1F
100
AcDbEntity
  8
0
100
AcDbBlockEnd
  0
BLOCK
  5
1C
330
1B
100
AcDbEntity
 67
     1
  8
0
100
AcDbBlockBegin
  2
*Paper_Space
 70
     0
 71
     0
 10
0.0
 20
0.0
 30
0.0
  3
*Paper_Space
  1

  0
ENDBLK
  5
1D
330
1B
100
AcDbEntity
 67
     1
  8
0
100
AcDbBlockEnd
  0
BLOCK
  5
24
330
23
100
AcDbEntity
  8
0
100
AcDbBlockBegin
  2
*Paper_Space0
 70
     0
 71
     0
 10
0.0
 20
0.0
 30
0.0
  3
*Paper_Space0
  1

  0
ENDBLK
  5
25
330
23
100
AcDbEntity
  8
0
100
AcDbBlockEnd
  0
BLOCK
  5
30
330
2D
100
AcDbEntity
  8
0
100
AcDbBlockBegin
  2
_ORIGIN
 70
     0
 71
     0
 10
0.0
 20
0.0
 30
0.0
  3
_ORIGIN
  1

  0
CIRCLE
  5
2E
330
2D
100
AcDbEntity
  8
0
100
AcDbCircle
 10
0.0
 20
0.0
 30
0.0
 40
0.5
  0
LINE
  5
2F
330
2D
100
AcDbEntity
  8
0
100
AcDbLine
 10
0.0
 20
0.0
 30
0.0
 11
-1.0
 21
0.0
 31
0.0
  0
ENDBLK
  5
31
330
2D
100
AcDbEntity
  8
0
100
AcDbBlockEnd
  0
BLOCK
  5
35
330
32
100
AcDbEntity
  8
0
100
AcDbBlockBegin
  2
_DOTBLANK
 70
     0
 71
     0
 10
0.0
 20
0.0
 30
0.0
  3
_DOTBLANK
  1

  0
CIRCLE
  5
33
330
32
100
AcDbEntity
  8
0
100
AcDbCircle
 10
0.0
 20
0.0
 30
0.0
 40
0.5
  0
LINE
  5
34
330
32
100
AcDbEntity
  8
0
100
AcDbLine
 10
-0.5
 20
0.0
 30
0.0
 11
-1.0
 21
0.0
 31
0.0
  0
ENDBLK
  5
36
330
32
100
AcDbEntity
  8
0
100
AcDbBlockEnd
  0
BLOCK
  5
3A
330
37
100
AcDbEntity
  8
0
100
AcDbBlockBegin
  2
_DOT
 70
     0
 71
     0
 10
0.0
 20
0.0
 30
0.0
  3
_DOT
  1

  0
LWPOLYLINE
  5
38
330
37
100
AcDbEntity
  8
0
100
AcDbPolyline
 90
        2
 70
     1
 43
0.5
 10
-0.25
 20
0.0
 42
1.0
 10
0.25
 20
0.0
 42
1.0
  0
LINE
  5
39
330
37
100
AcDbEntity
  8
0
100
AcDbLine
 10
-0.5
 20
0.0
 30
0.0
 11
-1.0
 21
0.0
 31
0.0
  0
ENDBLK
  5
3B
330
37
100
AcDbEntity
  8
0
100
AcDbBlockEnd
  0
BLOCK
  5
40
330
3C
100
AcDbEntity
  8
0
100
AcDbBlockBegin
  2
_OPEN
 70
     0
 71
     0
 10
0.0
 20
0.0
 30
0.0
  3
_OPEN
  1

  0
LINE
  5
3D
330
3C
100
AcDbEntity
  8
0
100
AcDbLine
 10
-1.0
 20
0.1666666666666667
 30
0.0
 11
0.0
 21
0.0
 31
0.0
  0
LINE
  5
3E
330
3C
100
AcDbEntity
  8
0
100
AcDbLine
 10
-1.0
 20
-0.1666666666666667
 30
0.0
 11
0.0
 21
0.0
 31
0.0
  0
LINE
  5
3F
330
3C
100
AcDbEntity
  8
0
100
AcDbLine
 10
0.0
 20
0.0
 30
0.0
 11
-1.0
 21
0.0
 31
0.0
  0
ENDBLK
  5
41
330
3C
100
AcDbEntity
  8
0
100
AcDbBlockEnd
  0
BLOCK
  5
47
330
42
100
AcDbEntity
  8
0
100
AcDbBlockBegin
  2
_CLOSED
 70
     0
 71
     0
 10
0.0
 20
0.0
 30
0.0
  3
_CLOSED
  1

  0
LINE
  5
43
330
42
100
AcDbEntity
  8
0
100
AcDbLine
 10
-1.0
 20
0.1666666666666667
 30
0.0
 11
0.0
 21
0.0
 31
0.0
  0
LINE
  5
44
330
42
100
AcDbEntity
  8
0
100
AcDbLine
 10
0.0
 20
0.0
 30
0.0
 11
-1.0
 21
-0.1666666666666667
 31
0.0
  0
LINE
  5
45
330
42
100
AcDbEntity
  8
0
100
AcDbLine
 10
-1.0
 20
0.1666666666666667
 30
0.0
 11
-1.0
 21
-0.1666666666666667
 31
0.0
  0
LINE
  5
46
330
42
100
AcDbEntity
  8
0
100
AcDbLine
 10
0.0
 20
0.0
 30
0.0
 11
-1.0
 21
0.0
 31
0.0
  0
ENDBLK
  5
48
330
42
100
AcDbEntity
  8
0
100
AcDbBlockEnd
  0
BLOCK
  5
4D
330
49
100
AcDbEntity
  8
0
100
AcDbBlockBegin
  2
_CLOSEDBLANK
 70
     0
 71
     0
 10
0.0
 20
0.0
 30
0.0
  3
_CLOSEDBLANK
  1

  0
LINE
  5
4A
330
49
100
AcDbEntity
  8
0
100
AcDbLine
 10
-1.0
 20
0.1666666666666667
 30
0.0
 11
0.0
 21
0.0
 31
0.0
  0
LINE
  5
4B
330
49
100
AcDbEntity
  8
0
100
AcDbLine
 10
0.0
 20
0.0
 30
0.0
 11
-1.0
 21
-0.1666666666666667
 31
0.0
  0
LINE
  5
4C
330
49
100
AcDbEntity
  8
0
100
AcDbLine
 10
-1.0
 20
0.1666666666666667
 30
0.0
 11
-1.0
 21
-0.1666666666666667
 31
0.0
  0
ENDBLK
  5
4E
330
49
100
AcDbEntity
  8
0
100
AcDbBlockEnd
  0
BLOCK
  5
55
330
4F
100
AcDbEntity
  8
0
100
AcDbBlockBegin
  2
_BOXBLANK
 70
     0
 71
     0
 10
0.0
 20
0.0
 30
0.0
  3
_BOXBLANK
  1

  0
LINE
  5
50
330
4F
100
AcDbEntity
  8
0
100
AcDbLine
 10
-0.5
 20
-0.5
 30
0.0
 11
0.5
 21
-0.5
 31
0.0
  0
LINE
  5
51
330
4F
100
AcDbEntity
  8
0
100
AcDbLine
 10
0.5
 20
-0.5
 30
0.0
 11
0.5
 21
0.5
 31
0.0
  0
LINE
  5
52
330
4F
100
AcDbEntity
  8
0
100
AcDbLine
 10
0.5
 20
0.5
 30
0.0
 11
-0.5
 21
0.5
 31
0.0
  0
LINE
  5
53
330
4F
100
AcDbEntity
  8
0
100
AcDbLine
 10
-0.5
 20
0.5
 30
0.0
 11
-0.5
 21
-0.5
 31
0.0
  0
LINE
  5
54
330
4F
100
AcDbEntity
  8
0
100
AcDbLine
 10
-0.5
 20
0.0
 30
0.0
 11
-1.0
 21
0.0
 31
0.0
  0
ENDBLK
  5
56
330
4F
100
AcDbEntity
  8
0
100
AcDbBlockEnd
  0
BLOCK
  5
5A
330
57
100
AcDbEntity
  8
0
100
AcDbBlockBegin
  2
_BOXFILLED
 70
     0
 71
     0
 10
0.0
 20
0.0
 30
0.0
  3
_BOXFILLED
  1

  0
SOLID
  5
58
330
57
100
AcDbEntity
  8
0
100
AcDbTrace
 10
-0.5
 20
0.5
 30
0.0
 11
0.5
 21
0.5
 31
0.0
 12
-0.5
 22
-0.5
 32
0.0
 13
0.5
 23
-0.5
 33
0.0
  0
LINE
  5
59
330
57
100
AcDbEntity
  8
0
100
AcDbLine
 10
-0.5
 20
0.0
 30
0.0
 11
-1.0
 21
0.0
 31
0.0
  0
ENDBLK
  5
5B
330
57
100
AcDbEntity
  8
0
100
AcDbBlockEnd
  0
BLOCK
  5
5F
330
5C
100
AcDbEntity
  8
0
100
AcDbBlockBegin
  2
_INTEGRAL
 70
     0
 71
     0
 10
0.0
 20
0.0
 30
0.0
  3
_INTEGRAL
  1

  0
ARC
  5
5D
330
5C
100
AcDbEntity
  8
0
100
AcDbCircle
 10
0.444888
 20
-0.0913346
 30
0.0
 40
0.4541666
100
AcDbArc
 50
5844.169510334396
 51
9625.69095819783
  0
ARC
  5
5E
330
5C
100
AcDbEntity
  8
0
100
AcDbCircle
 10
-0.444888
 20
0.0913346
 30
0.0
 40
0.4541666
100
AcDbArc
 50
16157.40982268921
 51
19938.93127055265
  0
ENDBLK
  5
60
330
5C
100
AcDbEntity
  8
0
100
AcDbBlockEnd
  0
BLOCK
  5
63
330
61
100
AcDbEntity
  8
0
100
AcDbBlockBegin
  2
_OBLIQUE
 70
     0
 71
     0
 10
0.0
 20
0.0
 30
0.0
  3
_OBLIQUE
  1

  0
LINE
  5
62
330
61
100
AcDbEntity
  8
0
100
AcDbLine
 10
-0.5
 20
-0.5
 30
0.0
 11
0.5
 21
0.5
 31
0.0
  0
ENDBLK
  5
64
330
61
100
AcDbEntity
  8
0
100
AcDbBlockEnd
  0
BLOCK
  5
66
330
65
100
AcDbEntity
  8
0
100
AcDbBlockBegin
  2
_NONE
 70
     0
 71
     0
 10
0.0
 20
0.0
 30
0.0
  3
_NONE
  1

  0
ENDBLK
  5
67
330
65
100
AcDbEntity
  8
0
100
AcDbBlockEnd
  0
BLOCK
  5
98
330
97
100
AcDbEntity
  8
0
100
AcDbBlockBegin
  2
*G12
 70
     1
 71
     0
 10
0.0
 20
0.0
 30
0.0
  3
*G12
  1

  0
LINE
  5
9A
330
97
100
AcDbEntity
  8
1
  6
Continuous
 62
     7
100
AcDbLine
 10
525.3284271247462
 20
373.2010101267767
 30
0.0
 11
542.2989898732234
 21
390.1715728752538
 31
0.0
  0
LINE
  5
9B
330
97
100
AcDbEntity
  8
1
  6
Continuous
 62
     7
100
AcDbLine
 10
529.8046279793946
 20
374.3816646801445
 30
0.0
 11
528.1568548287544
 21
376.0294378307848
 31
0.0
  0
LINE
  5
9C
330
97
100
AcDbEntity
  8
1
  6
Continuous
 62
     7
100
AcDbLine
 10
530.9852819535006
 20
378.8578649555311
 30
0.0
 11
533.5279800333094
 21
376.3151668757251
 31
0.0
  0
LINE
  5
9D
330
97
100
AcDbEntity
  8
1
  6
Continuous
 62
     7
100
AcDbLine
 10
533.8137090782468
 20
381.6862920802773
 30
0.0
 11
536.642136202993
 21
378.8578649555311
 31
0.0
  0
LINE
  5
9E
330
97
100
AcDbEntity
  8
1
  6
Continuous
 62
     7
100
AcDbLine
 10
536.642136202993
 20
384.5147192050235
 30
0.0
 11
539.184834046313
 21
381.9720213616961
 31
0.0
  0
LINE
  5
9F
330
97
100
AcDbEntity
  8
1
  6
Continuous
 62
     7
100
AcDbLine
 10
539.4705633277392
 20
387.3431463297697
 30
0.0
 11
541.1183359727596
 21
385.695373684752
 31
0.0
  0
LINE
  5
A0
330
97
100
AcDbEntity
  8
1
  6
Continuous
 62
     7
100
AcDbLine
 10
519.6715728752527
 20
373.2010101267758
 30
0.0
 11
542.2989898732243
 21
395.8284271247475
 31
0.0
  0
LINE
  5
A1
330
97
100
AcDbEntity
  8
1
  6
Continuous
 62
     7
100
AcDbLine
 10
522.700011148801
 20
373.0010001364996
 30
0.0
 11
521.0857870168888
 21
374.6152242684117
 31
0.0
  0
LINE
  5
A2
330
97
100
AcDbEntity
  8
1
  6
Continuous
 62
     7
100
AcDbLine
 10
526.7426412663813
 20
374.6152242684117
 30
0.0
 11
523.9142141416351
 21
377.4436513931579
 31
0.0
  0
LINE
  5
A3
330
97
100
AcDbEntity
  8
1
  6
Continuous
 62
     7
100
AcDbLine
 10
529.5710683911275
 20
377.4436513931579
 30
0.0
 11
526.7426412663813
 21
380.2720785179041
 31
0.0
  0
LINE
  5
A4
330
97
100
AcDbEntity
  8
1
  6
Continuous
 62
     7
100
AcDbLine
 10
529.5710683911275
 20
383.1005056426503
 30
0.0
 11
532.3994955158737
 21
380.2720785179041
 31
0.0
  0
LINE
  5
A5
330
97
100
AcDbEntity
  8
1
  6
Continuous
 62
     7
100
AcDbLine
 10
532.3994955158737
 20
385.9289327673965
 30
0.0
 11
535.2279226406199
 21
383.1005056426503
 31
0.0
  0
LINE
  5
A6
330
97
100
AcDbEntity
  8
1
  6
Continuous
 62
     7
100
AcDbLine
 10
535.2279226406199
 20
388.7573598921427
 30
0.0
 11
538.0563497653661
 21
385.9289327673965
 31
0.0
  0
LINE
  5
A7
330
97
100
AcDbEntity
  8
1
  6
Continuous
 62
     7
100
AcDbLine
 10
538.0563497653661
 20
391.585787016889
 30
0.0
 11
540.8847768901123
 21
388.7573598921427
 31
0.0
  0
LINE
  5
A8
330
97
100
AcDbEntity
  8
1
  6
Continuous
 62
     7
100
AcDbLine
 10
540.8847768901123
 20
394.4142141416352
 30
0.0
 11
542.4989998864402
 21
392.7999911452997
 31
0.0
  0
LINE
  5
A9
330
97
100
AcDbEntity
  8
1
  6
Continuous
 62
     7
100
AcDbLine
 10
515.1953728526756
 20
374.3816643536911
 30
0.0
 11
541.1183356463089
 21
400.3046271473243
 31
0.0
  0
LINE
  5
AA
330
97
100
AcDbEntity
  8
1
  6
Continuous
 62
     7
100
AcDbLine
 10
516.8431463297695
 20
376.0294378307848
 30
0.0
 11
519.6715734545157
 21
373.2010107060386
 31
0.0
  0
LINE
  5
AB
330
97
100
AcDbEntity
  8
1
  6
Continuous
 62
     7
100
AcDbLine
 10
522.500000579262
 20
376.0294378307848
 30
0.0
 11
519.6715734545157
 21
378.857864955531
 31
0.0
  0
LINE
  5
AC
330
97
100
AcDbEntity
  8
1
  6
Continuous
 62
     7
100
AcDbLine
 10
525.3284277040082
 20
378.857864955531
 30
0.0
 11
522.500000579262
 21
381.6862920802772
 31
0.0
  0
LINE
  5
AD
330
97
100
AcDbEntity
  8
1
  6
Continuous
 62
     7
100
AcDbLine
 10
528.1568548287544
 20
381.6862920802772
 30
0.0
 11
525.3284277040082
 21
384.5147192050234
 31
0.0
  0
LINE
  5
AE
330
97
100
AcDbEntity
  8
1
  6
Continuous
 62
     7
100
AcDbLine
 10
530.9852819535006
 20
384.5147192050234
 30
0.0
 11
528.1568548287544
 21
387.3431463297696
 31
0.0
  0
LINE
  5
AF
330
97
100
AcDbEntity
  8
1
  6
Continuous
 62
     7
100
AcDbLine
 10
533.8137090782468
 20
387.3431463297696
 30
0.0
 11
530.9852819535006
 21
390.1715734545159
 31
0.0
  0
LINE
  5
B0
330
97
100
AcDbEntity
  8
1
  6
Continuous
 62
     7
100
AcDbLine
 10
533.8137090782468
 20
393.0000005792621
 30
0.0
 11
536.642136202993
 21
390.1715734545159
 31
0.0
  0
LINE
  5
B1
330
97
100
AcDbEntity
  8
1
  6
Continuous
 62
     7
100
AcDbLine
 10
536.642136202993
 20
395.8284277040083
 30
0.0
 11
539.4705633277392
 21
393.0000005792621
 31
0.0
  0
LINE
  5
B2
330
97
100
AcDbEntity
  8
1
  6
Continuous
 62
     7
100
AcDbLine
 10
539.4705633277392
 20
398.6568548287545
 30
0.0
 11
542.2989896801356
 21
395.8284284763607
 31
0.0
  0
LINE
  5
B3
330
97
100
AcDbEntity
  8
1
  6
Continuous
 62
     7
100
AcDbLine
 10
511.4720206641926
 20
376.3151664147002
 30
0.0
 11
539.1848335852999
 21
404.0279793358075
 31
0.0
  0
LINE
  5
B4
330
97
100
AcDbEntity
  8
1
  6
Continuous
 62
     7
100
AcDbLine
 10
515.4289327673964
 20
374.6152242684116
 30
0.0
 11
512.6005056426502
 21
377.4436513931578
 31
0.0
  0
LINE
  5
B5
330
97
100
AcDbEntity
  8
1
  6
Continuous
 62
     7
100
AcDbLine
 10
518.2573598921426
 20
377.4436513931578
 30
0.0
 11
515.4289327673964
 21
380.272078517904
 31
0.0
  0
LINE
  5
B6
330
97
100
AcDbEntity
  8
1
  6
Continuous
 62
     7
100
AcDbLine
 10
521.0857870168888
 20
380.272078517904
 30
0.0
 11
518.2573598921426
 21
383.1005056426503
 31
0.0
  0
LINE
  5
B7
330
97
100
AcDbEntity
  8
1
  6
Continuous
 62
     7
100
AcDbLine
 10
523.9142141416351
 20
383.1005056426503
 30
0.0
 11
521.0857870168888
 21
385.9289327673965
 31
0.0
  0
LINE
  5
B8
330
97
100
AcDbEntity
  8
1
  6
Continuous
 62
     7
100
AcDbLine
 10
526.7426412663813
 20
385.9289327673965
 30
0.0
 11
523.9142141416351
 21
388.7573598921427
 31
0.0
  0
LINE
  5
B9
330
97
100
AcDbEntity
  8
1
  6
Continuous
 62
     7
100
AcDbLine
 10
529.5710683911275
 20
388.7573598921427
 30
0.0
 11
526.7426412663813
 21
391.5857870168889
 31
0.0
  0
LINE
  5
BA
330
97
100
AcDbEntity
  8
1
  6
Continuous
 62
     7
100
AcDbLine
 10
532.3994955158737
 20
391.5857870168889
 30
0.0
 11
529.5710683911275
 21
394.4142141416351
 31
0.0
  0
LINE
  5
BB
330
97
100
AcDbEntity
  8
1
  6
Continuous
 62
     7
100
AcDbLine
 10
532.3994955158737
 20
397.2426412663813
 30
0.0
 11
535.2279226406199
 21
394.4142141416351
 31
0.0
  0
LINE
  5
BC
330
97
100
AcDbEntity
  8
1
  6
Continuous
 62
     7
100
AcDbLine
 10
535.2279226406199
 20
400.0710683911275
 30
0.0
 11
538.0563497653661
 21
397.2426412663813
 31
0.0
  0
LINE
  5
BD
330
97
100
AcDbEntity
  8
1
  6
Continuous
 62
     7
100
AcDbLine
 10
538.0563497653661
 20
402.8994955158738
 30
0.0
 11
540.8847768901123
 21
400.0710683911275
 31
0.0
  0
LINE
  5
BE
330
97
100
AcDbEntity
  8
1
  6
Continuous
 62
     7
100
AcDbLine
 10
508.3578643762692
 20
378.8578643762688
 30
0.0
 11
536.6421356237312
 21
407.1421356237307
 31
0.0
  0
LINE
  5
BF
330
97
100
AcDbEntity
  8
1
  6
Continuous
 62
     7
100
AcDbLine
 10
514.0147192050233
 20
378.8578649555309
 30
0.0
 11
511.1862920802772
 21
381.6862920802772
 31
0.0
  0
LINE
  5
C0
330
97
100
AcDbEntity
  8
1
  6
Continuous
 62
     7
100
AcDbLine
 10
516.8431463297695
 20
381.6862920802772
 30
0.0
 11
514.0147192050233
 21
384.5147192050234
 31
0.0
  0
LINE
  5
C1
330
97
100
AcDbEntity
  8
1
  6
Continuous
 62
     7
100
AcDbLine
 10
519.6715734545157
 20
384.5147192050234
 30
0.0
 11
516.8431463297695
 21
387.3431463297696
 31
0.0
  0
LINE
  5
C2
330
97
100
AcDbEntity
  8
1
  6
Continuous
 62
     7
100
AcDbLine
 10
522.500000579262
 20
387.3431463297696
 30
0.0
 11
519.6715734545157
 21
390.1715734545158
 31
0.0
  0
LINE
  5
C3
330
97
100
AcDbEntity
  8
1
  6
Continuous
 62
     7
100
AcDbLine
 10
525.3284277040082
 20
390.1715734545158
 30
0.0
 11
522.500000579262
 21
393.000000579262
 31
0.0
  0
LINE
  5
C4
330
97
100
AcDbEntity
  8
1
  6
Continuous
 62
     7
100
AcDbLine
 10
528.1568548287544
 20
393.000000579262
 30
0.0
 11
525.3284277040082
 21
395.8284277040082
 31
0.0
  0
LINE
  5
C5
330
97
100
AcDbEntity
  8
1
  6
Continuous
 62
     7
100
AcDbLine
 10
530.9852819535006
 20
395.8284277040082
 30
0.0
 11
528.1568548287544
 21
398.6568548287544
 31
0.0
  0
LINE
  5
C6
330
97
100
AcDbEntity
  8
1
  6
Continuous
 62
     7
100
AcDbLine
 10
533.8137090782468
 20
398.6568548287544
 30
0.0
 11
530.9852819535006
 21
401.4852819535006
 31
0.0
  0
LINE
  5
C7
330
97
100
AcDbEntity
  8
1
  6
Continuous
 62
     7
100
AcDbLine
 10
533.8137090782468
 20
404.3137090782469
 30
0.0
 11
536.642136202993
 21
401.4852819535006
 31
0.0
  0
LINE
  5
C8
330
97
100
AcDbEntity
  8
1
  6
Continuous
 62
     7
100
AcDbLine
 10
505.8151664147028
 20
381.972020664195
 30
0.0
 11
533.527979335805
 21
409.6848335852972
 31
0.0
  0
LINE
  5
C9
330
97
100
AcDbEntity
  8
1
  6
Continuous
 62
     7
100
AcDbLine
 10
509.772078517904
 20
380.272078517904
 30
0.0
 11
506.9436513931579
 21
383.1005056426502
 31
0.0
  0
LINE
  5
CA
330
97
100
AcDbEntity
  8
1
  6
Continuous
 62
     7
100
AcDbLine
 10
512.6005056426502
 20
383.1005056426502
 30
0.0
 11
509.7720785179041
 21
385.9289327673964
 31
0.0
  0
LINE
  5
CB
330
97
100
AcDbEntity
  8
1
  6
Continuous
 62
     7
100
AcDbLine
 10
515.4289327673964
 20
385.9289327673964
 30
0.0
 11
512.6005056426503
 21
388.7573598921426
 31
0.0
  0
LINE
  5
CC
330
97
100
AcDbEntity
  8
1
  6
Continuous
 62
     7
100
AcDbLine
 10
518.2573598921426
 20
388.7573598921426
 30
0.0
 11
515.4289327673965
 21
391.5857870168888
 31
0.0
  0
LINE
  5
CD
330
97
100
AcDbEntity
  8
1
  6
Continuous
 62
     7
100
AcDbLine
 10
521.0857870168888
 20
391.5857870168888
 30
0.0
 11
518.2573598921427
 21
394.4142141416351
 31
0.0
  0
LINE
  5
CE
330
97
100
AcDbEntity
  8
1
  6
Continuous
 62
     7
100
AcDbLine
 10
523.9142141416351
 20
394.4142141416351
 30
0.0
 11
521.085787016889
 21
397.2426412663813
 31
0.0
  0
LINE
  5
CF
330
97
100
AcDbEntity
  8
1
  6
Continuous
 62
     7
100
AcDbLine
 10
526.7426412663813
 20
397.2426412663813
 30
0.0
 11
523.9142141416352
 21
400.0710683911275
 31
0.0
  0
LINE
  5
D0
330
97
100
AcDbEntity
  8
1
  6
Continuous
 62
     7
100
AcDbLine
 10
529.5710683911275
 20
400.0710683911275
 30
0.0
 11
526.7426412663814
 21
402.8994955158737
 31
0.0
  0
LINE
  5
D1
330
97
100
AcDbEntity
  8
1
  6
Continuous
 62
     7
100
AcDbLine
 10
529.5710683911276
 20
405.7279226406199
 30
0.0
 11
532.3994955158738
 21
402.8994955158737
 31
0.0
  0
LINE
  5
D2
330
97
100
AcDbEntity
  8
1
  6
Continuous
 62
     7
100
AcDbLine
 10
532.3994955158738
 20
408.5563497653661
 30
0.0
 11
535.22792264062
 21
405.7279226406199
 31
0.0
  0
LINE
  5
D3
330
97
100
AcDbEntity
  8
1
  6
Continuous
 62
     7
100
AcDbLine
 10
503.88166435369
 20
385.695372852675
 30
0.0
 11
529.8046271473252
 21
411.61833564631
 31
0.0
  0
LINE
  5
D4
330
97
100
AcDbEntity
  8
1
  6
Continuous
 62
     7
100
AcDbLine
 10
508.3578649555309
 20
384.5147192050233
 30
0.0
 11
505.5294378307848
 21
387.3431463297695
 31
0.0
  0
LINE
  5
D5
330
97
100
AcDbEntity
  8
1
  6
Continuous
 62
     7
100
AcDbLine
 10
511.1862920802772
 20
387.3431463297695
 30
0.0
 11
508.357864955531
 21
390.1715734545157
 31
0.0
  0
LINE
  5
D6
330
97
100
AcDbEntity
  8
1
  6
Continuous
 62
     7
100
AcDbLine
 10
514.0147192050233
 20
390.1715734545157
 30
0.0
 11
511.1862920802772
 21
393.000000579262
 31
0.0
  0
LINE
  5
D7
330
97
100
AcDbEntity
  8
1
  6
Continuous
 62
     7
100
AcDbLine
 10
516.8431463297695
 20
393.000000579262
 30
0.0
 11
514.0147192050234
 21
395.8284277040082
 31
0.0
  0
LINE
  5
D8
330
97
100
AcDbEntity
  8
1
  6
Continuous
 62
     7
100
AcDbLine
 10
519.6715734545157
 20
395.8284277040082
 30
0.0
 11
516.8431463297696
 21
398.6568548287544
 31
0.0
  0
LINE
  5
D9
330
97
100
AcDbEntity
  8
1
  6
Continuous
 62
     7
100
AcDbLine
 10
522.500000579262
 20
398.6568548287544
 30
0.0
 11
519.6715734545159
 21
401.4852819535006
 31
0.0
  0
LINE
  5
DA
330
97
100
AcDbEntity
  8
1
  6
Continuous
 62
     7
100
AcDbLine
 10
525.3284277040082
 20
401.4852819535006
 30
0.0
 11
522.5000005792621
 21
404.3137090782468
 31
0.0
  0
LINE
  5
DB
330
97
100
AcDbEntity
  8
1
  6
Continuous
 62
     7
100
AcDbLine
 10
528.1568548287544
 20
404.3137090782468
 30
0.0
 11
525.3284277040083
 21
407.142136202993
 31
0.0
  0
LINE
  5
DC
330
97
100
AcDbEntity
  8
1
  6
Continuous
 62
     7
100
AcDbLine
 10
530.9852819535006
 20
407.142136202993
 30
0.0
 11
528.1568548287545
 21
409.9705633277392
 31
0.0
  0
LINE
  5
DD
330
97
100
AcDbEntity
  8
1
  6
Continuous
 62
     7
100
AcDbLine
 10
502.7010101267767
 20
390.1715728752538
 30
0.0
 11
525.3284271247462
 21
412.7989898732233
 31
0.0
  0
LINE
  5
DE
330
97
100
AcDbEntity
  8
1
  6
Continuous
 62
     7
100
AcDbLine
 10
504.1152242684117
 20
385.9289327673964
 30
0.0
 11
503.6076633189115
 21
386.4364937168971
 31
0.0
  0
LINE
  5
DF
330
97
100
AcDbEntity
  8
1
  6
Continuous
 62
     7
100
AcDbLine
 10
506.9436513931579
 20
388.7573598921426
 30
0.0
 11
504.1152242684117
 21
391.5857870168888
 31
0.0
  0
LINE
  5
E0
330
97
100
AcDbEntity
  8
1
  6
Continuous
 62
     7
100
AcDbLine
 10
509.7720785179041
 20
391.5857870168888
 30
0.0
 11
506.9436513931579
 21
394.4142141416351
 31
0.0
  0
LINE
  5
E1
330
97
100
AcDbEntity
  8
1
  6
Continuous
 62
     7
100
AcDbLine
 10
512.6005056426503
 20
394.4142141416351
 30
0.0
 11
509.7720785179042
 21
397.2426412663813
 31
0.0
  0
LINE
  5
E2
330
97
100
AcDbEntity
  8
1
  6
Continuous
 62
     7
100
AcDbLine
 10
515.4289327673965
 20
397.2426412663813
 30
0.0
 11
512.6005056426504
 21
400.0710683911275
 31
0.0
  0
LINE
  5
E3
330
97
100
AcDbEntity
  8
1
  6
Continuous
 62
     7
100
AcDbLine
 10
518.2573598921427
 20
400.0710683911275
 30
0.0
 11
515.4289327673966
 21
402.8994955158737
 31
0.0
  0
LINE
  5
E4
330
97
100
AcDbEntity
  8
1
  6
Continuous
 62
     7
100
AcDbLine
 10
521.085787016889
 20
402.8994955158737
 30
0.0
 11
518.2573598921429
 21
405.7279226406199
 31
0.0
  0
LINE
  5
E5
330
97
100
AcDbEntity
  8
1
  6
Continuous
 62
     7
100
AcDbLine
 10
523.9142141416352
 20
405.7279226406199
 30
0.0
 11
521.0857870168891
 21
408.5563497653661
 31
0.0
  0
LINE
  5
E6
330
97
100
AcDbEntity
  8
1
  6
Continuous
 62
     7
100
AcDbLine
 10
526.7426412663814
 20
408.5563497653661
 30
0.0
 11
523.9142141416353
 21
411.3847768901123
 31
0.0
  0
LINE
  5
E7
330
97
100
AcDbEntity
  8
1
  6
Continuous
 62
     7
100
AcDbLine
 10
529.5710683911276
 20
411.3847768901123
 30
0.0
 11
529.0635098336822
 21
411.8923354475578
 31
0.0
  0
LINE
  5
E8
330
97
100
AcDbEntity
  8
1
  6
Continuous
 62
     7
100
AcDbLine
 10
502.7010101267766
 20
395.8284271247462
 30
0.0
 11
519.6715728752538
 21
412.7989898732233
 31
0.0
  0
LINE
  5
E9
330
97
100
AcDbEntity
  8
1
  6
Continuous
 62
     7
100
AcDbLine
 10
505.5294378307848
 20
393.0000005792619
 30
0.0
 11
502.7010107060386
 21
395.8284277040081
 31
0.0
  0
LINE
  5
EA
330
97
100
AcDbEntity
  8
1
  6
Continuous
 62
     7
100
AcDbLine
 10
508.357864955531
 20
395.8284277040081
 30
0.0
 11
505.5294378307848
 21
398.6568548287543
 31
0.0
  0
LINE
  5
EB
330
97
100
AcDbEntity
  8
1
  6
Continuous
 62
     7
100
AcDbLine
 10
511.1862920802772
 20
398.6568548287543
 30
0.0
 11
508.3578649555311
 21
401.4852819535005
 31
0.0
  0
LINE
  5
EC
330
97
100
AcDbEntity
  8
1
  6
Continuous
 62
     7
100
AcDbLine
 10
514.0147192050234
 20
401.4852819535005
 30
0.0
 11
511.1862920802773
 21
404.3137090782467
 31
0.0
  0
LINE
  5
ED
330
97
100
AcDbEntity
  8
1
  6
Continuous
 62
     7
100
AcDbLine
 10
516.8431463297696
 20
404.3137090782467
 30
0.0
 11
514.0147192050235
 21
407.142136202993
 31
0.0
  0
LINE
  5
EE
330
97
100
AcDbEntity
  8
1
  6
Continuous
 62
     7
100
AcDbLine
 10
519.6715734545159
 20
407.142136202993
 30
0.0
 11
516.8431463297698
 21
409.9705633277392
 31
0.0
  0
LINE
  5
EF
330
97
100
AcDbEntity
  8
1
  6
Continuous
 62
     7
100
AcDbLine
 10
522.5000005792621
 20
409.9705633277392
 30
0.0
 11
519.6715738889626
 21
412.798990018039
 31
0.0
  0
LINE
  5
F0
330
97
100
AcDbEntity
  8
1
  6
Continuous
 62
     7
100
AcDbLine
 10
504.1152242684117
 20
397.2426412663812
 30
0.0
 11
503.1814837190449
 21
398.1763818157485
 31
0.0
  0
LINE
  5
F1
330
97
100
AcDbEntity
  8
1
  6
Continuous
 62
     7
100
AcDbLine
 10
506.9436513931579
 20
400.0710683911274
 30
0.0
 11
504.7666221467414
 21
402.2480976375444
 31
0.0
  0
LINE
  5
F2
330
97
100
AcDbEntity
  8
1
  6
Continuous
 62
     7
100
AcDbLine
 10
509.7720785179041
 20
402.8994955158736
 30
0.0
 11
507.0145396792019
 21
405.6570343545764
 31
0.0
  0
LINE
  5
F3
330
97
100
AcDbEntity
  8
1
  6
Continuous
 62
     7
100
AcDbLine
 10
512.6005056426503
 20
405.7279226406198
 30
0.0
 11
509.8429669203842
 21
408.4854613628864
 31
0.0
  0
LINE
  5
F4
330
97
100
AcDbEntity
  8
1
  6
Continuous
 62
     7
100
AcDbLine
 10
515.4289327673965
 20
408.556349765366
 30
0.0
 11
513.2519038853202
 21
410.733378647443
 31
0.0
  0
LINE
  5
F5
330
97
100
AcDbEntity
  8
1
  6
Continuous
 62
     7
100
AcDbLine
 10
518.2573598921427
 20
411.3847768901122
 30
0.0
 11
517.3236200116502
 21
412.3185167706052
 31
0.0
  0
ENDBLK
  5
99
330
97
100
AcDbEntity
  8
0
100
AcDbBlockEnd
  0
BLOCK
  5
F8
330
F7
100
AcDbEntity
  8
0
100
AcDbBlockBegin
  2
*G13
 70
     1
 71
     0
 10
0.0
 20
0.0
 30
0.0
  3
*G13
  1

  0
LINE
  5
FA
330
F7
100
AcDbEntity
  8
1
  6
Continuous
 62
     7
100
AcDbLine
 10
920.3284271247462
 20
373.2010101267768
 30
0.0
 11
937.2989898732234
 21
390.171572875254
 31
0.0
  0
LINE
  5
FB
330
F7
100
AcDbEntity
  8
1
  6
Continuous
 62
     7
100
AcDbLine
 10
923.1568548287545
 20
376.0294378307848
 30
0.0
 11
924.8046279793881
 21
374.381664680138
 31
0.0
  0
LINE
  5
FC
330
F7
100
AcDbEntity
  8
1
  6
Continuous
 62
     7
100
AcDbLine
 10
925.9852819535007
 20
378.8578649555311
 30
0.0
 11
928.5279800333149
 21
376.3151668757241
 31
0.0
  0
LINE
  5
FD
330
F7
100
AcDbEntity
  8
1
  6
Continuous
 62
     7
100
AcDbLine
 10
928.8137090782469
 20
381.6862920802773
 30
0.0
 11
931.6421362029931
 21
378.8578649555311
 31
0.0
  0
LINE
  5
FE
330
F7
100
AcDbEntity
  8
1
  6
Continuous
 62
     7
100
AcDbLine
 10
931.6421362029931
 20
384.5147192050235
 30
0.0
 11
934.1848340463121
 21
381.972021361691
 31
0.0
  0
LINE
  5
FF
330
F7
100
AcDbEntity
  8
1
  6
Continuous
 62
     7
100
AcDbLine
 10
934.4705633277393
 20
387.3431463297697
 30
0.0
 11
936.1183359727619
 21
385.6953736847541
 31
0.0
  0
LINE
  5
100
330
F7
100
AcDbEntity
  8
1
  6
Continuous
 62
     7
100
AcDbLine
 10
914.6715728752558
 20
373.2010101267789
 30
0.0
 11
937.298989873221
 21
395.8284271247442
 31
0.0
  0
LINE
  5
101
330
F7
100
AcDbEntity
  8
1
  6
Continuous
 62
     7
100
AcDbLine
 10
916.085787016889
 20
374.6152242684117
 30
0.0
 11
917.7000111488106
 21
373.0010001364975
 31
0.0
  0
LINE
  5
102
330
F7
100
AcDbEntity
  8
1
  6
Continuous
 62
     7
100
AcDbLine
 10
918.9142141416352
 20
377.4436513931579
 30
0.0
 11
921.7426412663814
 21
374.6152242684117
 31
0.0
  0
LINE
  5
103
330
F7
100
AcDbEntity
  8
1
  6
Continuous
 62
     7
100
AcDbLine
 10
921.7426412663814
 20
380.2720785179042
 30
0.0
 11
924.5710683911276
 21
377.4436513931579
 31
0.0
  0
LINE
  5
104
330
F7
100
AcDbEntity
  8
1
  6
Continuous
 62
     7
100
AcDbLine
 10
924.5710683911276
 20
383.1005056426504
 30
0.0
 11
927.3994955158738
 21
380.2720785179042
 31
0.0
  0
LINE
  5
105
330
F7
100
AcDbEntity
  8
1
  6
Continuous
 62
     7
100
AcDbLine
 10
927.3994955158738
 20
385.9289327673966
 30
0.0
 11
930.22792264062
 21
383.1005056426504
 31
0.0
  0
LINE
  5
106
330
F7
100
AcDbEntity
  8
1
  6
Continuous
 62
     7
100
AcDbLine
 10
930.22792264062
 20
388.7573598921428
 30
0.0
 11
933.0563497653662
 21
385.9289327673966
 31
0.0
  0
LINE
  5
107
330
F7
100
AcDbEntity
  8
1
  6
Continuous
 62
     7
100
AcDbLine
 10
933.0563497653662
 20
391.585787016889
 30
0.0
 11
935.8847768901124
 21
388.7573598921428
 31
0.0
  0
LINE
  5
108
330
F7
100
AcDbEntity
  8
1
  6
Continuous
 62
     7
100
AcDbLine
 10
935.8847768901124
 20
394.4142141416352
 30
0.0
 11
937.4989998864447
 21
392.7999911453098
 31
0.0
  0
LINE
  5
109
330
F7
100
AcDbEntity
  8
1
  6
Continuous
 62
     7
100
AcDbLine
 10
910.1953728526768
 20
374.3816643536921
 30
0.0
 11
936.118335646308
 21
400.3046271473235
 31
0.0
  0
LINE
  5
10A
330
F7
100
AcDbEntity
  8
1
  6
Continuous
 62
     7
100
AcDbLine
 10
914.6715742268498
 20
373.2010099336916
 30
0.0
 11
911.8431463297698
 21
376.0294378307847
 31
0.0
  0
LINE
  5
10B
330
F7
100
AcDbEntity
  8
1
  6
Continuous
 62
     7
100
AcDbLine
 10
914.671573454516
 20
378.8578649555309
 30
0.0
 11
917.5000005792622
 21
376.0294378307847
 31
0.0
  0
LINE
  5
10C
330
F7
100
AcDbEntity
  8
1
  6
Continuous
 62
     7
100
AcDbLine
 10
917.5000005792622
 20
381.6862920802772
 30
0.0
 11
920.3284277040084
 21
378.8578649555309
 31
0.0
  0
LINE
  5
10D
330
F7
100
AcDbEntity
  8
1
  6
Continuous
 62
     7
100
AcDbLine
 10
920.3284277040084
 20
384.5147192050234
 30
0.0
 11
923.1568548287546
 21
381.6862920802772
 31
0.0
  0
LINE
  5
10E
330
F7
100
AcDbEntity
  8
1
  6
Continuous
 62
     7
100
AcDbLine
 10
923.1568548287546
 20
387.3431463297696
 30
0.0
 11
925.9852819535008
 21
384.5147192050234
 31
0.0
  0
LINE
  5
10F
330
F7
100
AcDbEntity
  8
1
  6
Continuous
 62
     7
100
AcDbLine
 10
925.9852819535008
 20
390.1715734545158
 30
0.0
 11
928.813709078247
 21
387.3431463297696
 31
0.0
  0
LINE
  5
110
330
F7
100
AcDbEntity
  8
1
  6
Continuous
 62
     7
100
AcDbLine
 10
928.813709078247
 20
393.000000579262
 30
0.0
 11
931.6421362029932
 21
390.1715734545158
 31
0.0
  0
LINE
  5
111
330
F7
100
AcDbEntity
  8
1
  6
Continuous
 62
     7
100
AcDbLine
 10
931.6421362029932
 20
395.8284277040082
 30
0.0
 11
934.4705633277395
 21
393.000000579262
 31
0.0
  0
LINE
  5
112
330
F7
100
AcDbEntity
  8
1
  6
Continuous
 62
     7
100
AcDbLine
 10
934.4705633277395
 20
398.6568548287544
 30
0.0
 11
937.2989896801361
 21
395.8284284763645
 31
0.0
  0
LINE
  5
113
330
F7
100
AcDbEntity
  8
1
  6
Continuous
 62
     7
100
AcDbLine
 10
906.4720206641973
 20
376.3151664147042
 30
0.0
 11
934.1848335852959
 21
404.0279793358027
 31
0.0
  0
LINE
  5
114
330
F7
100
AcDbEntity
  8
1
  6
Continuous
 62
     7
100
AcDbLine
 10
907.6005056426504
 20
377.4436513931578
 30
0.0
 11
910.4289327673966
 21
374.6152242684116
 31
0.0
  0
LINE
  5
115
330
F7
100
AcDbEntity
  8
1
  6
Continuous
 62
     7
100
AcDbLine
 10
910.4289327673966
 20
380.272078517904
 30
0.0
 11
913.2573598921429
 21
377.4436513931578
 31
0.0
  0
LINE
  5
116
330
F7
100
AcDbEntity
  8
1
  6
Continuous
 62
     7
100
AcDbLine
 10
913.2573598921429
 20
383.1005056426503
 30
0.0
 11
916.0857870168891
 21
380.272078517904
 31
0.0
  0
LINE
  5
117
330
F7
100
AcDbEntity
  8
1
  6
Continuous
 62
     7
100
AcDbLine
 10
916.0857870168891
 20
385.9289327673965
 30
0.0
 11
918.9142141416353
 21
383.1005056426503
 31
0.0
  0
LINE
  5
118
330
F7
100
AcDbEntity
  8
1
  6
Continuous
 62
     7
100
AcDbLine
 10
918.9142141416353
 20
388.7573598921427
 30
0.0
 11
921.7426412663815
 21
385.9289327673965
 31
0.0
  0
LINE
  5
119
330
F7
100
AcDbEntity
  8
1
  6
Continuous
 62
     7
100
AcDbLine
 10
921.7426412663815
 20
391.5857870168889
 30
0.0
 11
924.5710683911277
 21
388.7573598921427
 31
0.0
  0
LINE
  5
11A
330
F7
100
AcDbEntity
  8
1
  6
Continuous
 62
     7
100
AcDbLine
 10
924.5710683911277
 20
394.4142141416351
 30
0.0
 11
927.3994955158739
 21
391.5857870168889
 31
0.0
  0
LINE
  5
11B
330
F7
100
AcDbEntity
  8
1
  6
Continuous
 62
     7
100
AcDbLine
 10
927.3994955158739
 20
397.2426412663813
 30
0.0
 11
930.2279226406201
 21
394.4142141416351
 31
0.0
  0
LINE
  5
11C
330
F7
100
AcDbEntity
  8
1
  6
Continuous
 62
     7
100
AcDbLine
 10
930.2279226406201
 20
400.0710683911275
 30
0.0
 11
933.0563497653663
 21
397.2426412663813
 31
0.0
  0
LINE
  5
11D
330
F7
100
AcDbEntity
  8
1
  6
Continuous
 62
     7
100
AcDbLine
 10
933.0563497653663
 20
402.8994955158738
 30
0.0
 11
935.8847768901126
 21
400.0710683911275
 31
0.0
  0
LINE
  5
11E
330
F7
100
AcDbEntity
  8
1
  6
Continuous
 62
     7
100
AcDbLine
 10
903.357864376269
 20
378.8578643762692
 30
0.0
 11
931.642135623731
 21
407.1421356237311
 31
0.0
  0
LINE
  5
11F
330
F7
100
AcDbEntity
  8
1
  6
Continuous
 62
     7
100
AcDbLine
 10
906.1862920802773
 20
381.6862920802772
 30
0.0
 11
909.0147192050235
 21
378.8578649555309
 31
0.0
  0
LINE
  5
120
330
F7
100
AcDbEntity
  8
1
  6
Continuous
 62
     7
100
AcDbLine
 10
909.0147192050235
 20
384.5147192050234
 30
0.0
 11
911.8431463297698
 21
381.6862920802772
 31
0.0
  0
LINE
  5
121
330
F7
100
AcDbEntity
  8
1
  6
Continuous
 62
     7
100
AcDbLine
 10
911.8431463297698
 20
387.3431463297696
 30
0.0
 11
914.671573454516
 21
384.5147192050234
 31
0.0
  0
LINE
  5
122
330
F7
100
AcDbEntity
  8
1
  6
Continuous
 62
     7
100
AcDbLine
 10
914.671573454516
 20
390.1715734545158
 30
0.0
 11
917.5000005792622
 21
387.3431463297696
 31
0.0
  0
LINE
  5
123
330
F7
100
AcDbEntity
  8
1
  6
Continuous
 62
     7
100
AcDbLine
 10
917.5000005792622
 20
393.000000579262
 30
0.0
 11
920.3284277040084
 21
390.1715734545158
 31
0.0
  0
LINE
  5
124
330
F7
100
AcDbEntity
  8
1
  6
Continuous
 62
     7
100
AcDbLine
 10
920.3284277040084
 20
395.8284277040082
 30
0.0
 11
923.1568548287546
 21
393.000000579262
 31
0.0
  0
LINE
  5
125
330
F7
100
AcDbEntity
  8
1
  6
Continuous
 62
     7
100
AcDbLine
 10
923.1568548287546
 20
398.6568548287544
 30
0.0
 11
925.9852819535008
 21
395.8284277040082
 31
0.0
  0
LINE
  5
126
330
F7
100
AcDbEntity
  8
1
  6
Continuous
 62
     7
100
AcDbLine
 10
925.9852819535008
 20
401.4852819535006
 30
0.0
 11
928.813709078247
 21
398.6568548287544
 31
0.0
  0
LINE
  5
127
330
F7
100
AcDbEntity
  8
1
  6
Continuous
 62
     7
100
AcDbLine
 10
928.813709078247
 20
404.3137090782469
 30
0.0
 11
931.6421362029932
 21
401.4852819535006
 31
0.0
  0
LINE
  5
128
330
F7
100
AcDbEntity
  8
1
  6
Continuous
 62
     7
100
AcDbLine
 10
900.8151664147035
 20
381.9720206641962
 30
0.0
 11
928.5279793358038
 21
409.6848335852965
 31
0.0
  0
LINE
  5
129
330
F7
100
AcDbEntity
  8
1
  6
Continuous
 62
     7
100
AcDbLine
 10
901.943651393158
 20
383.1005056426503
 30
0.0
 11
904.7720785179042
 21
380.272078517904
 31
0.0
  0
LINE
  5
12A
330
F7
100
AcDbEntity
  8
1
  6
Continuous
 62
     7
100
AcDbLine
 10
904.7720785179042
 20
385.9289327673965
 30
0.0
 11
907.6005056426504
 21
383.1005056426503
 31
0.0
  0
LINE
  5
12B
330
F7
100
AcDbEntity
  8
1
  6
Continuous
 62
     7
100
AcDbLine
 10
907.6005056426504
 20
388.7573598921427
 30
0.0
 11
910.4289327673966
 21
385.9289327673965
 31
0.0
  0
LINE
  5
12C
330
F7
100
AcDbEntity
  8
1
  6
Continuous
 62
     7
100
AcDbLine
 10
910.4289327673966
 20
391.5857870168889
 30
0.0
 11
913.2573598921429
 21
388.7573598921427
 31
0.0
  0
LINE
  5
12D
330
F7
100
AcDbEntity
  8
1
  6
Continuous
 62
     7
100
AcDbLine
 10
913.2573598921429
 20
394.4142141416351
 30
0.0
 11
916.0857870168891
 21
391.5857870168889
 31
0.0
  0
LINE
  5
12E
330
F7
100
AcDbEntity
  8
1
  6
Continuous
 62
     7
100
AcDbLine
 10
916.0857870168891
 20
397.2426412663813
 30
0.0
 11
918.9142141416353
 21
394.4142141416351
 31
0.0
  0
LINE
  5
12F
330
F7
100
AcDbEntity
  8
1
  6
Continuous
 62
     7
100
AcDbLine
 10
918.9142141416353
 20
400.0710683911275
 30
0.0
 11
921.7426412663815
 21
397.2426412663813
 31
0.0
  0
LINE
  5
130
330
F7
100
AcDbEntity
  8
1
  6
Continuous
 62
     7
100
AcDbLine
 10
921.7426412663815
 20
402.8994955158738
 30
0.0
 11
924.5710683911277
 21
400.0710683911275
 31
0.0
  0
LINE
  5
131
330
F7
100
AcDbEntity
  8
1
  6
Continuous
 62
     7
100
AcDbLine
 10
924.5710683911277
 20
405.72792264062
 30
0.0
 11
927.3994955158739
 21
402.8994955158738
 31
0.0
  0
LINE
  5
132
330
F7
100
AcDbEntity
  8
1
  6
Continuous
 62
     7
100
AcDbLine
 10
927.3994955158739
 20
408.5563497653662
 30
0.0
 11
930.2279226406201
 21
405.72792264062
 31
0.0
  0
LINE
  5
133
330
F7
100
AcDbEntity
  8
1
  6
Continuous
 62
     7
100
AcDbLine
 10
898.8816643536918
 20
385.6953728526768
 30
0.0
 11
924.8046271473232
 21
411.6183356463083
 31
0.0
  0
LINE
  5
134
330
F7
100
AcDbEntity
  8
1
  6
Continuous
 62
     7
100
AcDbLine
 10
900.5294378307849
 20
387.3431463297695
 30
0.0
 11
903.3578649555311
 21
384.5147192050233
 31
0.0
  0
LINE
  5
135
330
F7
100
AcDbEntity
  8
1
  6
Continuous
 62
     7
100
AcDbLine
 10
903.3578649555311
 20
390.1715734545157
 30
0.0
 11
906.1862920802773
 21
387.3431463297695
 31
0.0
  0
LINE
  5
136
330
F7
100
AcDbEntity
  8
1
  6
Continuous
 62
     7
100
AcDbLine
 10
906.1862920802773
 20
393.0000005792619
 30
0.0
 11
909.0147192050235
 21
390.1715734545157
 31
0.0
  0
LINE
  5
137
330
F7
100
AcDbEntity
  8
1
  6
Continuous
 62
     7
100
AcDbLine
 10
909.0147192050235
 20
395.8284277040081
 30
0.0
 11
911.8431463297698
 21
393.0000005792619
 31
0.0
  0
LINE
  5
138
330
F7
100
AcDbEntity
  8
1
  6
Continuous
 62
     7
100
AcDbLine
 10
911.8431463297698
 20
398.6568548287543
 30
0.0
 11
914.671573454516
 21
395.8284277040081
 31
0.0
  0
LINE
  5
139
330
F7
100
AcDbEntity
  8
1
  6
Continuous
 62
     7
100
AcDbLine
 10
914.671573454516
 20
401.4852819535005
 30
0.0
 11
917.5000005792622
 21
398.6568548287543
 31
0.0
  0
LINE
  5
13A
330
F7
100
AcDbEntity
  8
1
  6
Continuous
 62
     7
100
AcDbLine
 10
917.5000005792622
 20
404.3137090782467
 30
0.0
 11
920.3284277040084
 21
401.4852819535005
 31
0.0
  0
LINE
  5
13B
330
F7
100
AcDbEntity
  8
1
  6
Continuous
 62
     7
100
AcDbLine
 10
920.3284277040084
 20
407.142136202993
 30
0.0
 11
923.1568548287546
 21
404.3137090782467
 31
0.0
  0
LINE
  5
13C
330
F7
100
AcDbEntity
  8
1
  6
Continuous
 62
     7
100
AcDbLine
 10
923.1568548287546
 20
409.9705633277392
 30
0.0
 11
925.9852819535008
 21
407.142136202993
 31
0.0
  0
LINE
  5
13D
330
F7
100
AcDbEntity
  8
1
  6
Continuous
 62
     7
100
AcDbLine
 10
897.7010101267756
 20
390.171572875253
 30
0.0
 11
920.3284271247472
 21
412.7989898732246
 31
0.0
  0
LINE
  5
13E
330
F7
100
AcDbEntity
  8
1
  6
Continuous
 62
     7
100
AcDbLine
 10
898.6076633189133
 20
386.4364937168819
 30
0.0
 11
899.1152242684118
 21
385.9289327673964
 31
0.0
  0
LINE
  5
13F
330
F7
100
AcDbEntity
  8
1
  6
Continuous
 62
     7
100
AcDbLine
 10
899.1152242684118
 20
391.5857870168888
 30
0.0
 11
901.943651393158
 21
388.7573598921426
 31
0.0
  0
LINE
  5
140
330
F7
100
AcDbEntity
  8
1
  6
Continuous
 62
     7
100
AcDbLine
 10
901.943651393158
 20
394.4142141416351
 30
0.0
 11
904.7720785179042
 21
391.5857870168888
 31
0.0
  0
LINE
  5
141
330
F7
100
AcDbEntity
  8
1
  6
Continuous
 62
     7
100
AcDbLine
 10
904.7720785179042
 20
397.2426412663813
 30
0.0
 11
907.6005056426504
 21
394.4142141416351
 31
0.0
  0
LINE
  5
142
330
F7
100
AcDbEntity
  8
1
  6
Continuous
 62
     7
100
AcDbLine
 10
907.6005056426504
 20
400.0710683911275
 30
0.0
 11
910.4289327673966
 21
397.2426412663813
 31
0.0
  0
LINE
  5
143
330
F7
100
AcDbEntity
  8
1
  6
Continuous
 62
     7
100
AcDbLine
 10
910.4289327673966
 20
402.8994955158737
 30
0.0
 11
913.2573598921429
 21
400.0710683911275
 31
0.0
  0
LINE
  5
144
330
F7
100
AcDbEntity
  8
1
  6
Continuous
 62
     7
100
AcDbLine
 10
913.2573598921429
 20
405.7279226406199
 30
0.0
 11
916.0857870168891
 21
402.8994955158737
 31
0.0
  0
LINE
  5
145
330
F7
100
AcDbEntity
  8
1
  6
Continuous
 62
     7
100
AcDbLine
 10
916.0857870168891
 20
408.5563497653661
 30
0.0
 11
918.9142141416353
 21
405.7279226406199
 31
0.0
  0
LINE
  5
146
330
F7
100
AcDbEntity
  8
1
  6
Continuous
 62
     7
100
AcDbLine
 10
918.9142141416353
 20
411.3847768901123
 30
0.0
 11
921.7426412663815
 21
408.5563497653661
 31
0.0
  0
LINE
  5
147
330
F7
100
AcDbEntity
  8
1
  6
Continuous
 62
     7
100
AcDbLine
 10
924.0635098336539
 20
411.8923354475722
 30
0.0
 11
924.5710683911277
 21
411.3847768901123
 31
0.0
  0
LINE
  5
148
330
F7
100
AcDbEntity
  8
1
  6
Continuous
 62
     7
100
AcDbLine
 10
897.7010101267743
 20
395.8284271247431
 30
0.0
 11
914.6715728752572
 21
412.7989898732258
 31
0.0
  0
LINE
  5
149
330
F7
100
AcDbEntity
  8
1
  6
Continuous
 62
     7
100
AcDbLine
 10
900.5294378307849
 20
393.0000005792619
 30
0.0
 11
897.7010107060387
 21
395.8284277040081
 31
0.0
  0
LINE
  5
14A
330
F7
100
AcDbEntity
  8
1
  6
Continuous
 62
     7
100
AcDbLine
 10
900.5294378307849
 20
398.6568548287543
 30
0.0
 11
903.3578649555311
 21
395.8284277040081
 31
0.0
  0
LINE
  5
14B
330
F7
100
AcDbEntity
  8
1
  6
Continuous
 62
     7
100
AcDbLine
 10
903.3578649555311
 20
401.4852819535005
 30
0.0
 11
906.1862920802773
 21
398.6568548287543
 31
0.0
  0
LINE
  5
14C
330
F7
100
AcDbEntity
  8
1
  6
Continuous
 62
     7
100
AcDbLine
 10
906.1862920802773
 20
404.3137090782467
 30
0.0
 11
909.0147192050235
 21
401.4852819535005
 31
0.0
  0
LINE
  5
14D
330
F7
100
AcDbEntity
  8
1
  6
Continuous
 62
     7
100
AcDbLine
 10
909.0147192050235
 20
407.142136202993
 30
0.0
 11
911.8431463297698
 21
404.3137090782467
 31
0.0
  0
LINE
  5
14E
330
F7
100
AcDbEntity
  8
1
  6
Continuous
 62
     7
100
AcDbLine
 10
911.8431463297698
 20
409.9705633277392
 30
0.0
 11
914.671573454516
 21
407.142136202993
 31
0.0
  0
LINE
  5
14F
330
F7
100
AcDbEntity
  8
1
  6
Continuous
 62
     7
100
AcDbLine
 10
914.671573454516
 20
412.7989904524854
 30
0.0
 11
917.5000005792622
 21
409.9705633277392
 31
0.0
  0
LINE
  5
150
330
F7
100
AcDbEntity
  8
1
  6
Continuous
 62
     7
100
AcDbLine
 10
898.1814837190384
 20
398.1763818157415
 30
0.0
 11
899.1152242684118
 21
397.2426412663812
 31
0.0
  0
LINE
  5
151
330
F7
100
AcDbEntity
  8
1
  6
Continuous
 62
     7
100
AcDbLine
 10
899.7666221467441
 20
402.2480976375487
 30
0.0
 11
901.943651393158
 21
400.0710683911274
 31
0.0
  0
LINE
  5
152
330
F7
100
AcDbEntity
  8
1
  6
Continuous
 62
     7
100
AcDbLine
 10
902.0145396791924
 20
405.6570343545724
 30
0.0
 11
904.7720785179042
 21
402.8994955158736
 31
0.0
  0
LINE
  5
153
330
F7
100
AcDbEntity
  8
1
  6
Continuous
 62
     7
100
AcDbLine
 10
904.8429669203899
 20
408.4854613628876
 30
0.0
 11
907.6005056426504
 21
405.7279226406199
 31
0.0
  0
LINE
  5
154
330
F7
100
AcDbEntity
  8
1
  6
Continuous
 62
     7
100
AcDbLine
 10
908.2519038853247
 20
410.733378647445
 30
0.0
 11
910.4289327673966
 21
408.5563497653661
 31
0.0
  0
LINE
  5
155
330
F7
100
AcDbEntity
  8
1
  6
Continuous
 62
     7
100
AcDbLine
 10
912.3236200116363
 20
412.3185167706054
 30
0.0
 11
913.2573598921429
 21
411.3847768901123
 31
0.0
  0
ENDBLK
  5
F9
330
F7
100
AcDbEntity
  8
0
100
AcDbBlockEnd
  0
BLOCK
  5
17C
330
17B
100
AcDbEntity
  8
0
100
AcDbBlockBegin
  2
Dim1
 70
     0
 71
     0
 10
0.0
 20
0.0
 30
0.0
  3
Dim1
  1

  0
LINE
  5
17E
330
17B
100
AcDbEntity
  8
1
  6
Continuous
 62
     7
100
AcDbLine
 10
122.5
 20
290.0
 30
0.0
 11
257.5
 21
290.0
 31
0.0
  0
LINE
  5
17F
330
17B
100
AcDbEntity
  8
1
  6
Continuous
 62
     7
100
AcDbLine
 10
122.5
 20
288.0
 30
0.0
 11
122.5
 21
348.0
 31
0.0
  0
LINE
  5
180
330
17B
100
AcDbEntity
  8
1
  6
Continuous
 62
     7
100
AcDbLine
 10
257.5
 20
288.0
 30
0.0
 11
257.5
 21
348.0
 31
0.0
  0
LINE
  5
181
330
17B
100
AcDbEntity
  8
1
  6
Continuous
 62
     7
100
AcDbLine
 10
122.5
 20
290.0
 30
0.0
 11
130.2274066103126
 21
292.0705523608202
 31
0.0
  0
LINE
  5
182
330
17B
100
AcDbEntity
  8
1
  6
Continuous
 62
     7
100
AcDbLine
 10
122.5
 20
290.0
 30
0.0
 11
130.2274066103126
 21
287.9294476391798
 31
0.0
  0
LINE
  5
183
330
17B
100
AcDbEntity
  8
1
  6
Continuous
 62
     7
100
AcDbLine
 10
130.2274066103126
 20
292.0705523608202
 30
0.0
 11
130.2274066103126
 21
287.9294476391798
 31
0.0
  0
LINE
  5
184
330
17B
100
AcDbEntity
  8
1
  6
Continuous
 62
     7
100
AcDbLine
 10
124.4318516525782
 20
290.0
 30
0.0
 11
128.2955549577344
 21
291.0352761804101
 31
0.0
  0
LINE
  5
185
330
17B
100
AcDbEntity
  8
1
  6
Continuous
 62
     7
100
AcDbLine
 10
124.4318516525782
 20
290.0
 30
0.0
 11
128.2955549577344
 21
288.9647238195899
 31
0.0
  0
LINE
  5
186
330
17B
100
AcDbEntity
  8
1
  6
Continuous
 62
     7
100
AcDbLine
 10
128.2955549577344
 20
291.0352761804101
 30
0.0
 11
128.2955549577344
 21
288.9647238195899
 31
0.0
  0
LINE
  5
187
330
17B
100
AcDbEntity
  8
1
  6
Continuous
 62
     7
100
AcDbLine
 10
257.5
 20
290.0
 30
0.0
 11
249.7725933896874
 21
287.9294476391798
 31
0.0
  0
LINE
  5
188
330
17B
100
AcDbEntity
  8
1
  6
Continuous
 62
     7
100
AcDbLine
 10
257.5
 20
290.0
 30
0.0
 11
249.7725933896874
 21
292.0705523608202
 31
0.0
  0
LINE
  5
189
330
17B
100
AcDbEntity
  8
1
  6
Continuous
 62
     7
100
AcDbLine
 10
249.7725933896874
 20
287.9294476391798
 30
0.0
 11
249.7725933896874
 21
292.0705523608202
 31
0.0
  0
LINE
  5
18A
330
17B
100
AcDbEntity
  8
1
  6
Continuous
 62
     7
100
AcDbLine
 10
255.5681483474219
 20
290.0
 30
0.0
 11
251.7044450422656
 21
288.9647238195899
 31
0.0
  0
LINE
  5
18B
330
17B
100
AcDbEntity
  8
1
  6
Continuous
 62
     7
100
AcDbLine
 10
255.5681483474219
 20
290.0
 30
0.0
 11
251.7044450422656
 21
291.0352761804101
 31
0.0
  0
LINE
  5
18C
330
17B
100
AcDbEntity
  8
1
  6
Continuous
 62
     7
100
AcDbLine
 10
251.7044450422656
 20
288.9647238195899
 30
0.0
 11
251.7044450422656
 21
291.0352761804101
 31
0.0
  0
MTEXT
  5
18D
330
17B
100
AcDbEntity
  8
1
  6
Continuous
 62
     7
100
AcDbMText
 10
190.0
 20
296.0
 30
0.0
 40
12.0
 41
0.0
 71
     8
 72
     1
  1
135
 73
     1
 44
1.0
  0
ENDBLK
  5
17D
330
17B
100
AcDbEntity
  8
0
100
AcDbBlockEnd
  0
BLOCK
  5
190
330
18F
100
AcDbEntity
  8
0
100
AcDbBlockBegin
  2
Dim2
 70
     0
 71
     0
 10
0.0
 20
0.0
 30
0.0
  3
Dim2
  1

  0
LINE
  5
192
330
18F
100
AcDbEntity
  8
1
  6
Continuous
 62
     7
100
AcDbLine
 10
212.0
 20
250.0
 30
0.0
 11
271.5
 21
250.0
 31
0.0
  0
LINE
  5
193
330
18F
100
AcDbEntity
  8
1
  6
Continuous
 62
     7
100
AcDbLine
 10
251.5
 20
250.0
 30
0.0
 11
243.7725933896875
 21
247.9294476391798
 31
0.0
  0
LINE
  5
194
330
18F
100
AcDbEntity
  8
1
  6
Continuous
 62
     7
100
AcDbLine
 10
251.5
 20
250.0
 30
0.0
 11
243.7725933896875
 21
252.0705523608202
 31
0.0
  0
LINE
  5
195
330
18F
100
AcDbEntity
  8
1
  6
Continuous
 62
     7
100
AcDbLine
 10
243.7725933896875
 20
247.9294476391798
 30
0.0
 11
243.7725933896875
 21
252.0705523608202
 31
0.0
  0
LINE
  5
196
330
18F
100
AcDbEntity
  8
1
  6
Continuous
 62
     7
100
AcDbLine
 10
249.5681483474219
 20
250.0
 30
0.0
 11
245.7044450422656
 21
248.9647238195899
 31
0.0
  0
LINE
  5
197
330
18F
100
AcDbEntity
  8
1
  6
Continuous
 62
     7
100
AcDbLine
 10
249.5681483474219
 20
250.0
 30
0.0
 11
245.7044450422656
 21
251.0352761804101
 31
0.0
  0
LINE
  5
198
330
18F
100
AcDbEntity
  8
1
  6
Continuous
 62
     7
100
AcDbLine
 10
245.7044450422656
 20
248.9647238195899
 30
0.0
 11
245.7044450422656
 21
251.0352761804101
 31
0.0
  0
LINE
  5
199
330
18F
100
AcDbEntity
  8
1
  6
Continuous
 62
     7
100
AcDbLine
 10
263.5
 20
250.0
 30
0.0
 11
271.2274066103125
 21
252.0705523608202
 31
0.0
  0
LINE
  5
19A
330
18F
100
AcDbEntity
  8
1
  6
Continuous
 62
     7
100
AcDbLine
 10
263.5
 20
250.0
 30
0.0
 11
271.2274066103125
 21
247.9294476391798
 31
0.0
  0
LINE
  5
19B
330
18F
100
AcDbEntity
  8
1
  6
Continuous
 62
     7
100
AcDbLine
 10
271.2274066103125
 20
252.0705523608202
 30
0.0
 11
271.2274066103125
 21
247.9294476391798
 31
0.0
  0
LINE
  5
19C
330
18F
100
AcDbEntity
  8
1
  6
Continuous
 62
     7
100
AcDbLine
 10
265.4318516525781
 20
250.0
 30
0.0
 11
269.2955549577344
 21
251.0352761804101
 31
0.0
  0
LINE
  5
19D
330
18F
100
AcDbEntity
  8
1
  6
Continuous
 62
     7
100
AcDbLine
 10
265.4318516525781
 20
250.0
 30
0.0
 11
269.2955549577344
 21
248.9647238195899
 31
0.0
  0
LINE
  5
19E
330
18F
100
AcDbEntity
  8
1
  6
Continuous
 62
     7
100
AcDbLine
 10
269.2955549577344
 20
251.0352761804101
 30
0.0
 11
269.2955549577344
 21
248.9647238195899
 31
0.0
  0
MTEXT
  5
19F
330
18F
100
AcDbEntity
  8
1
  6
Continuous
 62
     7
100
AcDbMText
 10
227.0
 20
256.0
 30
0.0
 40
12.0
 41
0.0
 71
     8
 72
     1
  1
φ12
 73
     1
 44
1.0
  0
ENDBLK
  5
191
330
18F
100
AcDbEntity
  8
0
100
AcDbBlockEnd
  0
BLOCK
  5
1C4
330
1C3
100
AcDbEntity
  8
0
100
AcDbBlockBegin
  2
Dim3
 70
     0
 71
     0
 10
0.0
 20
0.0
 30
0.0
  3
Dim3
  1

  0
LINE
  5
1C6
330
1C3
100
AcDbEntity
  8
1
  6
Continuous
 62
     7
100
AcDbLine
 10
340.0
 20
362.0
 30
0.0
 11
340.0
 21
161.9999999999992
 31
0.0
  0
LINE
  5
1C7
330
1C3
100
AcDbEntity
  8
1
  6
Continuous
 62
     7
100
AcDbLine
 10
342.0
 20
362.0
 30
0.0
 11
277.0000000000002
 21
362.0
 31
0.0
  0
LINE
  5
1C8
330
1C3
100
AcDbEntity
  8
1
  6
Continuous
 62
     7
100
AcDbLine
 10
342.0
 20
161.9999999999992
 30
0.0
 11
259.5
 21
161.9999999999992
 31
0.0
  0
LINE
  5
1C9
330
1C3
100
AcDbEntity
  8
1
  6
Continuous
 62
     7
100
AcDbLine
 10
340.0
 20
362.0
 30
0.0
 11
342.0705523608202
 21
354.2725933896875
 31
0.0
  0
LINE
  5
1CA
330
1C3
100
AcDbEntity
  8
1
  6
Continuous
 62
     7
100
AcDbLine
 10
340.0
 20
362.0
 30
0.0
 11
337.9294476391798
 21
354.2725933896875
 31
0.0
  0
LINE
  5
1CB
330
1C3
100
AcDbEntity
  8
1
  6
Continuous
 62
     7
100
AcDbLine
 10
342.0705523608202
 20
354.2725933896875
 30
0.0
 11
337.9294476391798
 21
354.2725933896875
 31
0.0
  0
LINE
  5
1CC
330
1C3
100
AcDbEntity
  8
1
  6
Continuous
 62
     7
100
AcDbLine
 10
340.0
 20
360.0681483474219
 30
0.0
 11
341.0352761804101
 21
356.2044450422656
 31
0.0
  0
LINE
  5
1CD
330
1C3
100
AcDbEntity
  8
1
  6
Continuous
 62
     7
100
AcDbLine
 10
340.0
 20
360.0681483474219
 30
0.0
 11
338.9647238195899
 21
356.2044450422656
 31
0.0
  0
LINE
  5
1CE
330
1C3
100
AcDbEntity
  8
1
  6
Continuous
 62
     7
100
AcDbLine
 10
341.0352761804101
 20
356.2044450422656
 30
0.0
 11
338.9647238195899
 21
356.2044450422656
 31
0.0
  0
LINE
  5
1CF
330
1C3
100
AcDbEntity
  8
1
  6
Continuous
 62
     7
100
AcDbLine
 10
340.0
 20
161.9999999999992
 30
0.0
 11
337.9294476391798
 21
169.7274066103118
 31
0.0
  0
LINE
  5
1D0
330
1C3
100
AcDbEntity
  8
1
  6
Continuous
 62
     7
100
AcDbLine
 10
340.0
 20
161.9999999999992
 30
0.0
 11
342.0705523608202
 21
169.7274066103118
 31
0.0
  0
LINE
  5
1D1
330
1C3
100
AcDbEntity
  8
1
  6
Continuous
 62
     7
100
AcDbLine
 10
337.9294476391798
 20
169.7274066103118
 30
0.0
 11
342.0705523608202
 21
169.7274066103118
 31
0.0
  0
LINE
  5
1D2
330
1C3
100
AcDbEntity
  8
1
  6
Continuous
 62
     7
100
AcDbLine
 10
340.0
 20
163.9318516525773
 30
0.0
 11
338.9647238195899
 21
167.7955549577336
 31
0.0
  0
LINE
  5
1D3
330
1C3
100
AcDbEntity
  8
1
  6
Continuous
 62
     7
100
AcDbLine
 10
340.0
 20
163.9318516525773
 30
0.0
 11
341.0352761804101
 21
167.7955549577336
 31
0.0
  0
LINE
  5
1D4
330
1C3
100
AcDbEntity
  8
1
  6
Continuous
 62
     7
100
AcDbLine
 10
338.9647238195899
 20
167.7955549577336
 30
0.0
 11
341.0352761804101
 21
167.7955549577336
 31
0.0
  0
MTEXT
  5
1D5
330
1C3
100
AcDbEntity
  8
1
  6
Continuous
 62
     7
100
AcDbMText
 10
334.0
 20
261.9999999999996
 30
0.0
 40
12.0
 41
0.0
 71
     8
 72
     1
  1
200
 11
6.123233995736766E-17
 21
1.0
 31
0.0
 73
     1
 44
1.0
  0
ENDBLK
  5
1C5
330
1C3
100
AcDbEntity
  8
0
100
AcDbBlockEnd
  0
BLOCK
  5
1D8
330
1D7
100
AcDbEntity
  8
0
100
AcDbBlockBegin
  2
Dim4
 70
     0
 71
     0
 10
0.0
 20
0.0
 30
0.0
  3
Dim4
  1

  0
LINE
  5
1DA
330
1D7
100
AcDbEntity
  8
1
  6
Continuous
 62
     7
100
AcDbLine
 10
310.0
 20
349.9999999999999
 30
0.0
 11
310.0
 21
162.0000000000005
 31
0.0
  0
LINE
  5
1DB
330
1D7
100
AcDbEntity
  8
1
  6
Continuous
 62
     7
100
AcDbLine
 10
312.0
 20
349.9999999999999
 30
0.0
 11
277.0000000000002
 21
349.9999999999999
 31
0.0
  0
LINE
  5
1DC
330
1D7
100
AcDbEntity
  8
1
  6
Continuous
 62
     7
100
AcDbLine
 10
312.0
 20
162.0000000000005
 30
0.0
 11
259.4999999999997
 21
162.0000000000005
 31
0.0
  0
LINE
  5
1DD
330
1D7
100
AcDbEntity
  8
1
  6
Continuous
 62
     7
100
AcDbLine
 10
310.0
 20
349.9999999999999
 30
0.0
 11
312.0705523608202
 21
342.2725933896874
 31
0.0
  0
LINE
  5
1DE
330
1D7
100
AcDbEntity
  8
1
  6
Continuous
 62
     7
100
AcDbLine
 10
310.0
 20
349.9999999999999
 30
0.0
 11
307.9294476391798
 21
342.2725933896874
 31
0.0
  0
LINE
  5
1DF
330
1D7
100
AcDbEntity
  8
1
  6
Continuous
 62
     7
100
AcDbLine
 10
312.0705523608202
 20
342.2725933896874
 30
0.0
 11
307.9294476391798
 21
342.2725933896874
 31
0.0
  0
LINE
  5
1E0
330
1D7
100
AcDbEntity
  8
1
  6
Continuous
 62
     7
100
AcDbLine
 10
310.0
 20
348.0681483474218
 30
0.0
 11
311.0352761804101
 21
344.2044450422655
 31
0.0
  0
LINE
  5
1E1
330
1D7
100
AcDbEntity
  8
1
  6
Continuous
 62
     7
100
AcDbLine
 10
310.0
 20
348.0681483474218
 30
0.0
 11
308.9647238195899
 21
344.2044450422655
 31
0.0
  0
LINE
  5
1E2
330
1D7
100
AcDbEntity
  8
1
  6
Continuous
 62
     7
100
AcDbLine
 10
311.0352761804101
 20
344.2044450422655
 30
0.0
 11
308.9647238195899
 21
344.2044450422655
 31
0.0
  0
LINE
  5
1E3
330
1D7
100
AcDbEntity
  8
1
  6
Continuous
 62
     7
100
AcDbLine
 10
310.0
 20
162.0000000000005
 30
0.0
 11
307.9294476391798
 21
169.727406610313
 31
0.0
  0
LINE
  5
1E4
330
1D7
100
AcDbEntity
  8
1
  6
Continuous
 62
     7
100
AcDbLine
 10
310.0
 20
162.0000000000005
 30
0.0
 11
312.0705523608202
 21
169.727406610313
 31
0.0
  0
LINE
  5
1E5
330
1D7
100
AcDbEntity
  8
1
  6
Continuous
 62
     7
100
AcDbLine
 10
307.9294476391798
 20
169.727406610313
 30
0.0
 11
312.0705523608202
 21
169.727406610313
 31
0.0
  0
LINE
  5
1E6
330
1D7
100
AcDbEntity
  8
1
  6
Continuous
 62
     7
100
AcDbLine
 10
310.0
 20
163.9318516525786
 30
0.0
 11
308.9647238195899
 21
167.7955549577349
 31
0.0
  0
LINE
  5
1E7
330
1D7
100
AcDbEntity
  8
1
  6
Continuous
 62
     7
100
AcDbLine
 10
310.0
 20
163.9318516525786
 30
0.0
 11
311.0352761804101
 21
167.7955549577349
 31
0.0
  0
LINE
  5
1E8
330
1D7
100
AcDbEntity
  8
1
  6
Continuous
 62
     7
100
AcDbLine
 10
308.9647238195899
 20
167.7955549577349
 30
0.0
 11
311.0352761804101
 21
167.7955549577349
 31
0.0
  0
MTEXT
  5
1E9
330
1D7
100
AcDbEntity
  8
1
  6
Continuous
 62
     7
100
AcDbMText
 10
304.0
 20
256.0000000000002
 30
0.0
 40
12.0
 41
0.0
 71
     8
 72
     1
  1
188
 11
6.123233995736766E-17
 21
1.0
 31
0.0
 73
     1
 44
1.0
  0
ENDBLK
  5
1D9
330
1D7
100
AcDbEntity
  8
0
100
AcDbBlockEnd
  0
BLOCK
  5
1EC
330
1EB
100
AcDbEntity
  8
0
100
AcDbBlockBegin
  2
Dim5
 70
     0
 71
     0
 10
0.0
 20
0.0
 30
0.0
  3
Dim5
  1

  0
LINE
  5
1EE
330
1EB
100
AcDbEntity
  8
1
  6
Continuous
 62
     7
100
AcDbLine
 10
310.0
 20
369.9999999999999
 30
0.0
 11
310.0
 21
342.0
 31
0.0
  0
LINE
  5
1EF
330
1EB
100
AcDbEntity
  8
1
  6
Continuous
 62
     7
100
AcDbLine
 10
314.0
 20
361.9999999999999
 30
0.0
 11
279.0000000000002
 21
361.9999999999999
 31
0.0
  0
LINE
  5
1F0
330
1EB
100
AcDbEntity
  8
1
  6
Continuous
 62
     7
100
AcDbLine
 10
314.0
 20
350.0
 30
0.0
 11
279.0000000000002
 21
350.0
 31
0.0
  0
LINE
  5
1F1
330
1EB
100
AcDbEntity
  8
1
  6
Continuous
 62
     7
100
AcDbLine
 10
310.0
 20
361.9999999999999
 30
0.0
 11
307.9294476391798
 21
369.7274066103124
 31
0.0
  0
LINE
  5
1F2
330
1EB
100
AcDbEntity
  8
1
  6
Continuous
 62
     7
100
AcDbLine
 10
310.0
 20
361.9999999999999
 30
0.0
 11
312.0705523608202
 21
369.7274066103124
 31
0.0
  0
LINE
  5
1F3
330
1EB
100
AcDbEntity
  8
1
  6
Continuous
 62
     7
100
AcDbLine
 10
307.9294476391798
 20
369.7274066103124
 30
0.0
 11
312.0705523608202
 21
369.7274066103124
 31
0.0
  0
LINE
  5
1F4
330
1EB
100
AcDbEntity
  8
1
  6
Continuous
 62
     7
100
AcDbLine
 10
310.0
 20
363.931851652578
 30
0.0
 11
308.9647238195899
 21
367.7955549577343
 31
0.0
  0
LINE
  5
1F5
330
1EB
100
AcDbEntity
  8
1
  6
Continuous
 62
     7
100
AcDbLine
 10
310.0
 20
363.931851652578
 30
0.0
 11
311.0352761804101
 21
367.7955549577343
 31
0.0
  0
LINE
  5
1F6
330
1EB
100
AcDbEntity
  8
1
  6
Continuous
 62
     7
100
AcDbLine
 10
308.9647238195899
 20
367.7955549577343
 30
0.0
 11
311.0352761804101
 21
367.7955549577343
 31
0.0
  0
LINE
  5
1F7
330
1EB
100
AcDbEntity
  8
1
  6
Continuous
 62
     7
100
AcDbLine
 10
310.0
 20
350.0
 30
0.0
 11
312.0705523608202
 21
342.2725933896875
 31
0.0
  0
LINE
  5
1F8
330
1EB
100
AcDbEntity
  8
1
  6
Continuous
 62
     7
100
AcDbLine
 10
310.0
 20
350.0
 30
0.0
 11
307.9294476391798
 21
342.2725933896875
 31
0.0
  0
LINE
  5
1F9
330
1EB
100
AcDbEntity
  8
1
  6
Continuous
 62
     7
100
AcDbLine
 10
312.0705523608202
 20
342.2725933896875
 30
0.0
 11
307.9294476391798
 21
342.2725933896875
 31
0.0
  0
LINE
  5
1FA
330
1EB
100
AcDbEntity
  8
1
  6
Continuous
 62
     7
100
AcDbLine
 10
310.0
 20
348.0681483474219
 30
0.0
 11
311.0352761804101
 21
344.2044450422656
 31
0.0
  0
LINE
  5
1FB
330
1EB
100
AcDbEntity
  8
1
  6
Continuous
 62
     7
100
AcDbLine
 10
310.0
 20
348.0681483474219
 30
0.0
 11
308.9647238195899
 21
344.2044450422656
 31
0.0
  0
LINE
  5
1FC
330
1EB
100
AcDbEntity
  8
1
  6
Continuous
 62
     7
100
AcDbLine
 10
311.0352761804101
 20
344.2044450422656
 30
0.0
 11
308.9647238195899
 21
344.2044450422656
 31
0.0
  0
MTEXT
  5
1FD
330
1EB
100
AcDbEntity
  8
1
  6
Continuous
 62
     7
100
AcDbMText
 10
304.0
 20
355.9999999999999
 30
0.0
 40
12.0
 41
0.0
 71
     8
 72
     1
  1
12
 11
6.123233995736766E-17
 21
1.0
 31
0.0
 73
     1
 44
1.0
  0
ENDBLK
  5
1ED
330
1EB
100
AcDbEntity
  8
0
100
AcDbBlockEnd
  0
BLOCK
  5
200
330
1FF
100
AcDbEntity
  8
0
100
AcDbBlockBegin
  2
Dim6
 70
     0
 71
     0
 10
0.0
 20
0.0
 30
0.0
  3
Dim6
  1

  0
LINE
  5
202
330
1FF
100
AcDbEntity
  8
1
  6
Continuous
 62
     7
100
AcDbLine
 10
390.0
 20
432.0
 30
0.0
 11
390.0
 21
350.0
 31
0.0
  0
LINE
  5
203
330
1FF
100
AcDbEntity
  8
1
  6
Continuous
 62
     7
100
AcDbLine
 10
386.0
 20
432.0
 30
0.0
 11
447.0453068857516
 21
432.0
 31
0.0
  0
LINE
  5
204
330
1FF
100
AcDbEntity
  8
1
  6
Continuous
 62
     7
100
AcDbLine
 10
386.0
 20
350.0
 30
0.0
 11
416.0
 21
350.0
 31
0.0
  0
LINE
  5
205
330
1FF
100
AcDbEntity
  8
1
  6
Continuous
 62
     7
100
AcDbLine
 10
390.0
 20
432.0
 30
0.0
 11
392.0705523608202
 21
424.2725933896875
 31
0.0
  0
LINE
  5
206
330
1FF
100
AcDbEntity
  8
1
  6
Continuous
 62
     7
100
AcDbLine
 10
390.0
 20
432.0
 30
0.0
 11
387.9294476391798
 21
424.2725933896875
 31
0.0
  0
LINE
  5
207
330
1FF
100
AcDbEntity
  8
1
  6
Continuous
 62
     7
100
AcDbLine
 10
392.0705523608202
 20
424.2725933896875
 30
0.0
 11
387.9294476391798
 21
424.2725933896875
 31
0.0
  0
LINE
  5
208
330
1FF
100
AcDbEntity
  8
1
  6
Continuous
 62
     7
100
AcDbLine
 10
390.0
 20
430.0681483474219
 30
0.0
 11
391.0352761804101
 21
426.2044450422656
 31
0.0
  0
LINE
  5
209
330
1FF
100
AcDbEntity
  8
1
  6
Continuous
 62
     7
100
AcDbLine
 10
390.0
 20
430.0681483474219
 30
0.0
 11
388.9647238195899
 21
426.2044450422656
 31
0.0
  0
LINE
  5
20A
330
1FF
100
AcDbEntity
  8
1
  6
Continuous
 62
     7
100
AcDbLine
 10
391.0352761804101
 20
426.2044450422656
 30
0.0
 11
388.9647238195899
 21
426.2044450422656
 31
0.0
  0
LINE
  5
20B
330
1FF
100
AcDbEntity
  8
1
  6
Continuous
 62
     7
100
AcDbLine
 10
390.0
 20
350.0
 30
0.0
 11
387.9294476391798
 21
357.7274066103125
 31
0.0
  0
LINE
  5
20C
330
1FF
100
AcDbEntity
  8
1
  6
Continuous
 62
     7
100
AcDbLine
 10
390.0
 20
350.0
 30
0.0
 11
392.0705523608202
 21
357.7274066103125
 31
0.0
  0
LINE
  5
20D
330
1FF
100
AcDbEntity
  8
1
  6
Continuous
 62
     7
100
AcDbLine
 10
387.9294476391798
 20
357.7274066103125
 30
0.0
 11
392.0705523608202
 21
357.7274066103125
 31
0.0
  0
LINE
  5
20E
330
1FF
100
AcDbEntity
  8
1
  6
Continuous
 62
     7
100
AcDbLine
 10
390.0
 20
351.9318516525781
 30
0.0
 11
388.9647238195899
 21
355.7955549577344
 31
0.0
  0
LINE
  5
20F
330
1FF
100
AcDbEntity
  8
1
  6
Continuous
 62
     7
100
AcDbLine
 10
390.0
 20
351.9318516525781
 30
0.0
 11
391.0352761804101
 21
355.7955549577344
 31
0.0
  0
LINE
  5
210
330
1FF
100
AcDbEntity
  8
1
  6
Continuous
 62
     7
100
AcDbLine
 10
388.9647238195899
 20
355.7955549577344
 30
0.0
 11
391.0352761804101
 21
355.7955549577344
 31
0.0
  0
MTEXT
  5
211
330
1FF
100
AcDbEntity
  8
1
  6
Continuous
 62
     7
100
AcDbMText
 10
384.0000000000001
 20
391.0
 30
0.0
 40
12.0
 41
0.0
 71
     8
 72
     1
  1
82
 11
1.837589179357618E-15
 21
1.0
 31
0.0
 73
     1
 44
1.0
  0
ENDBLK
  5
201
330
1FF
100
AcDbEntity
  8
0
100
AcDbBlockEnd
  0
BLOCK
  5
22F
330
22E
100
AcDbEntity
  8
0
100
AcDbBlockBegin
  2
Dim7
 70
     0
 71
     0
 10
0.0
 20
0.0
 30
0.0
  3
Dim7
  1

  0
LINE
  5
231
330
22E
100
AcDbEntity
  8
1
  6
Continuous
 62
     7
100
AcDbLine
 10
420.0000000000002
 20
460.0
 30
0.0
 11
1020.0
 21
460.0
 31
0.0
  0
LINE
  5
232
330
22E
100
AcDbEntity
  8
1
  6
Continuous
 62
     7
100
AcDbLine
 10
420.0000000000002
 20
464.0
 30
0.0
 11
420.0
 21
354.0
 31
0.0
  0
LINE
  5
233
330
22E
100
AcDbEntity
  8
1
  6
Continuous
 62
     7
100
AcDbLine
 10
1020.0
 20
464.0
 30
0.0
 11
1020.0
 21
353.9999999999976
 31
0.0
  0
LINE
  5
234
330
22E
100
AcDbEntity
  8
1
  6
Continuous
 62
     7
100
AcDbLine
 10
420.0000000000002
 20
460.0
 30
0.0
 11
427.7274066103127
 21
462.0705523608202
 31
0.0
  0
LINE
  5
235
330
22E
100
AcDbEntity
  8
1
  6
Continuous
 62
     7
100
AcDbLine
 10
420.0000000000002
 20
460.0
 30
0.0
 11
427.7274066103127
 21
457.9294476391798
 31
0.0
  0
LINE
  5
236
330
22E
100
AcDbEntity
  8
1
  6
Continuous
 62
     7
100
AcDbLine
 10
427.7274066103127
 20
462.0705523608202
 30
0.0
 11
427.7274066103127
 21
457.9294476391798
 31
0.0
  0
LINE
  5
237
330
22E
100
AcDbEntity
  8
1
  6
Continuous
 62
     7
100
AcDbLine
 10
421.9318516525783
 20
460.0
 30
0.0
 11
425.7955549577346
 21
461.0352761804101
 31
0.0
  0
LINE
  5
238
330
22E
100
AcDbEntity
  8
1
  6
Continuous
 62
     7
100
AcDbLine
 10
421.9318516525783
 20
460.0
 30
0.0
 11
425.7955549577346
 21
458.9647238195899
 31
0.0
  0
LINE
  5
239
330
22E
100
AcDbEntity
  8
1
  6
Continuous
 62
     7
100
AcDbLine
 10
425.7955549577346
 20
461.0352761804101
 30
0.0
 11
425.7955549577346
 21
458.9647238195899
 31
0.0
  0
LINE
  5
23A
330
22E
100
AcDbEntity
  8
1
  6
Continuous
 62
     7
100
AcDbLine
 10
1020.0
 20
460.0
 30
0.0
 11
1012.272593389688
 21
457.9294476391798
 31
0.0
  0
LINE
  5
23B
330
22E
100
AcDbEntity
  8
1
  6
Continuous
 62
     7
100
AcDbLine
 10
1020.0
 20
460.0
 30
0.0
 11
1012.272593389688
 21
462.0705523608202
 31
0.0
  0
LINE
  5
23C
330
22E
100
AcDbEntity
  8
1
  6
Continuous
 62
     7
100
AcDbLine
 10
1012.272593389688
 20
457.9294476391798
 30
0.0
 11
1012.272593389688
 21
462.0705523608202
 31
0.0
  0
LINE
  5
23D
330
22E
100
AcDbEntity
  8
1
  6
Continuous
 62
     7
100
AcDbLine
 10
1018.068148347422
 20
460.0
 30
0.0
 11
1014.204445042266
 21
458.9647238195899
 31
0.0
  0
LINE
  5
23E
330
22E
100
AcDbEntity
  8
1
  6
Continuous
 62
     7
100
AcDbLine
 10
1018.068148347422
 20
460.0
 30
0.0
 11
1014.204445042266
 21
461.0352761804101
 31
0.0
  0
LINE
  5
23F
330
22E
100
AcDbEntity
  8
1
  6
Continuous
 62
     7
100
AcDbLine
 10
1014.204445042266
 20
458.9647238195899
 30
0.0
 11
1014.204445042266
 21
461.0352761804101
 31
0.0
  0
MTEXT
  5
240
330
22E
100
AcDbEntity
  8
1
  6
Continuous
 62
     7
100
AcDbMText
 10
720.0000000000002
 20
466.0
 30
0.0
 40
12.0
 41
0.0
 71
     8
 72
     1
  1
600
 73
     1
 44
1.0
  0
ENDBLK
  5
230
330
22E
100
AcDbEntity
  8
0
100
AcDbBlockEnd
  0
BLOCK
  5
26E
330
26D
100
AcDbEntity
  8
0
100
AcDbBlockBegin
  2
Dim8
 70
     0
 71
     0
 10
0.0
 20
0.0
 30
0.0
  3
Dim8
  1

  0
LINE
  5
270
330
26D
100
AcDbEntity
  8
1
  6
Continuous
 62
     7
100
AcDbLine
 10
475.0
 20
739.7604336669363
 30
0.0
 11
965.0
 21
739.7604336669363
 31
0.0
  0
LINE
  5
271
330
26D
100
AcDbEntity
  8
1
  6
Continuous
 62
     7
100
AcDbLine
 10
475.0
 20
743.7604336669363
 30
0.0
 11
475.0
 21
560.500000642597
 31
0.0
  0
LINE
  5
272
330
26D
100
AcDbEntity
  8
1
  6
Continuous
 62
     7
100
AcDbLine
 10
965.0
 20
743.7604336669363
 30
0.0
 11
965.0
 21
560.500000642597
 31
0.0
  0
LINE
  5
273
330
26D
100
AcDbEntity
  8
1
  6
Continuous
 62
     7
100
AcDbLine
 10
475.0
 20
739.7604336669363
 30
0.0
 11
482.7274066103125
 21
741.8309860277565
 31
0.0
  0
LINE
  5
274
330
26D
100
AcDbEntity
  8
1
  6
Continuous
 62
     7
100
AcDbLine
 10
475.0
 20
739.7604336669363
 30
0.0
 11
482.7274066103125
 21
737.689881306116
 31
0.0
  0
LINE
  5
275
330
26D
100
AcDbEntity
  8
1
  6
Continuous
 62
     7
100
AcDbLine
 10
482.7274066103125
 20
741.8309860277565
 30
0.0
 11
482.7274066103125
 21
737.689881306116
 31
0.0
  0
LINE
  5
276
330
26D
100
AcDbEntity
  8
1
  6
Continuous
 62
     7
100
AcDbLine
 10
476.9318516525781
 20
739.7604336669363
 30
0.0
 11
480.7955549577344
 21
740.7957098473463
 31
0.0
  0
LINE
  5
277
330
26D
100
AcDbEntity
  8
1
  6
Continuous
 62
     7
100
AcDbLine
 10
476.9318516525781
 20
739.7604336669363
 30
0.0
 11
480.7955549577344
 21
738.7251574865262
 31
0.0
  0
LINE
  5
278
330
26D
100
AcDbEntity
  8
1
  6
Continuous
 62
     7
100
AcDbLine
 10
480.7955549577344
 20
740.7957098473463
 30
0.0
 11
480.7955549577344
 21
738.7251574865262
 31
0.0
  0
LINE
  5
279
330
26D
100
AcDbEntity
  8
1
  6
Continuous
 62
     7
100
AcDbLine
 10
965.0
 20
739.7604336669363
 30
0.0
 11
957.2725933896875
 21
737.689881306116
 31
0.0
  0
LINE
  5
27A
330
26D
100
AcDbEntity
  8
1
  6
Continuous
 62
     7
100
AcDbLine
 10
965.0
 20
739.7604336669363
 30
0.0
 11
957.2725933896875
 21
741.8309860277565
 31
0.0
  0
LINE
  5
27B
330
26D
100
AcDbEntity
  8
1
  6
Continuous
 62
     7
100
AcDbLine
 10
957.2725933896875
 20
737.689881306116
 30
0.0
 11
957.2725933896875
 21
741.8309860277565
 31
0.0
  0
LINE
  5
27C
330
26D
100
AcDbEntity
  8
1
  6
Continuous
 62
     7
100
AcDbLine
 10
963.0681483474218
 20
739.7604336669363
 30
0.0
 11
959.2044450422655
 21
738.7251574865262
 31
0.0
  0
LINE
  5
27D
330
26D
100
AcDbEntity
  8
1
  6
Continuous
 62
     7
100
AcDbLine
 10
963.0681483474218
 20
739.7604336669363
 30
0.0
 11
959.2044450422655
 21
740.7957098473463
 31
0.0
  0
LINE
  5
27E
330
26D
100
AcDbEntity
  8
1
  6
Continuous
 62
     7
100
AcDbLine
 10
959.2044450422655
 20
738.7251574865262
 30
0.0
 11
959.2044450422655
 21
740.7957098473463
 31
0.0
  0
MTEXT
  5
27F
330
26D
100
AcDbEntity
  8
1
  6
Continuous
 62
     7
100
AcDbMText
 10
720.0
 20
745.7604336669363
 30
0.0
 40
12.0
 41
0.0
 71
     8
 72
     1
  1
481
 73
     1
 44
1.0
  0
ENDBLK
  5
26F
330
26D
100
AcDbEntity
  8
0
100
AcDbBlockEnd
  0
BLOCK
  5
2D3
330
2D2
100
AcDbEntity
  8
0
100
AcDbBlockBegin
  2
Dim9
 70
     0
 71
     0
 10
0.0
 20
0.0
 30
0.0
  3
Dim9
  1

  0
LINE
  5
2D5
330
2D2
100
AcDbEntity
  8
1
  6
Continuous
 62
     7
100
AcDbLine
 10
390.0
 20
705.0
 30
0.0
 11
390.0
 21
570.0
 31
0.0
  0
LINE
  5
2D6
330
2D2
100
AcDbEntity
  8
1
  6
Continuous
 62
     7
100
AcDbLine
 10
386.0
 20
705.0
 30
0.0
 11
490.0918842224871
 21
705.0
 31
0.0
  0
LINE
  5
2D7
330
2D2
100
AcDbEntity
  8
1
  6
Continuous
 62
     7
100
AcDbLine
 10
386.0
 20
570.0
 30
0.0
 11
490.0918842224869
 21
570.0
 31
0.0
  0
LINE
  5
2D8
330
2D2
100
AcDbEntity
  8
1
  6
Continuous
 62
     7
100
AcDbLine
 10
390.0
 20
705.0
 30
0.0
 11
392.0705523608202
 21
697.2725933896875
 31
0.0
  0
LINE
  5
2D9
330
2D2
100
AcDbEntity
  8
1
  6
Continuous
 62
     7
100
AcDbLine
 10
390.0
 20
705.0
 30
0.0
 11
387.9294476391798
 21
697.2725933896875
 31
0.0
  0
LINE
  5
2DA
330
2D2
100
AcDbEntity
  8
1
  6
Continuous
 62
     7
100
AcDbLine
 10
392.0705523608202
 20
697.2725933896875
 30
0.0
 11
387.9294476391798
 21
697.2725933896875
 31
0.0
  0
LINE
  5
2DB
330
2D2
100
AcDbEntity
  8
1
  6
Continuous
 62
     7
100
AcDbLine
 10
390.0
 20
703.0681483474218
 30
0.0
 11
391.0352761804101
 21
699.2044450422655
 31
0.0
  0
LINE
  5
2DC
330
2D2
100
AcDbEntity
  8
1
  6
Continuous
 62
     7
100
AcDbLine
 10
390.0
 20
703.0681483474218
 30
0.0
 11
388.9647238195899
 21
699.2044450422655
 31
0.0
  0
LINE
  5
2DD
330
2D2
100
AcDbEntity
  8
1
  6
Continuous
 62
     7
100
AcDbLine
 10
391.0352761804101
 20
699.2044450422655
 30
0.0
 11
388.9647238195899
 21
699.2044450422655
 31
0.0
  0
LINE
  5
2DE
330
2D2
100
AcDbEntity
  8
1
  6
Continuous
 62
     7
100
AcDbLine
 10
390.0
 20
570.0
 30
0.0
 11
387.9294476391798
 21
577.7274066103125
 31
0.0
  0
LINE
  5
2DF
330
2D2
100
AcDbEntity
  8
1
  6
Continuous
 62
     7
100
AcDbLine
 10
390.0
 20
570.0
 30
0.0
 11
392.0705523608202
 21
577.7274066103125
 31
0.0
  0
LINE
  5
2E0
330
2D2
100
AcDbEntity
  8
1
  6
Continuous
 62
     7
100
AcDbLine
 10
387.9294476391798
 20
577.7274066103125
 30
0.0
 11
392.0705523608202
 21
577.7274066103125
 31
0.0
  0
LINE
  5
2E1
330
2D2
100
AcDbEntity
  8
1
  6
Continuous
 62
     7
100
AcDbLine
 10
390.0
 20
571.9318516525782
 30
0.0
 11
388.9647238195899
 21
575.7955549577345
 31
0.0
  0
LINE
  5
2E2
330
2D2
100
AcDbEntity
  8
1
  6
Continuous
 62
     7
100
AcDbLine
 10
390.0
 20
571.9318516525782
 30
0.0
 11
391.0352761804101
 21
575.7955549577345
 31
0.0
  0
LINE
  5
2E3
330
2D2
100
AcDbEntity
  8
1
  6
Continuous
 62
     7
100
AcDbLine
 10
388.9647238195899
 20
575.7955549577345
 30
0.0
 11
391.0352761804101
 21
575.7955549577345
 31
0.0
  0
MTEXT
  5
2E4
330
2D2
100
AcDbEntity
  8
1
  6
Continuous
 62
     7
100
AcDbMText
 10
384.0000000000001
 20
637.5
 30
0.0
 40
12.0
 41
0.0
 71
     8
 72
     1
  1
135
 11
1.615544574432587E-15
 21
1.0
 31
0.0
 73
     1
 44
1.0
  0
ENDBLK
  5
2D4
330
2D2
100
AcDbEntity
  8
0
100
AcDbBlockEnd
  0
BLOCK
  5
4BB
330
4BA
100
AcDbEntity
  8
0
100
AcDbBlockBegin
  2
*G23
 70
     1
 71
     0
 10
0.0
 20
0.0
 30
0.0
  3
*G23
  1

  0
TEXT
  5
4BD
330
4BA
100
AcDbEntity
  8
1
  6
Continuous
 62
     7
100
AcDbText
 10
351.238226890564
 20
727.0470924377441
 30
0.0
 40
12.0
  1
AS-12200
 41
0.5
100
AcDbText
  0
CIRCLE
  5
4BE
330
4BA
100
AcDbEntity
  8
1
  6
Continuous
 62
     7
100
AcDbCircle
 10
470.4038058198796
 20
709.5961939753203
 30
0.0
 40
2.5
  0
CIRCLE
  5
4BF
330
4BA
100
AcDbEntity
  8
1
  6
Continuous
 62
     7
100
AcDbCircle
 10
470.4038058198796
 20
709.5961939753203
 30
0.0
 40
1.25
  0
POLYLINE
  5
4C0
330
4BA
100
AcDbEntity
  8
1
  6
Continuous
 62
     7
100
AcDb2dPolyline
 66
     1
 10
0.0
 20
0.0
 30
0.0
  0
VERTEX
  5
4C2
330
4C0
100
AcDbEntity
  8
1
  6
Continuous
 62
     7
100
AcDbVertex
100
AcDb2dVertex
 10
470.4038058198796
 20
709.5961939753203
 30
0.0
  0
VERTEX
  5
4C3
330
4C0
100
AcDbEntity
  8
1
  6
Continuous
 62
     7
100
AcDbVertex
100
AcDb2dVertex
 10
440.0
 20
740.0
 30
0.0
  0
VERTEX
  5
4C4
330
4C0
100
AcDbEntity
  8
1
  6
Continuous
 62
     7
100
AcDbVertex
100
AcDb2dVertex
 10
304.0
 20
740.0
 30
0.0
  0
SEQEND
  5
4C1
330
4C0
100
AcDbEntity
  8
1
  6
Continuous
  0
TEXT
  5
4C5
330
4BA
100
AcDbEntity
  8
1
  6
Continuous
 62
     7
100
AcDbText
 10
304.0
 20
740.4764537811279
 30
0.0
 40
12.0
  1
4-アスファルトアンカー
 41
0.9166666666666666
100
AcDbText
  0
ENDBLK
  5
4BC
330
4BA
100
AcDbEntity
  8
0
100
AcDbBlockEnd
  0
ENDSEC
  0
SECTION
  2
ENTITIES
  0
LINE
  5
85
330
1F
100
AcDbEntity
  8
1
  6
Continuous
 62
     7
100
AcDbLine
 10
420.0
 20
350.0
 30
0.0
 11
720.0
 21
350.0
 31
0.0
  0
LINE
  5
86
330
1F
100
AcDbEntity
  8
1
  6
Continuous
 62
     7
100
AcDbLine
 10
499.7487377105164
 20
350.0000000000001
 30
0.0
 11
499.7487377105166
 21
362.0000000000001
 31
0.0
  0
ARC
  5
87
330
1F
100
AcDbEntity
  8
1
  6
Continuous
 62
     7
100
AcDbCircle
 10
471.9999999999949
 20
315.9999999999902
 30
0.0
 40
5.000000000004897
100
AcDbArc
 50
53.13010235417774
 51
126.869897645732
  0
ARC
  5
88
330
1F
100
AcDbEntity
  8
1
  6
Continuous
 62
     7
100
AcDbCircle
 10
472.0000000000096
 20
324.0000000000098
 30
0.0
 40
5.000000000013742
100
AcDbArc
 50
233.1301023541336
 51
306.8698976456856
  0
ARC
  5
89
330
1F
100
AcDbEntity
  8
1
  6
Continuous
 62
     7
100
AcDbCircle
 10
477.9999999999992
 20
323.9999999999998
 30
0.0
 40
4.999999999999568
100
AcDbArc
 50
233.13010235416
 51
306.8698976458504
  0
LINE
  5
8A
330
1F
100
AcDbEntity
  8
1
  6
Continuous
 62
     7
100
AcDbLine
 10
468.9999999999998
 20
349.9999999999998
 30
0.0
 11
468.9999999999998
 21
320.0
 31
0.0
  0
LINE
  5
8B
330
1F
100
AcDbEntity
  8
1
  6
Continuous
 62
     7
100
AcDbLine
 10
480.9999999999998
 20
320.0000000000005
 30
0.0
 11
480.9999999999998
 21
349.9999999999998
 31
0.0
  0
LINE
  5
8C
330
1F
100
AcDbEntity
  8
1
  6
Continuous
 62
     7
100
AcDbLine
 10
1020.0
 20
350.0
 30
0.0
 11
720.0
 21
350.0
 31
0.0
  0
LINE
  5
8D
330
1F
100
AcDbEntity
  8
1
  6
Continuous
 62
     7
100
AcDbLine
 10
940.2512622894835
 20
350.0000000000001
 30
0.0
 11
940.2512622894834
 21
362.0000000000001
 31
0.0
  0
ARC
  5
8E
330
1F
100
AcDbEntity
  8
1
  6
Continuous
 62
     7
100
AcDbCircle
 10
968.000000000005
 20
315.9999999999902
 30
0.0
 40
5.000000000004897
100
AcDbArc
 50
53.13010235426697
 51
126.8698976458217
  0
ARC
  5
8F
330
1F
100
AcDbEntity
  8
1
  6
Continuous
 62
     7
100
AcDbCircle
 10
967.9999999999905
 20
324.0000000000098
 30
0.0
 40
5.000000000013742
100
AcDbArc
 50
233.1301023543131
 51
306.8698976458657
  0
ARC
  5
90
330
1F
100
AcDbEntity
  8
1
  6
Continuous
 62
     7
100
AcDbCircle
 10
962.0000000000009
 20
323.9999999999998
 30
0.0
 40
4.999999999999568
100
AcDbArc
 50
233.1301023541467
 51
306.8698976458383
  0
LINE
  5
91
330
1F
100
AcDbEntity
  8
1
  6
Continuous
 62
     7
100
AcDbLine
 10
971.0000000000002
 20
349.9999999999998
 30
0.0
 11
971.0000000000002
 21
320.0
 31
0.0
  0
LINE
  5
92
330
1F
100
AcDbEntity
  8
1
  6
Continuous
 62
     7
100
AcDbLine
 10
959.0000000000002
 20
320.0000000000005
 30
0.0
 11
959.0000000000002
 21
349.9999999999998
 31
0.0
  0
CIRCLE
  5
93
330
1F
100
AcDbEntity
  8
1
  6
Continuous
 62
     7
100
AcDbCircle
 10
522.5
 20
393.0
 30
0.0
 40
20.0
  0
CIRCLE
  5
94
330
1F
100
AcDbEntity
  8
1
  6
Continuous
 62
     7
100
AcDbCircle
 10
522.5
 20
393.0
 30
0.0
 40
25.0
  0
CIRCLE
  5
95
330
1F
100
AcDbEntity
  8
1
  6
Continuous
 62
     7
100
AcDbCircle
 10
917.5000000000001
 20
393.0
 30
0.0
 40
20.0
  0
CIRCLE
  5
96
330
1F
100
AcDbEntity
  8
1
  6
Continuous
 62
     7
100
AcDbCircle
 10
917.5000000000001
 20
393.0
 30
0.0
 40
25.0
  0
INSERT
  5
F6
330
1F
100
AcDbEntity
  8
0
100
AcDbBlockReference
  2
*G12
 10
0.0
 20
0.0
 30
0.0
  0
INSERT
  5
156
330
1F
100
AcDbEntity
  8
0
100
AcDbBlockReference
  2
*G13
 10
0.0
 20
0.0
 30
0.0
  0
ARC
  5
157
330
1F
100
AcDbEntity
  8
1
  6
Continuous
 62
     7
100
AcDbCircle
 10
447.0453068857516
 20
417.0
 30
0.0
 40
15.0
100
AcDbArc
 50
90.00000000000064
 51
170.0000000000015
  0
LINE
  5
158
330
1F
100
AcDbEntity
  8
1
  6
Continuous
 62
     7
100
AcDbLine
 10
992.9546931142484
 20
432.0
 30
0.0
 11
447.0453068857514
 21
432.0
 31
0.0
  0
ARC
  5
159
330
1F
100
AcDbEntity
  8
1
  6
Continuous
 62
     7
100
AcDbCircle
 10
992.9546931142484
 20
417.0
 30
0.0
 40
15.0
100
AcDbArc
 50
9.999999999998533
 51
89.99999999999991
  0
LINE
  5
15A
330
1F
100
AcDbEntity
  8
1
  6
Continuous
 62
     7
100
AcDbLine
 10
420.0
 20
350.0
 30
0.0
 11
432.2731917124837
 21
419.6047290277011
 31
0.0
  0
LINE
  5
15B
330
1F
100
AcDbEntity
  8
1
  6
Continuous
 62
     7
100
AcDbLine
 10
1020.0
 20
350.0
 30
0.0
 11
1007.72680702949
 21
419.6047361623232
 31
0.0
  0
LINE
  5
15C
330
1F
100
AcDbEntity
  8
1
  6
Continuous
 62
     7
100
AcDbLine
 10
436.301126960727
 20
349.9999999999999
 30
0.0
 11
435.2512629598419
 21
362.0000000000001
 31
0.0
  0
LINE
  5
15D
330
1F
100
AcDbEntity
  8
1
  6
Continuous
 62
     7
100
AcDbLine
 10
720.0
 20
362.0
 30
0.0
 11
435.2512629598419
 21
362.0000000000001
 31
0.0
  0
LINE
  5
15E
330
1F
100
AcDbEntity
  8
1
  6
Continuous
 62
     7
100
AcDbLine
 10
465.9999999999998
 20
362.0000000000001
 30
0.0
 11
465.9999999999998
 21
364.5000000000001
 31
0.0
  0
LINE
  5
15F
330
1F
100
AcDbEntity
  8
1
  6
Continuous
 62
     7
100
AcDbLine
 10
465.9999999999998
 20
364.5000000000001
 30
0.0
 11
468.4999999999998
 21
367.0000000000001
 31
0.0
  0
LINE
  5
160
330
1F
100
AcDbEntity
  8
1
  6
Continuous
 62
     7
100
AcDbLine
 10
468.4999999999998
 20
367.0000000000001
 30
0.0
 11
481.4999999999998
 21
367.0000000000001
 31
0.0
  0
LINE
  5
161
330
1F
100
AcDbEntity
  8
1
  6
Continuous
 62
     7
100
AcDbLine
 10
483.9999999999998
 20
362.0000000000001
 30
0.0
 11
483.9999999999998
 21
364.5000000000001
 31
0.0
  0
LINE
  5
162
330
1F
100
AcDbEntity
  8
1
  6
Continuous
 62
     7
100
AcDbLine
 10
481.4999999999998
 20
367.0000000000001
 30
0.0
 11
483.9999999999998
 21
364.5000000000001
 31
0.0
  0
LINE
  5
163
330
1F
100
AcDbEntity
  8
1
  6
Continuous
 62
     7
100
AcDbLine
 10
465.9999999999998
 20
364.5000000000001
 30
0.0
 11
483.9999999999998
 21
364.5000000000001
 31
0.0
  0
LINE
  5
164
330
1F
100
AcDbEntity
  8
1
  6
Continuous
 62
     7
100
AcDbLine
 10
720.0
 20
362.0
 30
0.0
 11
1004.748737040158
 21
362.0000000000001
 31
0.0
  0
LINE
  5
165
330
1F
100
AcDbEntity
  8
1
  6
Continuous
 62
     7
100
AcDbLine
 10
1003.698873039273
 20
349.9999999999999
 30
0.0
 11
1004.748737040158
 21
362.0000000000001
 31
0.0
  0
LINE
  5
166
330
1F
100
AcDbEntity
  8
1
  6
Continuous
 62
     7
100
AcDbLine
 10
974.0000000000002
 20
362.0
 30
0.0
 11
974.0000000000002
 21
364.5
 31
0.0
  0
LINE
  5
167
330
1F
100
AcDbEntity
  8
1
  6
Continuous
 62
     7
100
AcDbLine
 10
974.0000000000002
 20
364.5
 30
0.0
 11
971.5000000000002
 21
367.0
 31
0.0
  0
LINE
  5
168
330
1F
100
AcDbEntity
  8
1
  6
Continuous
 62
     7
100
AcDbLine
 10
971.5000000000002
 20
367.0
 30
0.0
 11
958.5000000000002
 21
367.0
 31
0.0
  0
LINE
  5
169
330
1F
100
AcDbEntity
  8
1
  6
Continuous
 62
     7
100
AcDbLine
 10
956.0000000000002
 20
362.0
 30
0.0
 11
956.0000000000002
 21
364.5
 31
0.0
  0
LINE
  5
16A
330
1F
100
AcDbEntity
  8
1
  6
Continuous
 62
     7
100
AcDbLine
 10
958.5000000000002
 20
367.0
 30
0.0
 11
956.0000000000002
 21
364.5
 31
0.0
  0
LINE
  5
16B
330
1F
100
AcDbEntity
  8
1
  6
Continuous
 62
     7
100
AcDbLine
 10
974.0000000000002
 20
364.5
 30
0.0
 11
956.0000000000002
 21
364.5
 31
0.0
  0
LINE
  5
16C
330
1F
100
AcDbEntity
  8
1
  6
Continuous
 62
     7
100
AcDbLine
 10
190.0
 20
350.0
 30
0.0
 11
105.0
 21
350.0
 31
0.0
  0
LINE
  5
16D
330
1F
100
AcDbEntity
  8
1
  6
Continuous
 62
     7
100
AcDbLine
 10
190.0
 20
350.0
 30
0.0
 11
275.0
 21
350.0
 31
0.0
  0
LINE
  5
16E
330
1F
100
AcDbEntity
  8
1
  6
Continuous
 62
     7
100
AcDbLine
 10
239.8628155345481
 20
415.090594843565
 30
0.0
 11
243.6976682454858
 21
371.2580281301564
 31
0.0
  0
ARC
  5
16F
330
1F
100
AcDbEntity
  8
1
  6
Continuous
 62
     7
100
AcDbCircle
 10
43.53749698164714
 20
375.8303185442002
 30
0.0
 40
199.9999999999998
100
AcDbArc
 50
359.5212030716534
 51
10.47879700688883
  0
ARC
  5
170
330
1F
100
AcDbEntity
  8
1
  6
Continuous
 62
     7
100
AcDbCircle
 10
242.5305486906305
 20
374.1673779121331
 30
0.0
 40
1.0
100
AcDbArc
 50
340.3828918300389
 51
359.5212030717262
  0
ARC
  5
171
330
1F
100
AcDbEntity
  8
1
  6
Continuous
 62
     7
100
AcDbCircle
 10
240.7090841513897
 20
370.9965608998653
 30
0.0
 40
3.0
100
AcDbArc
 50
294.4712206737817
 51
5.000000039266619
  0
ARC
  5
172
330
1F
100
AcDbEntity
  8
1
  6
Continuous
 62
     7
100
AcDbCircle
 10
239.2186304402732
 20
412.0227764373488
 30
0.0
 40
1.0
100
AcDbArc
 50
10.47879700688979
 51
29.61710824024194
  0
ARC
  5
173
330
1F
100
AcDbEntity
  8
1
  6
Continuous
 62
     7
100
AcDbCircle
 10
236.8742314404521
 20
414.8291276132739
 30
0.0
 40
3.0
100
AcDbArc
 50
5.000000039266619
 51
75.52877940475862
  0
ARC
  5
174
330
1F
100
AcDbEntity
  8
1
  6
Continuous
 62
     7
100
AcDbCircle
 10
157.3691730112971
 20
417.0
 30
0.0
 40
15.0
100
AcDbArc
 50
89.99999999999991
 51
174.9999999607319
  0
LINE
  5
175
330
1F
100
AcDbEntity
  8
1
  6
Continuous
 62
     7
100
AcDbLine
 10
157.3691730112971
 20
432.0
 30
0.0
 11
222.6308269887029
 21
432.0
 31
0.0
  0
ARC
  5
176
330
1F
100
AcDbEntity
  8
1
  6
Continuous
 62
     7
100
AcDbCircle
 10
222.6308269887029
 20
417.0
 30
0.0
 40
15.0
100
AcDbArc
 50
5.000000039268133
 51
89.99999999999991
  0
LINE
  5
177
330
1F
100
AcDbEntity
  8
1
  6
Continuous
 62
     7
100
AcDbLine
 10
142.4262525408169
 20
418.3073361514561
 30
0.0
 11
136.4501349527805
 21
350.000000091941
 31
0.0
  0
LINE
  5
178
330
1F
100
AcDbEntity
  8
1
  6
Continuous
 62
     7
100
AcDbLine
 10
237.5737469005792
 20
418.3073425363282
 30
0.0
 11
243.5498650472195
 21
350.000000091941
 31
0.0
  0
LINE
  5
179
330
1F
100
AcDbEntity
  8
1
  6
DOT
 62
     7
100
AcDbLine
 10
122.5
 20
362.0
 30
0.0
 11
122.5
 21
350.0
 31
0.0
  0
LINE
  5
17A
330
1F
100
AcDbEntity
  8
1
  6
DOT
 62
     7
100
AcDbLine
 10
257.5
 20
362.0
 30
0.0
 11
257.5
 21
350.0
 31
0.0
  0
DIMENSION
  5
18E
330
1F
100
AcDbEntity
  8
1
  6
Continuous
 62
     7
100
AcDbDimension
  2
Dim1
 10
122.5
 20
290.0
 30
0.0
 11
190.0
 21
296.0
 31
0.0
 70
   160
  1
<>
 71
     5
 42
-1.0
  3
Standard
100
AcDbAlignedDimension
 13
122.5
 23
350.0
 33
0.0
 14
257.5
 24
350.0
 34
0.0
100
AcDbRotatedDimension
1001
ACAD
1000
DSTYLE
1002
{
1070
   344
1005
0
1070
   343
1005
0
1070
   173
1070
     1
1070
   289
1070
     2
1070
   279
1070
     2
1070
   288
1070
     1
1070
    77
1070
     3
1070
   172
1070
     1
1070
   174
1070
     0
1070
    74
1070
     0
1070
    73
1070
     0
1070
   284
1070
     8
1070
    78
1070
     8
1070
   140
1040
4.0
1070
    40
1040
1.0
1070
    42
1040
2.0
1070
    44
1040
2.0
1070
    43
1040
10.0
1070
   271
1070
     2
1070
    41
1040
4.0
1002
}
  0
DIMENSION
  5
1A0
330
1F
100
AcDbEntity
  8
1
  6
Continuous
 62
     7
100
AcDbDimension
  2
Dim2
 10
251.5
 20
250.0
 30
0.0
 11
227.0
 21
256.0
 31
0.0
 70
   160
  1
<>
 71
     5
 42
-1.0
  3
Standard
100
AcDbAlignedDimension
 13
251.5
 23
249.7028091249651
 33
0.0
 14
263.5
 24
249.047550869801
 34
0.0
100
AcDbRotatedDimension
1001
ACAD
1000
DSTYLE
1002
{
1070
   344
1005
0
1070
   343
1005
0
1070
   173
1070
     1
1070
   289
1070
     2
1070
   279
1070
     2
1070
   288
1070
     1
1070
    77
1070
     3
1070
   172
1070
     1
1070
   174
1070
     0
1070
    74
1070
     0
1070
    73
1070
     0
1070
   284
1070
     8
1070
    78
1070
     8
1070
   140
1040
4.0
1070
    40
1040
1.0
1070
    42
1040
2.0
1070
    44
1040
2.0
1070
    43
1040
10.0
1070
   271
1070
     2
1070
    41
1040
4.0
1002
}
  0
ARC
  5
1A1
330
1F
100
AcDbEntity
  8
1
  6
Continuous
 62
     7
100
AcDbCircle
 10
245.2489946048261
 20
365.0
 30
0.0
 40
3.0
100
AcDbArc
 50
185.0000000392673
 51
269.9999999999998
  0
ARC
  5
1A2
330
1F
100
AcDbEntity
  8
1
  6
Continuous
 62
     7
100
AcDbCircle
 10
134.751005395174
 20
365.0
 30
0.0
 40
3.0
100
AcDbArc
 50
269.9999999999998
 51
354.9999999607319
  0
LINE
  5
1A3
330
1F
100
AcDbEntity
  8
1
  6
Continuous
 62
     7
100
AcDbLine
 10
105.0
 20
362.0
 30
0.0
 11
105.0
 21
350.0
 31
0.0
  0
LINE
  5
1A4
330
1F
100
AcDbEntity
  8
1
  6
Continuous
 62
     7
100
AcDbLine
 10
134.751005395174
 20
362.0
 30
0.0
 11
105.0
 21
362.0
 31
0.0
  0
LINE
  5
1A5
330
1F
100
AcDbEntity
  8
1
  6
Continuous
 62
     7
100
AcDbLine
 10
245.2489946048261
 20
362.0
 30
0.0
 11
275.0
 21
362.0
 31
0.0
  0
LINE
  5
1A6
330
1F
100
AcDbEntity
  8
1
  6
Continuous
 62
     7
100
AcDbLine
 10
275.0
 20
362.0
 30
0.0
 11
275.0
 21
350.0
 31
0.0
  0
LINE
  5
1A7
330
1F
100
AcDbEntity
  8
1
  6
Continuous
 62
     7
100
AcDbLine
 10
131.5000000000001
 20
361.9999999999999
 30
0.0
 11
113.5000000000001
 21
361.9999999999999
 31
0.0
  0
LINE
  5
1A8
330
1F
100
AcDbEntity
  8
1
  6
Continuous
 62
     7
100
AcDbLine
 10
113.5000000000001
 20
361.9999999999999
 30
0.0
 11
113.5000000000001
 21
364.4999999999999
 31
0.0
  0
LINE
  5
1A9
330
1F
100
AcDbEntity
  8
1
  6
Continuous
 62
     7
100
AcDbLine
 10
113.5000000000001
 20
364.4999999999999
 30
0.0
 11
116.0000000000001
 21
366.9999999999999
 31
0.0
  0
LINE
  5
1AA
330
1F
100
AcDbEntity
  8
1
  6
Continuous
 62
     7
100
AcDbLine
 10
116.0000000000001
 20
366.9999999999999
 30
0.0
 11
129.0000000000001
 21
366.9999999999999
 31
0.0
  0
LINE
  5
1AB
330
1F
100
AcDbEntity
  8
1
  6
Continuous
 62
     7
100
AcDbLine
 10
131.5000000000001
 20
361.9999999999999
 30
0.0
 11
131.5000000000001
 21
364.4999999999999
 31
0.0
  0
LINE
  5
1AC
330
1F
100
AcDbEntity
  8
1
  6
Continuous
 62
     7
100
AcDbLine
 10
129.0000000000001
 20
366.9999999999999
 30
0.0
 11
131.5000000000001
 21
364.4999999999999
 31
0.0
  0
LINE
  5
1AD
330
1F
100
AcDbEntity
  8
1
  6
Continuous
 62
     7
100
AcDbLine
 10
113.5000000000001
 20
364.4999999999999
 30
0.0
 11
131.5000000000001
 21
364.4999999999999
 31
0.0
  0
LINE
  5
1AE
330
1F
100
AcDbEntity
  8
1
  6
DOT
 62
     7
100
AcDbLine
 10
116.5000000000001
 20
361.9999999999999
 30
0.0
 11
116.5
 21
350.0
 31
0.0
  0
LINE
  5
1AF
330
1F
100
AcDbEntity
  8
1
  6
DOT
 62
     7
100
AcDbLine
 10
128.5000000000001
 20
350.0
 30
0.0
 11
128.5000000000001
 21
361.9999999999999
 31
0.0
  0
LINE
  5
1B0
330
1F
100
AcDbEntity
  8
1
  6
Continuous
 62
     7
100
AcDbLine
 10
248.5
 20
361.9999999999999
 30
0.0
 11
266.5
 21
361.9999999999999
 31
0.0
  0
LINE
  5
1B1
330
1F
100
AcDbEntity
  8
1
  6
Continuous
 62
     7
100
AcDbLine
 10
266.5
 20
361.9999999999999
 30
0.0
 11
266.5
 21
364.4999999999999
 31
0.0
  0
LINE
  5
1B2
330
1F
100
AcDbEntity
  8
1
  6
Continuous
 62
     7
100
AcDbLine
 10
266.5
 20
364.4999999999999
 30
0.0
 11
264.0
 21
366.9999999999999
 31
0.0
  0
LINE
  5
1B3
330
1F
100
AcDbEntity
  8
1
  6
Continuous
 62
     7
100
AcDbLine
 10
264.0
 20
366.9999999999999
 30
0.0
 11
251.0
 21
366.9999999999999
 31
0.0
  0
LINE
  5
1B4
330
1F
100
AcDbEntity
  8
1
  6
Continuous
 62
     7
100
AcDbLine
 10
248.5
 20
361.9999999999999
 30
0.0
 11
248.5
 21
364.4999999999999
 31
0.0
  0
LINE
  5
1B5
330
1F
100
AcDbEntity
  8
1
  6
Continuous
 62
     7
100
AcDbLine
 10
251.0
 20
366.9999999999999
 30
0.0
 11
248.5
 21
364.4999999999999
 31
0.0
  0
LINE
  5
1B6
330
1F
100
AcDbEntity
  8
1
  6
Continuous
 62
     7
100
AcDbLine
 10
266.5
 20
364.4999999999999
 30
0.0
 11
248.5
 21
364.4999999999999
 31
0.0
  0
LINE
  5
1B7
330
1F
100
AcDbEntity
  8
1
  6
DOT
 62
     7
100
AcDbLine
 10
263.5
 20
361.9999999999999
 30
0.0
 11
263.5
 21
350.0
 31
0.0
  0
LINE
  5
1B8
330
1F
100
AcDbEntity
  8
1
  6
DOT
 62
     7
100
AcDbLine
 10
251.5
 20
350.0
 30
0.0
 11
251.5
 21
361.9999999999999
 31
0.0
  0
LINE
  5
1B9
330
1F
100
AcDbEntity
  8
1
  6
Continuous
 62
     7
100
AcDbLine
 10
122.5000000000006
 20
162.0000000000002
 30
0.0
 11
116.5000000000001
 21
184.3923048454138
 31
0.0
  0
LINE
  5
1BA
330
1F
100
AcDbEntity
  8
1
  6
Continuous
 62
     7
100
AcDbLine
 10
122.5000000000001
 20
161.9999999999998
 30
0.0
 11
128.5000000000001
 21
184.3923048454114
 31
0.0
  0
LINE
  5
1BB
330
1F
100
AcDbEntity
  8
1
  6
Continuous
 62
     7
100
AcDbLine
 10
116.5000000000001
 20
184.392304845413
 30
0.0
 11
128.5000000000001
 21
184.3923048454112
 31
0.0
  0
LINE
  5
1BC
330
1F
100
AcDbEntity
  8
1
  6
Continuous
 62
     7
100
AcDbLine
 10
116.5000000000001
 20
350.0
 30
0.0
 11
116.5000000000001
 21
184.3923048454138
 31
0.0
  0
LINE
  5
1BD
330
1F
100
AcDbEntity
  8
1
  6
Continuous
 62
     7
100
AcDbLine
 10
128.5000000000001
 20
184.3923048454114
 30
0.0
 11
128.5000000000001
 21
350.0
 31
0.0
  0
LINE
  5
1BE
330
1F
100
AcDbEntity
  8
1
  6
Continuous
 62
     7
100
AcDbLine
 10
257.4999999999994
 20
162.0000000000002
 30
0.0
 11
263.5
 21
184.3923048454138
 31
0.0
  0
LINE
  5
1BF
330
1F
100
AcDbEntity
  8
1
  6
Continuous
 62
     7
100
AcDbLine
 10
257.5
 20
161.9999999999999
 30
0.0
 11
251.5
 21
184.3923048454114
 31
0.0
  0
LINE
  5
1C0
330
1F
100
AcDbEntity
  8
1
  6
Continuous
 62
     7
100
AcDbLine
 10
263.5
 20
184.392304845413
 30
0.0
 11
251.5
 21
184.3923048454112
 31
0.0
  0
LINE
  5
1C1
330
1F
100
AcDbEntity
  8
1
  6
Continuous
 62
     7
100
AcDbLine
 10
263.5
 20
350.0
 30
0.0
 11
263.5
 21
184.3923048454138
 31
0.0
  0
LINE
  5
1C2
330
1F
100
AcDbEntity
  8
1
  6
Continuous
 62
     7
100
AcDbLine
 10
251.5
 20
184.3923048454114
 30
0.0
 11
251.5
 21
350.0
 31
0.0
  0
DIMENSION
  5
1D6
330
1F
100
AcDbEntity
  8
1
  6
Continuous
 62
     7
100
AcDbDimension
  2
Dim3
 10
340.0
 20
362.0
 30
0.0
 11
334.0
 21
261.9999999999996
 31
0.0
 70
   160
  1
<>
 71
     5
 42
-1.0
  3
Standard
100
AcDbAlignedDimension
 13
275.0000000000002
 23
362.0
 33
0.0
 14
257.5
 24
161.9999999999992
 34
0.0
 50
90.0
100
AcDbRotatedDimension
1001
ACAD
1000
DSTYLE
1002
{
1070
   344
1005
0
1070
   343
1005
0
1070
   173
1070
     1
1070
   289
1070
     2
1070
   279
1070
     2
1070
   288
1070
     1
1070
    77
1070
     3
1070
   172
1070
     1
1070
   174
1070
     0
1070
    74
1070
     0
1070
    73
1070
     0
1070
   284
1070
     8
1070
    78
1070
     8
1070
   140
1040
4.0
1070
    40
1040
1.0
1070
    42
1040
2.0
1070
    44
1040
2.0
1070
    43
1040
10.0
1070
   271
1070
     2
1070
    41
1040
4.0
1002
}
  0
DIMENSION
  5
1EA
330
1F
100
AcDbEntity
  8
1
  6
Continuous
 62
     7
100
AcDbDimension
  2
Dim4
 10
310.0
 20
349.9999999999999
 30
0.0
 11
304.0
 21
256.0000000000002
 31
0.0
 70
   160
  1
<>
 71
     5
 42
-1.0
  3
Standard
100
AcDbAlignedDimension
 13
275.0000000000002
 23
349.9999999999999
 33
0.0
 14
257.4999999999997
 24
162.0000000000005
 34
0.0
 50
90.0
100
AcDbRotatedDimension
1001
ACAD
1000
DSTYLE
1002
{
1070
   344
1005
0
1070
   343
1005
0
1070
   173
1070
     1
1070
   289
1070
     2
1070
   279
1070
     2
1070
   288
1070
     1
1070
    77
1070
     3
1070
   172
1070
     1
1070
   174
1070
     0
1070
    74
1070
     0
1070
    73
1070
     0
1070
   284
1070
     8
1070
    78
1070
     8
1070
   140
1040
4.0
1070
    40
1040
1.0
1070
    42
1040
2.0
1070
    44
1040
2.0
1070
    43
1040
10.0
1070
   271
1070
     2
1070
    41
1040
4.0
1002
}
  0
DIMENSION
  5
1FE
330
1F
100
AcDbEntity
  8
1
  6
Continuous
 62
     7
100
AcDbDimension
  2
Dim5
 10
310.0
 20
361.9999999999999
 30
0.0
 11
304.0
 21
355.9999999999999
 31
0.0
 70
   160
  1
<>
 71
     5
 42
-1.0
  3
Standard
100
AcDbAlignedDimension
 13
275.0000000000002
 23
361.9999999999999
 33
0.0
 14
275.0000000000002
 24
350.0
 34
0.0
 50
90.0
100
AcDbRotatedDimension
1001
ACAD
1000
DSTYLE
1002
{
1070
   344
1005
0
1070
   343
1005
0
1070
   173
1070
     1
1070
   289
1070
     2
1070
   279
1070
     2
1070
   288
1070
     1
1070
    77
1070
     3
1070
   172
1070
     1
1070
   174
1070
     0
1070
    74
1070
     0
1070
    73
1070
     0
1070
   284
1070
     8
1070
    78
1070
     8
1070
   140
1040
4.0
1070
    40
1040
1.0
1070
    42
1040
4.0
1070
    44
1040
4.0
1070
    43
1040
10.0
1070
   271
1070
     2
1070
    41
1040
4.0
1002
}
  0
DIMENSION
  5
212
330
1F
100
AcDbEntity
  8
1
  6
Continuous
 62
     7
100
AcDbDimension
  2
Dim6
 10
390.0
 20
432.0
 30
0.0
 11
384.0000000000001
 21
391.0
 31
0.0
 70
   160
  1
<>
 71
     5
 42
-1.0
  3
Standard
100
AcDbAlignedDimension
 13
451.0453068857516
 23
432.0
 33
0.0
 14
420.0
 24
350.0
 34
0.0
 50
89.9999999999999
100
AcDbRotatedDimension
1001
ACAD
1000
DSTYLE
1002
{
1070
   344
1005
0
1070
   343
1005
0
1070
   173
1070
     1
1070
   289
1070
     2
1070
   279
1070
     2
1070
   288
1070
     1
1070
    77
1070
     3
1070
   172
1070
     1
1070
   174
1070
     0
1070
    74
1070
     0
1070
    73
1070
     0
1070
   284
1070
     8
1070
    78
1070
     8
1070
   140
1040
4.0
1070
    40
1040
1.0
1070
    42
1040
4.0
1070
    44
1040
4.0
1070
    43
1040
10.0
1070
   271
1070
     2
1070
    41
1040
4.0
1002
}
  0
LINE
  5
213
330
1F
100
AcDbEntity
  8
1
  6
Continuous
 62
     7
100
AcDbLine
 10
10.0
 20
790.0
 30
0.0
 11
10.0
 21
10.0
 31
0.0
  0
LINE
  5
214
330
1F
100
AcDbEntity
  8
1
  6
Continuous
 62
     7
100
AcDbLine
 10
310.0
 20
70.0
 30
0.0
 11
310.0
 21
10.0
 31
0.0
  0
LINE
  5
215
330
1F
100
AcDbEntity
  8
1
  6
Continuous
 62
     7
100
AcDbLine
 10
350.0
 20
70.0
 30
0.0
 11
350.0
 21
10.0
 31
0.0
  0
LINE
  5
216
330
1F
100
AcDbEntity
  8
1
  6
Continuous
 62
     7
100
AcDbLine
 10
390.0
 20
70.0
 30
0.0
 11
390.0
 21
10.0
 31
0.0
  0
LINE
  5
217
330
1F
100
AcDbEntity
  8
1
  6
Continuous
 62
     7
100
AcDbLine
 10
1135.0
 20
10.0
 30
0.0
 11
10.0
 21
10.0
 31
0.0
  0
LINE
  5
218
330
1F
100
AcDbEntity
  8
1
  6
Continuous
 62
     7
100
AcDbLine
 10
10.0
 20
790.0
 30
0.0
 11
1135.0
 21
790.0
 31
0.0
  0
LINE
  5
219
330
1F
100
AcDbEntity
  8
1
  6
Continuous
 62
     7
100
AcDbLine
 10
1135.0
 20
790.0
 30
0.0
 11
1135.0
 21
10.0
 31
0.0
  0
LINE
  5
21A
330
1F
100
AcDbEntity
  8
1
  6
Continuous
 62
     7
100
AcDbLine
 10
10.0
 20
70.0
 30
0.0
 11
1135.0
 21
70.0
 31
0.0
  0
LINE
  5
21B
330
1F
100
AcDbEntity
  8
1
  6
Continuous
 62
     7
100
AcDbLine
 10
630.0
 20
70.0
 30
0.0
 11
630.0
 21
10.0
 31
0.0
  0
LINE
  5
21C
330
1F
100
AcDbEntity
  8
1
  6
Continuous
 62
     7
100
AcDbLine
 10
710.0
 20
70.0
 30
0.0
 11
710.0
 21
10.0
 31
0.0
  0
LINE
  5
21D
330
1F
100
AcDbEntity
  8
1
  6
Continuous
 62
     7
100
AcDbLine
 10
790.0
 20
70.0
 30
0.0
 11
790.0
 21
10.0
 31
0.0
  0
LINE
  5
21E
330
1F
100
AcDbEntity
  8
1
  6
Continuous
 62
     7
100
AcDbLine
 10
350.0
 20
55.0
 30
0.0
 11
630.0
 21
55.0
 31
0.0
  0
LINE
  5
21F
330
1F
100
AcDbEntity
  8
1
  6
Continuous
 62
     7
100
AcDbLine
 10
350.0
 20
40.0
 30
0.0
 11
630.0
 21
40.0
 31
0.0
  0
LINE
  5
220
330
1F
100
AcDbEntity
  8
1
  6
Continuous
 62
     7
100
AcDbLine
 10
350.0
 20
25.0
 30
0.0
 11
630.0
 21
25.0
 31
0.0
  0
LINE
  5
221
330
1F
100
AcDbEntity
  8
1
  6
Continuous
 62
     7
100
AcDbLine
 10
630.0
 20
40.0
 30
0.0
 11
790.0
 21
40.0
 31
0.0
  0
LINE
  5
222
330
1F
100
AcDbEntity
  8
1
  6
Continuous
 62
     7
100
AcDbLine
 10
795.0
 20
40.0
 30
0.0
 11
1130.0
 21
40.0
 31
0.0
  0
TEXT
  5
223
330
1F
100
AcDbEntity
  8
1
  6
Continuous
 62
     7
100
AcDbText
 10
318.0
 20
36.0
 30
0.0
 40
8.0
  1
記　事
100
AcDbText
  0
TEXT
  5
224
330
1F
100
AcDbEntity
  8
1
  6
Continuous
 62
     7
100
AcDbText
 10
632.0
 20
60.0
 30
0.0
 40
8.0
  1
設計NO.
 41
0.7
100
AcDbText
  0
TEXT
  5
225
330
1F
100
AcDbEntity
  8
1
  6
Continuous
 62
     7
100
AcDbText
 10
712.0
 20
60.0
 30
0.0
 40
8.0
  1
日　付
100
AcDbText
  0
TEXT
  5
226
330
1F
100
AcDbEntity
  8
1
  6
Continuous
 62
     7
100
AcDbText
 10
712.0
 20
30.0
 30
0.0
 40
8.0
  1
縮　尺
100
AcDbText
  0
TEXT
  5
227
330
1F
100
AcDbEntity
  8
1
  6
Continuous
 62
     7
100
AcDbText
 10
632.0
 20
30.0
 30
0.0
 40
8.0
  1
担　当
100
AcDbText
  0
TEXT
  5
228
330
1F
100
AcDbEntity
  8
1
  6
Continuous
 62
     7
100
AcDbText
 10
792.0
 20
60.0
 30
0.0
 40
8.0
  1
名　称
100
AcDbText
  0
TEXT
  5
229
330
1F
100
AcDbEntity
  8
1
  6
Continuous
 62
     7
100
AcDbText
 10
860.4999999999998
 20
14.29541715135201
 30
0.0
 40
12.0
  1
アスファルトアンカー工法（Ａ工法）
100
AcDbText
  0
TEXT
  5
22A
330
1F
100
AcDbEntity
  8
1
  6
Continuous
 62
     7
100
AcDbText
 10
723.0
 20
14.29541715135201
 30
0.0
 40
12.0
  1
A4  S=1/4
 41
0.5
100
AcDbText
  0
TEXT
  5
22B
330
1F
100
AcDbEntity
  8
1
  6
Continuous
 62
     7
100
AcDbText
 10
60.0
 20
30.0
 30
0.0
 40
20.0
  1
株式会社アフロディテ
100
AcDbText
  0
TEXT
  5
22C
330
1F
100
AcDbEntity
  8
1
  6
Continuous
 62
     7
100
AcDbText
 10
842.4889571195497
 20
44.52050704411163
 30
0.0
 40
12.0
  1
駐車場車止め　プラストップ・ＬＯＷタイプ
 50
-0.1074675309135864
100
AcDbText
  0
TEXT
  5
22D
330
1F
100
AcDbEntity
  8
1
  6
Continuous
 62
     7
100
AcDbText
 10
649.0000000000002
 20
44.0
 30
0.0
 40
12.0
  1
PL-ＸNA
 41
0.5833333333333334
100
AcDbText
  0
DIMENSION
  5
241
330
1F
100
AcDbEntity
  8
1
  6
Continuous
 62
     7
100
AcDbDimension
  2
Dim7
 10
420.0000000000002
 20
460.0
 30
0.0
 11
720.0000000000002
 21
466.0
 31
0.0
 70
   160
  1
<>
 71
     5
 42
-1.0
  3
Standard
100
AcDbAlignedDimension
 13
420.0
 23
350.0
 33
0.0
 14
1020.0
 24
349.9999999999976
 34
0.0
100
AcDbRotatedDimension
1001
ACAD
1000
DSTYLE
1002
{
1070
   344
1005
0
1070
   343
1005
0
1070
   173
1070
     1
1070
   289
1070
     2
1070
   279
1070
     2
1070
   288
1070
     1
1070
    77
1070
     3
1070
   172
1070
     1
1070
   174
1070
     0
1070
    74
1070
     0
1070
    73
1070
     0
1070
   284
1070
     8
1070
    78
1070
     8
1070
   140
1040
4.0
1070
    40
1040
1.0
1070
    42
1040
4.0
1070
    44
1040
4.0
1070
    43
1040
10.0
1070
   271
1070
     2
1070
    41
1040
4.0
1002
}
  0
TEXT
  5
242
330
1F
100
AcDbEntity
  8
1
  6
Continuous
 62
     7
100
AcDbText
 10
716.2666630864153
 20
442.5935778247189
 30
0.0
 40
8.0
  1
Ａ
100
AcDbText
  0
TEXT
  5
243
330
1F
100
AcDbEntity
  8
1
  6
Continuous
 62
     7
100
AcDbText
 10
716.2666630864153
 20
330.2370882213709
 30
0.0
 40
8.0
  1
Ｂ
100
AcDbText
  0
LINE
  5
244
330
1F
100
AcDbEntity
  8
1
  6
Continuous
 62
     7
100
AcDbLine
 10
720.0
 20
439.9639786935265
 30
0.0
 11
720.0
 21
339.4406851805441
 31
0.0
  0
LINE
  5
245
330
1F
100
AcDbEntity
  8
1
  6
Continuous
 62
     7
100
AcDbLine
 10
420.0
 20
676.0498650472196
 30
0.0
 11
420.0
 21
637.5
 31
0.0
  0
ARC
  5
246
330
1F
100
AcDbEntity
  8
1
  6
Continuous
 62
     7
100
AcDbCircle
 10
435.0
 20
676.0498650472196
 30
0.0
 40
15.0
100
AcDbArc
 50
89.99999999999991
 51
179.9999999999998
  0
ARC
  5
247
330
1F
100
AcDbEntity
  8
1
  6
Continuous
 62
     7
100
AcDbCircle
 10
475.0000001760495
 20
704.9999999999999
 30
0.0
 40
17.50000000000023
100
AcDbArc
 50
45.0
 51
135.0
  0
LINE
  5
248
330
1F
100
AcDbEntity
  8
1
  6
Continuous
 62
     7
100
AcDbLine
 10
436.3011269607393
 20
691.0498650472196
 30
0.0
 11
435.0
 21
691.0498650472196
 31
0.0
  0
CIRCLE
  5
249
330
1F
100
AcDbEntity
  8
1
  6
Continuous
 62
     7
100
AcDbCircle
 10
474.9999999999999
 20
705.0
 30
0.0
 40
9.0
  0
CIRCLE
  5
24A
330
1F
100
AcDbEntity
  8
1
  6
Continuous
 62
     7
100
AcDbCircle
 10
474.9999999999999
 20
705.0
 30
0.0
 40
6.5
  0
LINE
  5
24B
330
1F
100
AcDbEntity
  8
1
  6
Continuous
 62
     7
100
AcDbLine
 10
420.0
 20
598.9501349527804
 30
0.0
 11
420.0
 21
637.5
 31
0.0
  0
ARC
  5
24C
330
1F
100
AcDbEntity
  8
1
  6
Continuous
 62
     7
100
AcDbCircle
 10
435.0
 20
598.9501349527804
 30
0.0
 40
15.0
100
AcDbArc
 50
179.9999999999998
 51
269.9999999999998
  0
ARC
  5
24D
330
1F
100
AcDbEntity
  8
1
  6
Continuous
 62
     7
100
AcDbCircle
 10
475.0000001760495
 20
570.0000000000001
 30
0.0
 40
17.50000000000023
100
AcDbArc
 50
224.9999999999996
 51
314.9999999999997
  0
LINE
  5
24E
330
1F
100
AcDbEntity
  8
1
  6
Continuous
 62
     7
100
AcDbLine
 10
436.3011269607393
 20
583.9501349527804
 30
0.0
 11
435.0
 21
583.9501349527804
 31
0.0
  0
CIRCLE
  5
24F
330
1F
100
AcDbEntity
  8
1
  6
Continuous
 62
     7
100
AcDbCircle
 10
474.9999999999999
 20
570.0
 30
0.0
 40
9.0
  0
CIRCLE
  5
250
330
1F
100
AcDbEntity
  8
1
  6
Continuous
 62
     7
100
AcDbCircle
 10
474.9999999999999
 20
570.0
 30
0.0
 40
6.5
  0
LINE
  5
251
330
1F
100
AcDbEntity
  8
1
  6
Continuous
 62
     7
100
AcDbLine
 10
1020.0
 20
676.0498650472196
 30
0.0
 11
1020.0
 21
637.5
 31
0.0
  0
ARC
  5
252
330
1F
100
AcDbEntity
  8
1
  6
Continuous
 62
     7
100
AcDbCircle
 10
1005.0
 20
676.0498650472196
 30
0.0
 40
15.0
100
AcDbArc
 50
0.0
 51
89.99999999999991
  0
ARC
  5
253
330
1F
100
AcDbEntity
  8
1
  6
Continuous
 62
     7
100
AcDbCircle
 10
964.9999998239505
 20
704.9999999999999
 30
0.0
 40
17.50000000000023
100
AcDbArc
 50
44.99999999999974
 51
135.0
  0
LINE
  5
254
330
1F
100
AcDbEntity
  8
1
  6
Continuous
 62
     7
100
AcDbLine
 10
1003.698873039261
 20
691.0498650472196
 30
0.0
 11
1005.0
 21
691.0498650472196
 31
0.0
  0
CIRCLE
  5
255
330
1F
100
AcDbEntity
  8
1
  6
Continuous
 62
     7
100
AcDbCircle
 10
965.0
 20
705.0
 30
0.0
 40
9.0
  0
CIRCLE
  5
256
330
1F
100
AcDbEntity
  8
1
  6
Continuous
 62
     7
100
AcDbCircle
 10
965.0
 20
705.0
 30
0.0
 40
6.5
  0
LINE
  5
257
330
1F
100
AcDbEntity
  8
1
  6
Continuous
 62
     7
100
AcDbLine
 10
1020.0
 20
598.9501349527804
 30
0.0
 11
1020.0
 21
637.5
 31
0.0
  0
ARC
  5
258
330
1F
100
AcDbEntity
  8
1
  6
Continuous
 62
     7
100
AcDbCircle
 10
1005.0
 20
598.9501349527804
 30
0.0
 40
15.0
100
AcDbArc
 50
269.9999999999998
 51
0.0
  0
ARC
  5
259
330
1F
100
AcDbEntity
  8
1
  6
Continuous
 62
     7
100
AcDbCircle
 10
964.9999998239505
 20
570.0000000000001
 30
0.0
 40
17.50000000000023
100
AcDbArc
 50
224.9999999999996
 51
314.9999999999999
  0
LINE
  5
25A
330
1F
100
AcDbEntity
  8
1
  6
Continuous
 62
     7
100
AcDbLine
 10
1003.698873039261
 20
583.9501349527804
 30
0.0
 11
1005.0
 21
583.9501349527804
 31
0.0
  0
CIRCLE
  5
25B
330
1F
100
AcDbEntity
  8
1
  6
Continuous
 62
     7
100
AcDbCircle
 10
965.0
 20
570.0
 30
0.0
 40
9.0
  0
CIRCLE
  5
25C
330
1F
100
AcDbEntity
  8
1
  6
Continuous
 62
     7
100
AcDbCircle
 10
965.0
 20
570.0
 30
0.0
 40
6.5
  0
ELLIPSE
  5
25D
330
1F
100
AcDbEntity
  8
1
  6
Continuous
 62
     7
100
AcDbEllipse
 10
522.5000001760498
 20
585.7197581095351
 30
0.0
 11
20.0
 21
0.0
 31
0.0
210
0.0
220
0.0
230
1.0
 40
0.0846132024573478
 41
0.0
 42
6.283185307179586
  0
ARC
  5
25E
330
1F
100
AcDbEntity
  8
1
  6
Continuous
 62
     7
100
AcDbCircle
 10
544.5000001760498
 20
588.5482074817137
 30
0.0
 40
3.0
100
AcDbArc
 50
269.9999999999998
 51
347.7684304422572
  0
LINE
  5
25F
330
1F
100
AcDbEntity
  8
1
  6
Continuous
 62
     7
100
AcDbLine
 10
544.4107103840677
 20
585.5482074817137
 30
0.0
 11
544.5000001760498
 21
585.5482074817137
 31
0.0
  0
ARC
  5
260
330
1F
100
AcDbEntity
  8
1
  6
Continuous
 62
     7
100
AcDbCircle
 10
500.5000001760497
 20
588.5482074817137
 30
0.0
 40
3.0
100
AcDbArc
 50
192.9565785055496
 51
269.9999999999998
  0
ELLIPSE
  5
261
330
1F
100
AcDbEntity
  8
1
  6
Continuous
 62
     7
100
AcDbEllipse
 10
522.5000001760498
 20
587.7121475060918
 30
0.0
 11
25.0
 21
-1.136868377216160E-13
 31
0.0
210
0.0
220
0.0
230
1.0
 40
0.0865576009751203
 41
6.150976269351982
 42
9.554368310355514
  0
ELLIPSE
  5
262
330
1F
100
AcDbEntity
  8
1
  6
Continuous
 62
     7
100
AcDbEllipse
 10
522.5000001760498
 20
585.7197581095351
 30
0.0
 11
22.0
 21
0.0
 31
0.0
210
0.0
220
0.0
230
1.0
 40
0.0871561103037276
 41
3.230823907507339
 42
6.19591884446112
  0
LINE
  5
263
330
1F
100
AcDbEntity
  8
1
  6
Continuous
 62
     7
100
AcDbLine
 10
500.5000001760497
 20
585.5482074817137
 30
0.0
 11
500.5883996551269
 21
585.5482074817137
 31
0.0
  0
ELLIPSE
  5
264
330
1F
100
AcDbEntity
  8
1
  6
Continuous
 62
     7
100
AcDbEllipse
 10
917.5000001760498
 20
585.7197581095351
 30
0.0
 11
-20.0
 21
6.462178297730347E-14
 31
0.0
210
0.0
220
0.0
230
1.0
 40
0.0846132024573478
 41
0.0
 42
6.283185307179586
  0
ARC
  5
265
330
1F
100
AcDbEntity
  8
1
  6
Continuous
 62
     7
100
AcDbCircle
 10
895.5000001760498
 20
588.5482074817137
 30
0.0
 40
3.0
100
AcDbArc
 50
192.2315695577421
 51
269.9999999999998
  0
LINE
  5
266
330
1F
100
AcDbEntity
  8
1
  6
Continuous
 62
     7
100
AcDbLine
 10
895.5892899680316
 20
585.5482074817137
 30
0.0
 11
895.5000001760498
 21
585.5482074817137
 31
0.0
  0
ARC
  5
267
330
1F
100
AcDbEntity
  8
1
  6
Continuous
 62
     7
100
AcDbCircle
 10
939.5000001760498
 20
588.5482074817137
 30
0.0
 40
3.0
100
AcDbArc
 50
269.9999999999998
 51
347.0434214944494
  0
ELLIPSE
  5
268
330
1F
100
AcDbEntity
  8
1
  6
Continuous
 62
     7
100
AcDbEllipse
 10
917.5000001760498
 20
587.7121475060918
 30
0.0
 11
-25.0
 21
-3.024507374088631E-14
 31
0.0
210
0.0
220
0.0
230
1.0
 40
0.0865576009751203
 41
3.012002304003658
 42
6.415394345007191
  0
ELLIPSE
  5
269
330
1F
100
AcDbEntity
  8
1
  6
Continuous
 62
     7
100
AcDbEllipse
 10
917.5000001760498
 20
585.7197581095351
 30
0.0
 11
-22.0
 21
7.108396127503382E-14
 31
0.0
210
0.0
220
0.0
230
1.0
 40
0.0871561103037276
 41
0.0872664627184667
 42
3.052361399672248
  0
LINE
  5
26A
330
1F
100
AcDbEntity
  8
1
  6
Continuous
 62
     7
100
AcDbLine
 10
939.5000001760498
 20
585.5482074817137
 30
0.0
 11
939.4116006969725
 21
585.5482074817137
 31
0.0
  0
LINE
  5
26B
330
1F
100
AcDbEntity
  8
1
  6
Continuous
 62
     7
100
AcDbLine
 10
542.888559080047
 20
584.9999989153353
 30
0.0
 11
720.0
 21
584.9999989153353
 31
0.0
  0
LINE
  5
26C
330
1F
100
AcDbEntity
  8
1
  6
Continuous
 62
     7
100
AcDbLine
 10
897.1121344179122
 20
584.9999989153353
 30
0.0
 11
720.0
 21
584.9999989153353
 31
0.0
  0
DIMENSION
  5
280
330
1F
100
AcDbEntity
  8
1
  6
Continuous
 62
     7
100
AcDbDimension
  2
Dim8
 10
475.0
 20
739.7604336669363
 30
0.0
 11
720.0
 21
745.7604336669363
 31
0.0
 70
   160
  1
481
 71
     5
 42
-1.0
  3
Standard
100
AcDbAlignedDimension
 13
475.0
 23
556.500000642597
 33
0.0
 14
965.0
 24
556.500000642597
 34
0.0
100
AcDbRotatedDimension
1001
ACAD
1000
DSTYLE
1002
{
1070
   344
1005
0
1070
   343
1005
0
1070
   173
1070
     1
1070
   289
1070
     2
1070
   279
1070
     2
1070
   288
1070
     1
1070
    77
1070
     3
1070
   172
1070
     1
1070
   174
1070
     0
1070
    74
1070
     0
1070
    73
1070
     0
1070
   284
1070
     8
1070
    78
1070
     8
1070
   140
1040
4.0
1070
    40
1040
1.0
1070
    42
1040
4.0
1070
    44
1040
4.0
1070
    43
1040
10.0
1070
   271
1070
     2
1070
    41
1040
4.0
1002
}
  0
LINE
  5
281
330
1F
100
AcDbEntity
  8
1
  6
Continuous
 62
     7
100
AcDbLine
 10
487.3743688468143
 20
717.3743686707646
 30
0.0
 11
499.7487377105169
 21
705.0
 31
0.0
  0
LINE
  5
282
330
1F
100
AcDbEntity
  8
1
  6
Continuous
 62
     7
100
AcDbLine
 10
499.7487377105169
 20
705.0
 30
0.0
 11
720.0
 21
705.0
 31
0.0
  0
LINE
  5
283
330
1F
100
AcDbEntity
  8
1
  6
Continuous
 62
     7
100
AcDbLine
 10
435.2512629614527
 20
690.0000010846647
 30
0.0
 11
462.6256315052848
 21
717.3743686707646
 31
0.0
  0
LINE
  5
284
330
1F
100
AcDbEntity
  8
1
  6
Continuous
 62
     7
100
AcDbLine
 10
435.2512629614527
 20
690.0000010846647
 30
0.0
 11
720.0
 21
690.0000010846647
 31
0.0
  0
LINE
  5
285
330
1F
100
AcDbEntity
  8
1
  6
Continuous
 62
     7
100
AcDbLine
 10
940.2512622894831
 20
705.0
 30
0.0
 11
720.0
 21
705.0
 31
0.0
  0
LINE
  5
286
330
1F
100
AcDbEntity
  8
1
  6
Continuous
 62
     7
100
AcDbLine
 10
952.6256311531857
 20
717.3743686707646
 30
0.0
 11
940.2512622894831
 21
705.0
 31
0.0
  0
LINE
  5
287
330
1F
100
AcDbEntity
  8
1
  6
Continuous
 62
     7
100
AcDbLine
 10
1004.748737038547
 20
690.0000010846647
 30
0.0
 11
720.0
 21
690.0000010846647
 31
0.0
  0
LINE
  5
288
330
1F
100
AcDbEntity
  8
1
  6
Continuous
 62
     7
100
AcDbLine
 10
1004.748737038547
 20
690.0000010846647
 30
0.0
 11
977.3743684947153
 21
717.3743686707646
 31
0.0
  0
LINE
  5
289
330
1F
100
AcDbEntity
  8
1
  6
Continuous
 62
     7
100
AcDbLine
 10
952.6256311531853
 20
557.6256313292353
 30
0.0
 11
940.2512622894824
 21
570.0
 31
0.0
  0
LINE
  5
28A
330
1F
100
AcDbEntity
  8
1
  6
Continuous
 62
     7
100
AcDbLine
 10
940.2512622894824
 20
570.0
 30
0.0
 11
720.0
 21
570.0
 31
0.0
  0
LINE
  5
28B
330
1F
100
AcDbEntity
  8
1
  6
Continuous
 62
     7
100
AcDbLine
 10
487.3743688468143
 20
557.6256313292353
 30
0.0
 11
499.7487377105171
 21
570.0
 31
0.0
  0
LINE
  5
28C
330
1F
100
AcDbEntity
  8
1
  6
Continuous
 62
     7
100
AcDbLine
 10
499.7487377105171
 20
570.0
 30
0.0
 11
720.0
 21
570.0
 31
0.0
  0
LINE
  5
28D
330
1F
100
AcDbEntity
  8
1
  6
Continuous
 62
     7
100
AcDbLine
 10
937.8911963463377
 20
584.9999989153351
 30
0.0
 11
1004.748737038547
 21
584.9999989153353
 31
0.0
  0
LINE
  5
28E
330
1F
100
AcDbEntity
  8
1
  6
Continuous
 62
     7
100
AcDbLine
 10
1004.748737038547
 20
584.9999989153353
 30
0.0
 11
977.3743684947153
 21
557.6256313292354
 31
0.0
  0
LINE
  5
28F
330
1F
100
AcDbEntity
  8
1
  6
Continuous
 62
     7
100
AcDbLine
 10
502.1088040057601
 20
584.9999989153353
 30
0.0
 11
435.2512629614527
 21
584.9999989153353
 31
0.0
  0
LINE
  5
290
330
1F
100
AcDbEntity
  8
1
  6
Continuous
 62
     7
100
AcDbLine
 10
435.2512629614527
 20
584.9999989153353
 30
0.0
 11
462.6256315052848
 21
557.6256313292354
 31
0.0
  0
LINE
  5
291
330
1F
100
AcDbEntity
  8
1
  6
Continuous
 62
     7
100
AcDbLine
 10
122.5
 20
582.0
 30
0.0
 11
122.5
 21
570.0
 31
0.0
  0
ARC
  5
292
330
1F
100
AcDbEntity
  8
1
  6
Continuous
 62
     7
100
AcDbCircle
 10
134.751005395174
 20
585.0
 30
0.0
 40
3.0
100
AcDbArc
 50
269.9999999999998
 51
354.999999960733
  0
LINE
  5
293
330
1F
100
AcDbEntity
  8
1
  6
Continuous
 62
     7
100
AcDbLine
 10
127.5
 20
577.0
 30
0.0
 11
127.5
 21
570.0
 31
0.0
  0
LINE
  5
294
330
1F
100
AcDbEntity
  8
1
  6
Continuous
 62
     7
100
AcDbLine
 10
137.0625555942524
 20
577.0
 30
0.0
 11
127.5
 21
577.0
 31
0.0
  0
LINE
  5
295
330
1F
100
AcDbEntity
  8
1
  6
Continuous
 62
     7
100
AcDbLine
 10
137.0625555942524
 20
577.0
 30
0.0
 11
136.4501349527805
 21
570.000000091941
 31
0.0
  0
LINE
  5
296
330
1F
100
AcDbEntity
  8
1
  6
Continuous
 62
     7
100
AcDbLine
 10
190.0
 20
570.0
 30
0.0
 11
105.0
 21
570.0
 31
0.0
  0
ARC
  5
297
330
1F
100
AcDbEntity
  8
1
  6
Continuous
 62
     7
100
AcDbCircle
 10
119.4999999999952
 20
535.9999999999902
 30
0.0
 40
5.000000000004897
100
AcDbArc
 50
53.13010235417838
 51
126.8698976457321
  0
ARC
  5
298
330
1F
100
AcDbEntity
  8
1
  6
Continuous
 62
     7
100
AcDbCircle
 10
119.5000000000098
 20
544.0000000000099
 30
0.0
 40
5.000000000013742
100
AcDbArc
 50
233.1301023541339
 51
306.8698976456861
  0
ARC
  5
299
330
1F
100
AcDbEntity
  8
1
  6
Continuous
 62
     7
100
AcDbCircle
 10
125.4999999999995
 20
543.9999999999999
 30
0.0
 40
4.999999999999568
100
AcDbArc
 50
233.13010235416
 51
306.8698976458499
  0
LINE
  5
29A
330
1F
100
AcDbEntity
  8
1
  6
Continuous
 62
     7
100
AcDbLine
 10
116.5
 20
569.9999999999999
 30
0.0
 11
116.5
 21
540.0
 31
0.0
  0
LINE
  5
29B
330
1F
100
AcDbEntity
  8
1
  6
Continuous
 62
     7
100
AcDbLine
 10
128.5
 20
540.0000000000006
 30
0.0
 11
128.5
 21
569.9999999999999
 31
0.0
  0
LINE
  5
29C
330
1F
100
AcDbEntity
  8
1
  6
Continuous
 62
     7
100
AcDbLine
 10
257.5
 20
582.0
 30
0.0
 11
257.5
 21
570.0
 31
0.0
  0
ARC
  5
29D
330
1F
100
AcDbEntity
  8
1
  6
Continuous
 62
     7
100
AcDbCircle
 10
245.248994604826
 20
585.0
 30
0.0
 40
3.0
100
AcDbArc
 50
185.0000000392662
 51
269.9999999999998
  0
LINE
  5
29E
330
1F
100
AcDbEntity
  8
1
  6
Continuous
 62
     7
100
AcDbLine
 10
252.5
 20
577.0
 30
0.0
 11
252.5
 21
570.0
 31
0.0
  0
LINE
  5
29F
330
1F
100
AcDbEntity
  8
1
  6
Continuous
 62
     7
100
AcDbLine
 10
242.9374444057476
 20
577.0
 30
0.0
 11
252.5
 21
577.0
 31
0.0
  0
LINE
  5
2A0
330
1F
100
AcDbEntity
  8
1
  6
Continuous
 62
     7
100
AcDbLine
 10
242.9374444057476
 20
577.0
 30
0.0
 11
243.5498650472195
 21
570.000000091941
 31
0.0
  0
LINE
  5
2A1
330
1F
100
AcDbEntity
  8
1
  6
Continuous
 62
     7
100
AcDbLine
 10
190.0
 20
570.0
 30
0.0
 11
275.0
 21
570.0
 31
0.0
  0
ARC
  5
2A2
330
1F
100
AcDbEntity
  8
1
  6
Continuous
 62
     7
100
AcDbCircle
 10
260.5000000000049
 20
535.9999999999902
 30
0.0
 40
5.000000000004897
100
AcDbArc
 50
53.13010235426802
 51
126.8698976458214
  0
ARC
  5
2A3
330
1F
100
AcDbEntity
  8
1
  6
Continuous
 62
     7
100
AcDbCircle
 10
260.4999999999902
 20
544.0000000000099
 30
0.0
 40
5.000000000013742
100
AcDbArc
 50
233.1301023543137
 51
306.8698976458653
  0
ARC
  5
2A4
330
1F
100
AcDbEntity
  8
1
  6
Continuous
 62
     7
100
AcDbCircle
 10
254.5000000000006
 20
543.9999999999999
 30
0.0
 40
4.999999999999568
100
AcDbArc
 50
233.1301023541494
 51
306.869897645839
  0
LINE
  5
2A5
330
1F
100
AcDbEntity
  8
1
  6
Continuous
 62
     7
100
AcDbLine
 10
263.5
 20
569.9999999999999
 30
0.0
 11
263.5
 21
540.0
 31
0.0
  0
LINE
  5
2A6
330
1F
100
AcDbEntity
  8
1
  6
Continuous
 62
     7
100
AcDbLine
 10
251.5
 20
540.0000000000006
 30
0.0
 11
251.5
 21
569.9999999999999
 31
0.0
  0
LINE
  5
2A7
330
1F
100
AcDbEntity
  8
1
  6
Continuous
 62
     7
100
AcDbLine
 10
239.8628155345481
 20
635.0905948435654
 30
0.0
 11
243.6976682454858
 21
591.2580281301568
 31
0.0
  0
ARC
  5
2A8
330
1F
100
AcDbEntity
  8
1
  6
Continuous
 62
     7
100
AcDbCircle
 10
43.53749698164714
 20
595.8303185442006
 30
0.0
 40
199.9999999999998
100
AcDbArc
 50
359.5212030716534
 51
10.47879700688883
  0
ARC
  5
2A9
330
1F
100
AcDbEntity
  8
1
  6
Continuous
 62
     7
100
AcDbCircle
 10
242.5305486906305
 20
594.1673779121335
 30
0.0
 40
1.0
100
AcDbArc
 50
340.3828918300389
 51
359.5212030717262
  0
ARC
  5
2AA
330
1F
100
AcDbEntity
  8
1
  6
Continuous
 62
     7
100
AcDbCircle
 10
240.7090841513897
 20
590.9965608998657
 30
0.0
 40
3.0
100
AcDbArc
 50
294.4712206737817
 51
5.000000039266619
  0
ARC
  5
2AB
330
1F
100
AcDbEntity
  8
1
  6
Continuous
 62
     7
100
AcDbCircle
 10
239.2186304402732
 20
632.0227764373492
 30
0.0
 40
1.0
100
AcDbArc
 50
10.47879700688979
 51
29.61710824024194
  0
ARC
  5
2AC
330
1F
100
AcDbEntity
  8
1
  6
Continuous
 62
     7
100
AcDbCircle
 10
236.8742314404521
 20
634.8291276132743
 30
0.0
 40
3.0
100
AcDbArc
 50
5.000000039266619
 51
75.52877940475862
  0
ARC
  5
2AD
330
1F
100
AcDbEntity
  8
1
  6
Continuous
 62
     7
100
AcDbCircle
 10
157.3691730112969
 20
637.0000000000003
 30
0.0
 40
15.0
100
AcDbArc
 50
89.99999999999991
 51
174.9999999607321
  0
LINE
  5
2AE
330
1F
100
AcDbEntity
  8
1
  6
Continuous
 62
     7
100
AcDbLine
 10
157.3691730112969
 20
652.0000000000003
 30
0.0
 11
222.6308269887027
 21
652.0000000000003
 31
0.0
  0
ARC
  5
2AF
330
1F
100
AcDbEntity
  8
1
  6
Continuous
 62
     7
100
AcDbCircle
 10
222.6308269887027
 20
637.0000000000003
 30
0.0
 40
15.0
100
AcDbArc
 50
5.000000039268349
 51
89.99999999999991
  0
ARC
  5
2B0
330
1F
100
AcDbEntity
  8
1
  6
Continuous
 62
     7
100
AcDbCircle
 10
157.3691730112969
 20
637.0000000000003
 30
0.0
 40
10.0
100
AcDbArc
 50
89.99999999999991
 51
174.9999999607317
  0
ARC
  5
2B1
330
1F
100
AcDbEntity
  8
1
  6
Continuous
 62
     7
100
AcDbCircle
 10
222.6308269887027
 20
637.0000000000003
 30
0.0
 40
10.0
100
AcDbArc
 50
5.000000039268349
 51
89.99999999999991
  0
LINE
  5
2B2
330
1F
100
AcDbEntity
  8
1
  6
Continuous
 62
     7
100
AcDbLine
 10
157.3691730112969
 20
647.0000000000003
 30
0.0
 11
171.4999999999995
 21
647.0000000000003
 31
0.0
  0
LINE
  5
2B3
330
1F
100
AcDbEntity
  8
1
  6
Continuous
 62
     7
100
AcDbLine
 10
173.4999999999997
 20
647.0000000000003
 30
0.0
 11
206.4999999999999
 21
647.0000000000003
 31
0.0
  0
LINE
  5
2B4
330
1F
100
AcDbEntity
  8
1
  6
Continuous
 62
     7
100
AcDbLine
 10
208.5000000000003
 20
647.0000000000003
 30
0.0
 11
222.6308269887027
 21
647.0000000000003
 31
0.0
  0
LINE
  5
2B5
330
1F
100
AcDbEntity
  8
1
  6
Continuous
 62
     7
100
AcDbLine
 10
169.6715728752538
 20
647.000000000001
 30
0.0
 11
169.6715728752538
 21
570.0
 31
0.0
  0
LINE
  5
2B6
330
1F
100
AcDbEntity
  8
1
  6
Continuous
 62
     7
100
AcDbLine
 10
171.4999999999997
 20
647.000000000001
 30
0.0
 11
171.4999999999997
 21
570.0
 31
0.0
  0
LINE
  5
2B7
330
1F
100
AcDbEntity
  8
1
  6
Continuous
 62
     7
100
AcDbLine
 10
173.5
 20
647.0000000000007
 30
0.0
 11
173.5
 21
570.0
 31
0.0
  0
LINE
  5
2B8
330
1F
100
AcDbEntity
  8
1
  6
Continuous
 62
     7
100
AcDbLine
 10
175.3284271247462
 20
647.0000000000007
 30
0.0
 11
175.3284271247462
 21
570.0
 31
0.0
  0
LINE
  5
2B9
330
1F
100
AcDbEntity
  8
1
  6
Continuous
 62
     7
100
AcDbLine
 10
204.6715728752539
 20
647.0000000000007
 30
0.0
 11
204.6715728752538
 21
570.0
 31
0.0
  0
LINE
  5
2BA
330
1F
100
AcDbEntity
  8
1
  6
Continuous
 62
     7
100
AcDbLine
 10
206.5000000000001
 20
647.0000000000007
 30
0.0
 11
206.5000000000001
 21
570.0
 31
0.0
  0
LINE
  5
2BB
330
1F
100
AcDbEntity
  8
1
  6
Continuous
 62
     7
100
AcDbLine
 10
208.5000000000003
 20
647.0000000000014
 30
0.0
 11
208.5000000000004
 21
570.0
 31
0.0
  0
LINE
  5
2BC
330
1F
100
AcDbEntity
  8
1
  6
Continuous
 62
     7
100
AcDbLine
 10
210.3284271247462
 20
647.0000000000014
 30
0.0
 11
210.3284271247462
 21
570.0
 31
0.0
  0
LINE
  5
2BD
330
1F
100
AcDbEntity
  8
1
  6
Continuous
 62
     7
100
AcDbLine
 10
142.426252540817
 20
638.3073361514564
 30
0.0
 11
137.6561725514573
 21
583.785072815099
 31
0.0
  0
LINE
  5
2BE
330
1F
100
AcDbEntity
  8
1
  6
Continuous
 62
     7
100
AcDbLine
 10
147.4072271065679
 20
637.8715697283639
 30
0.0
 11
141.4692341327544
 21
570.0
 31
0.0
  0
LINE
  5
2BF
330
1F
100
AcDbEntity
  8
1
  6
Continuous
 62
     7
100
AcDbLine
 10
232.592773969023
 20
637.8715574343045
 30
0.0
 11
238.5307658672457
 21
570.0
 31
0.0
  0
LINE
  5
2C0
330
1F
100
AcDbEntity
  8
1
  6
Continuous
 62
     7
100
AcDbLine
 10
237.5737468825135
 20
638.3073427428196
 30
0.0
 11
242.3438274485428
 21
583.785072815099
 31
0.0
  0
LINE
  5
2C1
330
1F
100
AcDbEntity
  8
1
  6
Continuous
 62
     7
100
AcDbLine
 10
105.0
 20
582.0
 30
0.0
 11
105.0
 21
570.0
 31
0.0
  0
LINE
  5
2C2
330
1F
100
AcDbEntity
  8
1
  6
Continuous
 62
     7
100
AcDbLine
 10
134.751005395174
 20
582.0
 30
0.0
 11
105.0
 21
582.0
 31
0.0
  0
LINE
  5
2C3
330
1F
100
AcDbEntity
  8
1
  6
Continuous
 62
     7
100
AcDbLine
 10
245.248994604826
 20
582.0
 30
0.0
 11
275.0
 21
582.0
 31
0.0
  0
LINE
  5
2C4
330
1F
100
AcDbEntity
  8
1
  6
Continuous
 62
     7
100
AcDbLine
 10
275.0
 20
582.0
 30
0.0
 11
275.0
 21
570.0
 31
0.0
  0
LINE
  5
2C5
330
1F
100
AcDbEntity
  8
1
  6
Continuous
 62
     7
100
AcDbLine
 10
113.5
 20
582.0
 30
0.0
 11
113.5
 21
584.5
 31
0.0
  0
LINE
  5
2C6
330
1F
100
AcDbEntity
  8
1
  6
Continuous
 62
     7
100
AcDbLine
 10
113.5
 20
584.5
 30
0.0
 11
116.0
 21
587.0
 31
0.0
  0
LINE
  5
2C7
330
1F
100
AcDbEntity
  8
1
  6
Continuous
 62
     7
100
AcDbLine
 10
116.0
 20
587.0
 30
0.0
 11
129.0
 21
587.0
 31
0.0
  0
LINE
  5
2C8
330
1F
100
AcDbEntity
  8
1
  6
Continuous
 62
     7
100
AcDbLine
 10
131.5
 20
582.0
 30
0.0
 11
131.5
 21
584.5
 31
0.0
  0
LINE
  5
2C9
330
1F
100
AcDbEntity
  8
1
  6
Continuous
 62
     7
100
AcDbLine
 10
129.0
 20
587.0
 30
0.0
 11
131.5
 21
584.5
 31
0.0
  0
LINE
  5
2CA
330
1F
100
AcDbEntity
  8
1
  6
Continuous
 62
     7
100
AcDbLine
 10
113.5
 20
584.5
 30
0.0
 11
131.5
 21
584.5
 31
0.0
  0
LINE
  5
2CB
330
1F
100
AcDbEntity
  8
1
  6
Continuous
 62
     7
100
AcDbLine
 10
266.5
 20
582.0
 30
0.0
 11
266.5
 21
584.5
 31
0.0
  0
LINE
  5
2CC
330
1F
100
AcDbEntity
  8
1
  6
Continuous
 62
     7
100
AcDbLine
 10
266.5
 20
584.5
 30
0.0
 11
264.0
 21
587.0
 31
0.0
  0
LINE
  5
2CD
330
1F
100
AcDbEntity
  8
1
  6
Continuous
 62
     7
100
AcDbLine
 10
264.0
 20
587.0
 30
0.0
 11
251.0
 21
587.0
 31
0.0
  0
LINE
  5
2CE
330
1F
100
AcDbEntity
  8
1
  6
Continuous
 62
     7
100
AcDbLine
 10
248.5
 20
582.0
 30
0.0
 11
248.5
 21
584.5
 31
0.0
  0
LINE
  5
2CF
330
1F
100
AcDbEntity
  8
1
  6
Continuous
 62
     7
100
AcDbLine
 10
251.0
 20
587.0
 30
0.0
 11
248.5
 21
584.5
 31
0.0
  0
LINE
  5
2D0
330
1F
100
AcDbEntity
  8
1
  6
Continuous
 62
     7
100
AcDbLine
 10
266.5
 20
584.5
 30
0.0
 11
248.5
 21
584.5
 31
0.0
  0
TEXT
  5
2D1
330
1F
100
AcDbEntity
  8
1
  6
Continuous
 62
     7
100
AcDbText
 10
140.0
 20
670.0
 30
0.0
 40
12.0
  1
Ａ － Ｂ 断 面 図
 41
0.7727272727272727
100
AcDbText
  0
DIMENSION
  5
2E5
330
1F
100
AcDbEntity
  8
1
  6
Continuous
 62
     7
100
AcDbDimension
  2
Dim9
 10
390.0
 20
705.0
 30
0.0
 11
384.0000000000001
 21
637.5
 31
0.0
 70
   160
  1
<>
 71
     5
 42
-1.0
  3
Standard
100
AcDbAlignedDimension
 13
494.0918842224871
 23
705.0
 33
0.0
 14
494.0918842224869
 24
570.0
 34
0.0
 50
89.99999999999991
100
AcDbRotatedDimension
1001
ACAD
1000
DSTYLE
1002
{
1070
   344
1005
0
1070
   343
1005
0
1070
   173
1070
     1
1070
   289
1070
     2
1070
   279
1070
     2
1070
   288
1070
     1
1070
    77
1070
     3
1070
   172
1070
     1
1070
   174
1070
     0
1070
    74
1070
     0
1070
    73
1070
     0
1070
   284
1070
     8
1070
    78
1070
     8
1070
   140
1040
4.0
1070
    40
1040
1.0
1070
    42
1040
4.0
1070
    44
1040
4.0
1070
    43
1040
10.0
1070
   271
1070
     2
1070
    41
1040
4.0
1002
}
  0
LINE
  5
2E6
330
1F
100
AcDbEntity
  8
1
  6
Continuous
 62
     7
100
AcDbLine
 10
420.0
 20
231.0498650472195
 30
0.0
 11
420.0
 21
192.5
 31
0.0
  0
ARC
  5
2E7
330
1F
100
AcDbEntity
  8
1
  6
Continuous
 62
     7
100
AcDbCircle
 10
435.0
 20
231.0498650472195
 30
0.0
 40
15.0
100
AcDbArc
 50
89.99999999999991
 51
179.9999999999998
  0
ARC
  5
2E8
330
1F
100
AcDbEntity
  8
1
  6
Continuous
 62
     7
100
AcDbCircle
 10
435.0
 20
231.0498650472195
 30
0.0
 40
10.0
100
AcDbArc
 50
89.99999999999991
 51
179.9999999999998
  0
LINE
  5
2E9
330
1F
100
AcDbEntity
  8
1
  6
Continuous
 62
     7
100
AcDbLine
 10
468.0
 20
246.049865047219
 30
0.0
 11
474.0
 21
246.049865047219
 31
0.0
  0
LINE
  5
2EA
330
1F
100
AcDbEntity
  8
1
  6
Continuous
 62
     7
100
AcDbLine
 10
476.0
 20
246.049865047219
 30
0.0
 11
482.0
 21
246.049865047219
 31
0.0
  0
LINE
  5
2EB
330
1F
100
AcDbEntity
  8
1
  6
Continuous
 62
     7
100
AcDbLine
 10
476.0
 20
248.5435607626104
 30
0.0
 11
476.0
 21
246.049865047219
 31
0.0
  0
LINE
  5
2EC
330
1F
100
AcDbEntity
  8
1
  6
Continuous
 62
     7
100
AcDbLine
 10
482.0
 20
246.049865047219
 30
0.0
 11
482.0
 21
250.8758562045526
 31
0.0
  0
ARC
  5
2ED
330
1F
100
AcDbEntity
  8
1
  6
Continuous
 62
     7
100
AcDbCircle
 10
475.0
 20
260.0
 30
0.0
 40
11.5
100
AcDbArc
 50
274.9885419755557
 51
307.4952497645581
  0
LINE
  5
2EE
330
1F
100
AcDbEntity
  8
1
  6
Continuous
 62
     7
100
AcDbLine
 10
474.0
 20
248.5435607626104
 30
0.0
 11
474.0
 21
246.049865047219
 31
0.0
  0
LINE
  5
2EF
330
1F
100
AcDbEntity
  8
1
  6
Continuous
 62
     7
100
AcDbLine
 10
468.0
 20
246.049865047219
 30
0.0
 11
468.0
 21
250.8758562045526
 31
0.0
  0
ARC
  5
2F0
330
1F
100
AcDbEntity
  8
1
  6
Continuous
 62
     7
100
AcDbCircle
 10
475.0
 20
260.0
 30
0.0
 40
11.5
100
AcDbArc
 50
232.5047502354411
 51
265.0114580244436
  0
LINE
  5
2F1
330
1F
100
AcDbEntity
  8
1
  6
Continuous
 62
     7
100
AcDbLine
 10
485.0
 20
254.3210916541997
 30
0.0
 11
485.0
 21
246.049865047219
 31
0.0
  0
ARC
  5
2F2
330
1F
100
AcDbEntity
  8
1
  6
Continuous
 62
     7
100
AcDbCircle
 10
475.0
 20
260.0
 30
0.0
 40
11.5
100
AcDbArc
 50
330.4081542060488
 51
334.2285382594489
  0
LINE
  5
2F3
330
1F
100
AcDbEntity
  8
1
  6
Continuous
 62
     7
100
AcDbLine
 10
435.0
 20
241.0498650472195
 30
0.0
 11
474.0
 21
241.0498650472195
 31
0.0
  0
LINE
  5
2F4
330
1F
100
AcDbEntity
  8
1
  6
Continuous
 62
     7
100
AcDbLine
 10
425.0
 20
192.5
 30
0.0
 11
425.0
 21
209.0000000000002
 31
0.0
  0
LINE
  5
2F5
330
1F
100
AcDbEntity
  8
1
  6
Continuous
 62
     7
100
AcDbLine
 10
425.0
 20
211.0000000000002
 30
0.0
 11
425.0
 21
231.0498650472195
 31
0.0
  0
LINE
  5
2F6
330
1F
100
AcDbEntity
  8
1
  6
Continuous
 62
     7
100
AcDbLine
 10
474.0
 20
241.0498650472186
 30
0.0
 11
474.0
 21
212.8284271247462
 31
0.0
  0
LINE
  5
2F7
330
1F
100
AcDbEntity
  8
1
  6
Continuous
 62
     7
100
AcDbLine
 10
424.9999999999999
 20
211.0
 30
0.0
 11
472.1715728752538
 21
211.0
 31
0.0
  0
ARC
  5
2F8
330
1F
100
AcDbEntity
  8
1
  6
Continuous
 62
     7
100
AcDbCircle
 10
475.0
 20
210.0
 30
0.0
 40
3.0
100
AcDbArc
 50
109.4712206344907
 51
160.5287793655095
  0
LINE
  5
2F9
330
1F
100
AcDbEntity
  8
1
  6
Continuous
 62
     7
100
AcDbLine
 10
424.9999999999999
 20
209.0
 30
0.0
 11
472.1715728752538
 21
209.0
 31
0.0
  0
LINE
  5
2FA
330
1F
100
AcDbEntity
  8
1
  6
Continuous
 62
     7
100
AcDbLine
 10
474.0
 20
207.1715728752538
 30
0.0
 11
474.0
 21
192.5
 31
0.0
  0
ARC
  5
2FB
330
1F
100
AcDbEntity
  8
1
  6
Continuous
 62
     7
100
AcDbCircle
 10
475.0
 20
210.0
 30
0.0
 40
3.0
100
AcDbArc
 50
199.4712206344902
 51
250.5287793655089
  0
LINE
  5
2FC
330
1F
100
AcDbEntity
  8
1
  6
Continuous
 62
     7
100
AcDbLine
 10
476.0
 20
207.1715728752538
 30
0.0
 11
476.0
 21
192.5
 31
0.0
  0
ARC
  5
2FD
330
1F
100
AcDbEntity
  8
1
  6
Continuous
 62
     7
100
AcDbCircle
 10
475.0
 20
210.0
 30
0.0
 40
3.0
100
AcDbArc
 50
289.4712206344904
 51
340.5287793655091
  0
LINE
  5
2FE
330
1F
100
AcDbEntity
  8
1
  6
Continuous
 62
     7
100
AcDbLine
 10
476.0
 20
212.8284271247462
 30
0.0
 11
476.0
 21
241.0498650472186
 31
0.0
  0
ARC
  5
2FF
330
1F
100
AcDbEntity
  8
1
  6
Continuous
 62
     7
100
AcDbCircle
 10
475.0
 20
210.0
 30
0.0
 40
3.0
100
AcDbArc
 50
19.47122063449055
 51
70.52877936550927
  0
LINE
  5
300
330
1F
100
AcDbEntity
  8
1
  6
Continuous
 62
     7
100
AcDbLine
 10
518.5
 20
241.0498650472186
 30
0.0
 11
518.5
 21
212.8284271247462
 31
0.0
  0
LINE
  5
301
330
1F
100
AcDbEntity
  8
1
  6
Continuous
 62
     7
100
AcDbLine
 10
518.5
 20
207.1715728752538
 30
0.0
 11
518.5
 21
192.5
 31
0.0
  0
LINE
  5
302
330
1F
100
AcDbEntity
  8
1
  6
Continuous
 62
     7
100
AcDbLine
 10
520.5
 20
207.1715728752538
 30
0.0
 11
520.5
 21
192.5
 31
0.0
  0
ARC
  5
303
330
1F
100
AcDbEntity
  8
1
  6
Continuous
 62
     7
100
AcDbCircle
 10
519.5
 20
210.0
 30
0.0
 40
3.0
100
AcDbArc
 50
289.4712206344904
 51
340.5287793655091
  0
LINE
  5
304
330
1F
100
AcDbEntity
  8
1
  6
Continuous
 62
     7
100
AcDbLine
 10
520.5
 20
212.8284271247462
 30
0.0
 11
520.5
 21
241.0498650472186
 31
0.0
  0
ARC
  5
305
330
1F
100
AcDbEntity
  8
1
  6
Continuous
 62
     7
100
AcDbCircle
 10
519.5
 20
210.0
 30
0.0
 40
3.0
100
AcDbArc
 50
19.47122063449055
 51
70.52877936550927
  0
LINE
  5
306
330
1F
100
AcDbEntity
  8
1
  6
Continuous
 62
     7
100
AcDbLine
 10
518.4999999999999
 20
246.049865047219
 30
0.0
 11
518.4999999999999
 21
254.9999999999999
 31
0.0
  0
LINE
  5
307
330
1F
100
AcDbEntity
  8
1
  6
Continuous
 62
     7
100
AcDbLine
 10
520.5000000000001
 20
246.049865047219
 30
0.0
 11
520.5000000000001
 21
254.9999999999999
 31
0.0
  0
LINE
  5
308
330
1F
100
AcDbEntity
  8
1
  6
Continuous
 62
     7
100
AcDbLine
 10
563.0
 20
241.0498650472186
 30
0.0
 11
563.0
 21
212.8284271247462
 31
0.0
  0
LINE
  5
309
330
1F
100
AcDbEntity
  8
1
  6
Continuous
 62
     7
100
AcDbLine
 10
563.0
 20
207.1715728752538
 30
0.0
 11
563.0
 21
192.5
 31
0.0
  0
LINE
  5
30A
330
1F
100
AcDbEntity
  8
1
  6
Continuous
 62
     7
100
AcDbLine
 10
565.0
 20
207.1715728752538
 30
0.0
 11
565.0
 21
192.5
 31
0.0
  0
ARC
  5
30B
330
1F
100
AcDbEntity
  8
1
  6
Continuous
 62
     7
100
AcDbCircle
 10
564.0
 20
210.0
 30
0.0
 40
3.0
100
AcDbArc
 50
289.4712206344904
 51
340.5287793655091
  0
LINE
  5
30C
330
1F
100
AcDbEntity
  8
1
  6
Continuous
 62
     7
100
AcDbLine
 10
565.0
 20
212.8284271247462
 30
0.0
 11
565.0
 21
241.0498650472186
 31
0.0
  0
ARC
  5
30D
330
1F
100
AcDbEntity
  8
1
  6
Continuous
 62
     7
100
AcDbCircle
 10
564.0
 20
210.0
 30
0.0
 40
3.0
100
AcDbArc
 50
19.47122063449055
 51
70.52877936550927
  0
LINE
  5
30E
330
1F
100
AcDbEntity
  8
1
  6
Continuous
 62
     7
100
AcDbLine
 10
563.0
 20
246.049865047219
 30
0.0
 11
563.0
 21
254.9999999999999
 31
0.0
  0
LINE
  5
30F
330
1F
100
AcDbEntity
  8
1
  6
Continuous
 62
     7
100
AcDbLine
 10
565.0000000000002
 20
246.049865047219
 30
0.0
 11
565.0000000000002
 21
254.9999999999999
 31
0.0
  0
LINE
  5
310
330
1F
100
AcDbEntity
  8
1
  6
Continuous
 62
     7
100
AcDbLine
 10
607.5
 20
241.0498650472186
 30
0.0
 11
607.5
 21
212.8284271247462
 31
0.0
  0
LINE
  5
311
330
1F
100
AcDbEntity
  8
1
  6
Continuous
 62
     7
100
AcDbLine
 10
607.5
 20
207.1715728752538
 30
0.0
 11
607.5
 21
192.5
 31
0.0
  0
LINE
  5
312
330
1F
100
AcDbEntity
  8
1
  6
Continuous
 62
     7
100
AcDbLine
 10
609.5
 20
207.1715728752538
 30
0.0
 11
609.5
 21
192.5
 31
0.0
  0
ARC
  5
313
330
1F
100
AcDbEntity
  8
1
  6
Continuous
 62
     7
100
AcDbCircle
 10
608.5
 20
210.0
 30
0.0
 40
3.0
100
AcDbArc
 50
289.4712206344904
 51
340.5287793655091
  0
LINE
  5
314
330
1F
100
AcDbEntity
  8
1
  6
Continuous
 62
     7
100
AcDbLine
 10
609.5
 20
212.8284271247462
 30
0.0
 11
609.5
 21
241.0498650472186
 31
0.0
  0
ARC
  5
315
330
1F
100
AcDbEntity
  8
1
  6
Continuous
 62
     7
100
AcDbCircle
 10
608.5
 20
210.0
 30
0.0
 40
3.0
100
AcDbArc
 50
19.47122063449055
 51
70.52877936550927
  0
LINE
  5
316
330
1F
100
AcDbEntity
  8
1
  6
Continuous
 62
     7
100
AcDbLine
 10
607.5
 20
246.049865047219
 30
0.0
 11
607.5
 21
254.9999999999999
 31
0.0
  0
LINE
  5
317
330
1F
100
AcDbEntity
  8
1
  6
Continuous
 62
     7
100
AcDbLine
 10
609.5000000000002
 20
246.049865047219
 30
0.0
 11
609.5000000000002
 21
254.9999999999999
 31
0.0
  0
LINE
  5
318
330
1F
100
AcDbEntity
  8
1
  6
Continuous
 62
     7
100
AcDbLine
 10
652.0
 20
241.0498650472186
 30
0.0
 11
652.0
 21
212.8284271247462
 31
0.0
  0
LINE
  5
319
330
1F
100
AcDbEntity
  8
1
  6
Continuous
 62
     7
100
AcDbLine
 10
652.0
 20
207.1715728752538
 30
0.0
 11
652.0
 21
192.5
 31
0.0
  0
LINE
  5
31A
330
1F
100
AcDbEntity
  8
1
  6
Continuous
 62
     7
100
AcDbLine
 10
654.0
 20
207.1715728752538
 30
0.0
 11
654.0
 21
192.5
 31
0.0
  0
ARC
  5
31B
330
1F
100
AcDbEntity
  8
1
  6
Continuous
 62
     7
100
AcDbCircle
 10
653.0
 20
210.0
 30
0.0
 40
3.0
100
AcDbArc
 50
289.4712206344904
 51
340.5287793655091
  0
LINE
  5
31C
330
1F
100
AcDbEntity
  8
1
  6
Continuous
 62
     7
100
AcDbLine
 10
654.0
 20
212.8284271247462
 30
0.0
 11
654.0
 21
241.0498650472186
 31
0.0
  0
ARC
  5
31D
330
1F
100
AcDbEntity
  8
1
  6
Continuous
 62
     7
100
AcDbCircle
 10
653.0
 20
210.0
 30
0.0
 40
3.0
100
AcDbArc
 50
19.47122063449055
 51
70.52877936550927
  0
LINE
  5
31E
330
1F
100
AcDbEntity
  8
1
  6
Continuous
 62
     7
100
AcDbLine
 10
652.0
 20
246.049865047219
 30
0.0
 11
652.0
 21
254.9999999999999
 31
0.0
  0
LINE
  5
31F
330
1F
100
AcDbEntity
  8
1
  6
Continuous
 62
     7
100
AcDbLine
 10
654.0000000000002
 20
246.049865047219
 30
0.0
 11
654.0000000000002
 21
254.9999999999999
 31
0.0
  0
LINE
  5
320
330
1F
100
AcDbEntity
  8
1
  6
Continuous
 62
     7
100
AcDbLine
 10
696.5
 20
241.0498650472186
 30
0.0
 11
696.5
 21
212.8284271247462
 31
0.0
  0
LINE
  5
321
330
1F
100
AcDbEntity
  8
1
  6
Continuous
 62
     7
100
AcDbLine
 10
696.5
 20
207.1715728752538
 30
0.0
 11
696.5
 21
192.5
 31
0.0
  0
LINE
  5
322
330
1F
100
AcDbEntity
  8
1
  6
Continuous
 62
     7
100
AcDbLine
 10
698.5
 20
207.1715728752538
 30
0.0
 11
698.5
 21
192.5
 31
0.0
  0
ARC
  5
323
330
1F
100
AcDbEntity
  8
1
  6
Continuous
 62
     7
100
AcDbCircle
 10
697.5
 20
210.0
 30
0.0
 40
3.0
100
AcDbArc
 50
289.4712206344904
 51
340.5287793655091
  0
LINE
  5
324
330
1F
100
AcDbEntity
  8
1
  6
Continuous
 62
     7
100
AcDbLine
 10
698.5
 20
212.8284271247462
 30
0.0
 11
698.5
 21
241.0498650472186
 31
0.0
  0
ARC
  5
325
330
1F
100
AcDbEntity
  8
1
  6
Continuous
 62
     7
100
AcDbCircle
 10
697.5
 20
210.0
 30
0.0
 40
3.0
100
AcDbArc
 50
19.47122063449055
 51
70.52877936550927
  0
LINE
  5
326
330
1F
100
AcDbEntity
  8
1
  6
Continuous
 62
     7
100
AcDbLine
 10
696.5
 20
246.049865047219
 30
0.0
 11
696.5
 21
254.9999999999999
 31
0.0
  0
LINE
  5
327
330
1F
100
AcDbEntity
  8
1
  6
Continuous
 62
     7
100
AcDbLine
 10
698.5000000000002
 20
246.049865047219
 30
0.0
 11
698.5000000000002
 21
254.9999999999999
 31
0.0
  0
LINE
  5
328
330
1F
100
AcDbEntity
  8
1
  6
Continuous
 62
     7
100
AcDbLine
 10
485.356157588604
 20
255.0
 30
0.0
 11
518.4999999999998
 21
255.0
 31
0.0
  0
LINE
  5
329
330
1F
100
AcDbEntity
  8
1
  6
Continuous
 62
     7
100
AcDbLine
 10
485.0
 20
246.049865047219
 30
0.0
 11
518.4999999999998
 21
246.049865047219
 31
0.0
  0
LINE
  5
32A
330
1F
100
AcDbEntity
  8
1
  6
Continuous
 62
     7
100
AcDbLine
 10
475.9999999999999
 20
241.0498650472195
 30
0.0
 11
518.4999999999998
 21
241.0498650472195
 31
0.0
  0
LINE
  5
32B
330
1F
100
AcDbEntity
  8
1
  6
Continuous
 62
     7
100
AcDbLine
 10
477.8284271247462
 20
211.0
 30
0.0
 11
516.6715728752538
 21
211.0
 31
0.0
  0
ARC
  5
32C
330
1F
100
AcDbEntity
  8
1
  6
Continuous
 62
     7
100
AcDbCircle
 10
519.5
 20
210.0
 30
0.0
 40
3.0
100
AcDbArc
 50
109.4712206344907
 51
160.5287793655095
  0
LINE
  5
32D
330
1F
100
AcDbEntity
  8
1
  6
Continuous
 62
     7
100
AcDbLine
 10
477.8284271247462
 20
209.0
 30
0.0
 11
516.6715728752538
 21
209.0
 31
0.0
  0
ARC
  5
32E
330
1F
100
AcDbEntity
  8
1
  6
Continuous
 62
     7
100
AcDbCircle
 10
519.5
 20
210.0
 30
0.0
 40
3.0
100
AcDbArc
 50
199.4712206344902
 51
250.5287793655089
  0
LINE
  5
32F
330
1F
100
AcDbEntity
  8
1
  6
Continuous
 62
     7
100
AcDbLine
 10
520.5000000000008
 20
255.0
 30
0.0
 11
563.0000000000009
 21
255.0
 31
0.0
  0
LINE
  5
330
330
1F
100
AcDbEntity
  8
1
  6
Continuous
 62
     7
100
AcDbLine
 10
520.5000000000008
 20
246.049865047219
 30
0.0
 11
563.0000000000009
 21
246.049865047219
 31
0.0
  0
LINE
  5
331
330
1F
100
AcDbEntity
  8
1
  6
Continuous
 62
     7
100
AcDbLine
 10
565.0000000000002
 20
255.0
 30
0.0
 11
607.4999999999987
 21
255.0
 31
0.0
  0
LINE
  5
332
330
1F
100
AcDbEntity
  8
1
  6
Continuous
 62
     7
100
AcDbLine
 10
565.0000000000002
 20
246.049865047219
 30
0.0
 11
607.4999999999987
 21
246.049865047219
 31
0.0
  0
LINE
  5
333
330
1F
100
AcDbEntity
  8
1
  6
Continuous
 62
     7
100
AcDbLine
 10
609.4999999999999
 20
246.049865047219
 30
0.0
 11
652.0000000000017
 21
246.049865047219
 31
0.0
  0
LINE
  5
334
330
1F
100
AcDbEntity
  8
1
  6
Continuous
 62
     7
100
AcDbLine
 10
609.4999999999998
 20
255.0
 30
0.0
 11
652.0000000000016
 21
255.0
 31
0.0
  0
LINE
  5
335
330
1F
100
AcDbEntity
  8
1
  6
Continuous
 62
     7
100
AcDbLine
 10
520.5
 20
241.0498650472195
 30
0.0
 11
563.0000000000005
 21
241.0498650472195
 31
0.0
  0
LINE
  5
336
330
1F
100
AcDbEntity
  8
1
  6
Continuous
 62
     7
100
AcDbLine
 10
565.0000000000001
 20
241.0498650472195
 30
0.0
 11
607.5000000000006
 21
241.0498650472195
 31
0.0
  0
LINE
  5
337
330
1F
100
AcDbEntity
  8
1
  6
Continuous
 62
     7
100
AcDbLine
 10
609.5000000000002
 20
241.0498650472195
 30
0.0
 11
652.0000000000001
 21
241.0498650472195
 31
0.0
  0
LINE
  5
338
330
1F
100
AcDbEntity
  8
1
  6
Continuous
 62
     7
100
AcDbLine
 10
654.0000000000027
 20
255.0
 30
0.0
 11
696.5000000000013
 21
255.0
 31
0.0
  0
LINE
  5
339
330
1F
100
AcDbEntity
  8
1
  6
Continuous
 62
     7
100
AcDbLine
 10
698.5000000000023
 20
255.0
 30
0.0
 11
720.0
 21
255.0
 31
0.0
  0
LINE
  5
33A
330
1F
100
AcDbEntity
  8
1
  6
Continuous
 62
     7
100
AcDbLine
 10
654.0000000000027
 20
246.049865047219
 30
0.0
 11
696.5000000000013
 21
246.049865047219
 31
0.0
  0
LINE
  5
33B
330
1F
100
AcDbEntity
  8
1
  6
Continuous
 62
     7
100
AcDbLine
 10
698.5000000000023
 20
246.049865047219
 30
0.0
 11
720.0
 21
246.049865047219
 31
0.0
  0
LINE
  5
33C
330
1F
100
AcDbEntity
  8
1
  6
Continuous
 62
     7
100
AcDbLine
 10
653.9999999999998
 20
241.0498650472195
 30
0.0
 11
696.5000000000003
 21
241.0498650472195
 31
0.0
  0
LINE
  5
33D
330
1F
100
AcDbEntity
  8
1
  6
Continuous
 62
     7
100
AcDbLine
 10
698.4999999999994
 20
241.0498650472195
 30
0.0
 11
720.0
 21
241.0498650472186
 31
0.0
  0
LINE
  5
33E
330
1F
100
AcDbEntity
  8
1
  6
Continuous
 62
     7
100
AcDbLine
 10
522.3284271247462
 20
211.0
 30
0.0
 11
561.1715728752539
 21
211.0
 31
0.0
  0
ARC
  5
33F
330
1F
100
AcDbEntity
  8
1
  6
Continuous
 62
     7
100
AcDbCircle
 10
564.0
 20
210.0
 30
0.0
 40
3.0
100
AcDbArc
 50
109.4712206344907
 51
160.5287793655087
  0
LINE
  5
340
330
1F
100
AcDbEntity
  8
1
  6
Continuous
 62
     7
100
AcDbLine
 10
522.3284271247462
 20
209.0
 30
0.0
 11
561.1715728752538
 21
209.0
 31
0.0
  0
ARC
  5
341
330
1F
100
AcDbEntity
  8
1
  6
Continuous
 62
     7
100
AcDbCircle
 10
564.0
 20
210.0
 30
0.0
 40
3.0
100
AcDbArc
 50
199.4712206344902
 51
250.5287793655089
  0
LINE
  5
342
330
1F
100
AcDbEntity
  8
1
  6
Continuous
 62
     7
100
AcDbLine
 10
566.8284271247462
 20
209.0
 30
0.0
 11
605.6715728752538
 21
209.0
 31
0.0
  0
ARC
  5
343
330
1F
100
AcDbEntity
  8
1
  6
Continuous
 62
     7
100
AcDbCircle
 10
608.5
 20
210.0
 30
0.0
 40
3.0
100
AcDbArc
 50
199.4712206344902
 51
250.5287793655089
  0
LINE
  5
344
330
1F
100
AcDbEntity
  8
1
  6
Continuous
 62
     7
100
AcDbLine
 10
566.8284271247462
 20
211.0
 30
0.0
 11
605.6715728752538
 21
211.0
 31
0.0
  0
ARC
  5
345
330
1F
100
AcDbEntity
  8
1
  6
Continuous
 62
     7
100
AcDbCircle
 10
608.5
 20
210.0
 30
0.0
 40
3.0
100
AcDbArc
 50
109.4712206344907
 51
160.5287793655095
  0
LINE
  5
346
330
1F
100
AcDbEntity
  8
1
  6
Continuous
 62
     7
100
AcDbLine
 10
611.3284271247462
 20
211.0
 30
0.0
 11
650.1715728752538
 21
211.0
 31
0.0
  0
ARC
  5
347
330
1F
100
AcDbEntity
  8
1
  6
Continuous
 62
     7
100
AcDbCircle
 10
653.0
 20
210.0
 30
0.0
 40
3.0
100
AcDbArc
 50
109.4712206344907
 51
160.5287793655095
  0
LINE
  5
348
330
1F
100
AcDbEntity
  8
1
  6
Continuous
 62
     7
100
AcDbLine
 10
611.3284271247462
 20
209.0
 30
0.0
 11
650.1715728752538
 21
209.0
 31
0.0
  0
ARC
  5
349
330
1F
100
AcDbEntity
  8
1
  6
Continuous
 62
     7
100
AcDbCircle
 10
653.0
 20
210.0
 30
0.0
 40
3.0
100
AcDbArc
 50
199.4712206344902
 51
250.5287793655089
  0
LINE
  5
34A
330
1F
100
AcDbEntity
  8
1
  6
Continuous
 62
     7
100
AcDbLine
 10
655.8284271247462
 20
211.0
 30
0.0
 11
694.6715728752538
 21
211.0
 31
0.0
  0
ARC
  5
34B
330
1F
100
AcDbEntity
  8
1
  6
Continuous
 62
     7
100
AcDbCircle
 10
697.5
 20
210.0
 30
0.0
 40
3.0
100
AcDbArc
 50
109.4712206344907
 51
160.5287793655095
  0
LINE
  5
34C
330
1F
100
AcDbEntity
  8
1
  6
Continuous
 62
     7
100
AcDbLine
 10
655.8284271247462
 20
209.0
 30
0.0
 11
694.6715728752538
 21
209.0
 31
0.0
  0
ARC
  5
34D
330
1F
100
AcDbEntity
  8
1
  6
Continuous
 62
     7
100
AcDbCircle
 10
697.5
 20
210.0
 30
0.0
 40
3.0
100
AcDbArc
 50
199.4712206344902
 51
250.5287793655089
  0
LINE
  5
34E
330
1F
100
AcDbEntity
  8
1
  6
Continuous
 62
     7
100
AcDbLine
 10
700.3284271247462
 20
211.0
 30
0.0
 11
720.0
 21
211.0
 31
0.0
  0
LINE
  5
34F
330
1F
100
AcDbEntity
  8
1
  6
Continuous
 62
     7
100
AcDbLine
 10
700.3284271247462
 20
209.0
 30
0.0
 11
720.0
 21
209.0
 31
0.0
  0
CIRCLE
  5
350
330
1F
100
AcDbEntity
  8
1
  6
Continuous
 62
     7
100
AcDbCircle
 10
475.0
 20
260.0
 30
0.0
 40
6.5
  0
LINE
  5
351
330
1F
100
AcDbEntity
  8
1
  6
Continuous
 62
     7
100
AcDbLine
 10
465.0
 20
254.3210916541997
 30
0.0
 11
465.0
 21
246.049865047219
 31
0.0
  0
ARC
  5
352
330
1F
100
AcDbEntity
  8
1
  6
Continuous
 62
     7
100
AcDbCircle
 10
475.0
 20
260.0
 30
0.0
 40
11.5
100
AcDbArc
 50
205.7714617405504
 51
209.5918457939505
  0
ARC
  5
353
330
1F
100
AcDbEntity
  8
1
  6
Continuous
 62
     7
100
AcDbCircle
 10
475.0
 20
259.9999999999999
 30
0.0
 40
17.50000000000023
100
AcDbArc
 50
45.0
 51
135.0
  0
LINE
  5
354
330
1F
100
AcDbEntity
  8
1
  6
Continuous
 62
     7
100
AcDbLine
 10
436.3011267846888
 20
246.0498650472195
 30
0.0
 11
435.0
 21
246.0498650472195
 31
0.0
  0
LINE
  5
355
330
1F
100
AcDbEntity
  8
1
  6
Continuous
 62
     7
100
AcDbLine
 10
436.3011267846888
 20
246.0498650472195
 30
0.0
 11
462.6256313292353
 21
272.3743686707646
 31
0.0
  0
LINE
  5
356
330
1F
100
AcDbEntity
  8
1
  6
Continuous
 62
     7
100
AcDbLine
 10
441.9579833999437
 20
246.049865047219
 30
0.0
 11
465.0
 21
246.049865047219
 31
0.0
  0
LINE
  5
357
330
1F
100
AcDbEntity
  8
1
  6
Continuous
 62
     7
100
AcDbLine
 10
450.9081186658582
 20
255.0
 30
0.0
 11
441.9579833999437
 21
246.049865047219
 31
0.0
  0
LINE
  5
358
330
1F
100
AcDbEntity
  8
1
  6
Continuous
 62
     7
100
AcDbLine
 10
450.9081186658582
 20
255.0
 30
0.0
 11
464.643842411396
 21
255.0
 31
0.0
  0
LINE
  5
359
330
1F
100
AcDbEntity
  8
1
  6
Continuous
 62
     7
100
AcDbLine
 10
487.3743686707647
 20
272.3743686707646
 30
0.0
 11
499.7487375344675
 21
260.0
 31
0.0
  0
LINE
  5
35A
330
1F
100
AcDbEntity
  8
1
  6
Continuous
 62
     7
100
AcDbLine
 10
499.7487375344675
 20
260.0
 30
0.0
 11
720.0
 21
260.0
 31
0.0
  0
LINE
  5
35B
330
1F
100
AcDbEntity
  8
1
  6
Continuous
 62
     7
100
AcDbLine
 10
420.0
 20
153.9501349527804
 30
0.0
 11
420.0
 21
192.5
 31
0.0
  0
ARC
  5
35C
330
1F
100
AcDbEntity
  8
1
  6
Continuous
 62
     7
100
AcDbCircle
 10
435.0
 20
153.9501349527804
 30
0.0
 40
15.0
100
AcDbArc
 50
179.9999999999998
 51
269.9999999999998
  0
ARC
  5
35D
330
1F
100
AcDbEntity
  8
1
  6
Continuous
 62
     7
100
AcDbCircle
 10
435.0
 20
153.9501349527804
 30
0.0
 40
10.0
100
AcDbArc
 50
179.9999999999998
 51
269.9999999999998
  0
LINE
  5
35E
330
1F
100
AcDbEntity
  8
1
  6
Continuous
 62
     7
100
AcDbLine
 10
468.0
 20
138.9501349527809
 30
0.0
 11
474.0
 21
138.9501349527809
 31
0.0
  0
LINE
  5
35F
330
1F
100
AcDbEntity
  8
1
  6
Continuous
 62
     7
100
AcDbLine
 10
476.0
 20
138.9501349527809
 30
0.0
 11
482.0
 21
138.9501349527809
 31
0.0
  0
LINE
  5
360
330
1F
100
AcDbEntity
  8
1
  6
Continuous
 62
     7
100
AcDbLine
 10
476.0
 20
136.4564392373896
 30
0.0
 11
476.0
 21
138.9501349527809
 31
0.0
  0
LINE
  5
361
330
1F
100
AcDbEntity
  8
1
  6
Continuous
 62
     7
100
AcDbLine
 10
482.0
 20
138.9501349527809
 30
0.0
 11
482.0
 21
134.1241437954473
 31
0.0
  0
ARC
  5
362
330
1F
100
AcDbEntity
  8
1
  6
Continuous
 62
     7
100
AcDbCircle
 10
475.0
 20
125.0
 30
0.0
 40
11.5
100
AcDbArc
 50
52.5047502354414
 51
85.01145802444394
  0
LINE
  5
363
330
1F
100
AcDbEntity
  8
1
  6
Continuous
 62
     7
100
AcDbLine
 10
474.0
 20
136.4564392373896
 30
0.0
 11
474.0
 21
138.9501349527809
 31
0.0
  0
LINE
  5
364
330
1F
100
AcDbEntity
  8
1
  6
Continuous
 62
     7
100
AcDbLine
 10
468.0
 20
138.9501349527809
 30
0.0
 11
468.0
 21
134.1241437954473
 31
0.0
  0
ARC
  5
365
330
1F
100
AcDbEntity
  8
1
  6
Continuous
 62
     7
100
AcDbCircle
 10
475.0
 20
125.0
 30
0.0
 40
11.5
100
AcDbArc
 50
94.98854197555607
 51
127.4952497645586
  0
LINE
  5
366
330
1F
100
AcDbEntity
  8
1
  6
Continuous
 62
     7
100
AcDbLine
 10
485.0
 20
130.6789083458002
 30
0.0
 11
485.0
 21
138.9501349527809
 31
0.0
  0
ARC
  5
367
330
1F
100
AcDbEntity
  8
1
  6
Continuous
 62
     7
100
AcDbCircle
 10
475.0
 20
125.0
 30
0.0
 40
11.5
100
AcDbArc
 50
25.77146174055066
 51
29.5918457939507
  0
LINE
  5
368
330
1F
100
AcDbEntity
  8
1
  6
Continuous
 62
     7
100
AcDbLine
 10
435.0
 20
143.9501349527804
 30
0.0
 11
474.0
 21
143.9501349527804
 31
0.0
  0
LINE
  5
369
330
1F
100
AcDbEntity
  8
1
  6
Continuous
 62
     7
100
AcDbLine
 10
425.0
 20
192.5
 30
0.0
 11
425.0
 21
175.9999999999997
 31
0.0
  0
LINE
  5
36A
330
1F
100
AcDbEntity
  8
1
  6
Continuous
 62
     7
100
AcDbLine
 10
425.0
 20
173.9999999999998
 30
0.0
 11
425.0
 21
153.9501349527804
 31
0.0
  0
LINE
  5
36B
330
1F
100
AcDbEntity
  8
1
  6
Continuous
 62
     7
100
AcDbLine
 10
474.0
 20
143.9501349527813
 30
0.0
 11
474.0
 21
172.1715728752538
 31
0.0
  0
LINE
  5
36C
330
1F
100
AcDbEntity
  8
1
  6
Continuous
 62
     7
100
AcDbLine
 10
424.9999999999999
 20
173.9999999999999
 30
0.0
 11
472.1715728752538
 21
173.9999999999999
 31
0.0
  0
ARC
  5
36D
330
1F
100
AcDbEntity
  8
1
  6
Continuous
 62
     7
100
AcDbCircle
 10
475.0
 20
174.9999999999999
 30
0.0
 40
3.0
100
AcDbArc
 50
199.4712206344902
 51
250.5287793655089
  0
LINE
  5
36E
330
1F
100
AcDbEntity
  8
1
  6
Continuous
 62
     7
100
AcDbLine
 10
424.9999999999999
 20
175.9999999999999
 30
0.0
 11
472.1715728752538
 21
175.9999999999999
 31
0.0
  0
LINE
  5
36F
330
1F
100
AcDbEntity
  8
1
  6
Continuous
 62
     7
100
AcDbLine
 10
474.0
 20
177.8284271247461
 30
0.0
 11
474.0
 21
192.4999999999999
 31
0.0
  0
ARC
  5
370
330
1F
100
AcDbEntity
  8
1
  6
Continuous
 62
     7
100
AcDbCircle
 10
475.0
 20
174.9999999999999
 30
0.0
 40
3.0
100
AcDbArc
 50
109.4712206344907
 51
160.5287793655095
  0
LINE
  5
371
330
1F
100
AcDbEntity
  8
1
  6
Continuous
 62
     7
100
AcDbLine
 10
476.0
 20
177.8284271247461
 30
0.0
 11
476.0
 21
192.4999999999999
 31
0.0
  0
ARC
  5
372
330
1F
100
AcDbEntity
  8
1
  6
Continuous
 62
     7
100
AcDbCircle
 10
475.0
 20
174.9999999999999
 30
0.0
 40
3.0
100
AcDbArc
 50
19.47122063449055
 51
70.52877936550927
  0
LINE
  5
373
330
1F
100
AcDbEntity
  8
1
  6
Continuous
 62
     7
100
AcDbLine
 10
476.0
 20
172.1715728752538
 30
0.0
 11
476.0
 21
143.9501349527813
 31
0.0
  0
ARC
  5
374
330
1F
100
AcDbEntity
  8
1
  6
Continuous
 62
     7
100
AcDbCircle
 10
475.0
 20
174.9999999999999
 30
0.0
 40
3.0
100
AcDbArc
 50
289.4712206344904
 51
340.5287793655091
  0
LINE
  5
375
330
1F
100
AcDbEntity
  8
1
  6
Continuous
 62
     7
100
AcDbLine
 10
518.5
 20
143.9501349527813
 30
0.0
 11
518.5
 21
172.1715728752538
 31
0.0
  0
LINE
  5
376
330
1F
100
AcDbEntity
  8
1
  6
Continuous
 62
     7
100
AcDbLine
 10
518.5
 20
177.8284271247461
 30
0.0
 11
518.5
 21
192.4999999999999
 31
0.0
  0
LINE
  5
377
330
1F
100
AcDbEntity
  8
1
  6
Continuous
 62
     7
100
AcDbLine
 10
520.5
 20
177.8284271247461
 30
0.0
 11
520.5
 21
192.4999999999999
 31
0.0
  0
ARC
  5
378
330
1F
100
AcDbEntity
  8
1
  6
Continuous
 62
     7
100
AcDbCircle
 10
519.5
 20
174.9999999999999
 30
0.0
 40
3.0
100
AcDbArc
 50
19.47122063449055
 51
70.52877936550927
  0
LINE
  5
379
330
1F
100
AcDbEntity
  8
1
  6
Continuous
 62
     7
100
AcDbLine
 10
520.5
 20
172.1715728752538
 30
0.0
 11
520.5
 21
143.9501349527813
 31
0.0
  0
ARC
  5
37A
330
1F
100
AcDbEntity
  8
1
  6
Continuous
 62
     7
100
AcDbCircle
 10
519.5
 20
174.9999999999999
 30
0.0
 40
3.0
100
AcDbArc
 50
289.4712206344904
 51
340.5287793655091
  0
LINE
  5
37B
330
1F
100
AcDbEntity
  8
1
  6
Continuous
 62
     7
100
AcDbLine
 10
518.4999999999999
 20
138.950134952781
 30
0.0
 11
518.4999999999999
 21
130.0
 31
0.0
  0
LINE
  5
37C
330
1F
100
AcDbEntity
  8
1
  6
Continuous
 62
     7
100
AcDbLine
 10
520.5000000000001
 20
138.950134952781
 30
0.0
 11
520.5000000000001
 21
130.0
 31
0.0
  0
LINE
  5
37D
330
1F
100
AcDbEntity
  8
1
  6
Continuous
 62
     7
100
AcDbLine
 10
563.0
 20
143.9501349527813
 30
0.0
 11
563.0
 21
172.1715728752538
 31
0.0
  0
LINE
  5
37E
330
1F
100
AcDbEntity
  8
1
  6
Continuous
 62
     7
100
AcDbLine
 10
563.0
 20
177.8284271247461
 30
0.0
 11
563.0
 21
192.4999999999999
 31
0.0
  0
LINE
  5
37F
330
1F
100
AcDbEntity
  8
1
  6
Continuous
 62
     7
100
AcDbLine
 10
565.0
 20
177.8284271247461
 30
0.0
 11
565.0
 21
192.4999999999999
 31
0.0
  0
ARC
  5
380
330
1F
100
AcDbEntity
  8
1
  6
Continuous
 62
     7
100
AcDbCircle
 10
564.0
 20
174.9999999999999
 30
0.0
 40
3.0
100
AcDbArc
 50
19.47122063449055
 51
70.52877936550927
  0
LINE
  5
381
330
1F
100
AcDbEntity
  8
1
  6
Continuous
 62
     7
100
AcDbLine
 10
565.0
 20
172.1715728752538
 30
0.0
 11
565.0
 21
143.9501349527813
 31
0.0
  0
ARC
  5
382
330
1F
100
AcDbEntity
  8
1
  6
Continuous
 62
     7
100
AcDbCircle
 10
564.0
 20
174.9999999999999
 30
0.0
 40
3.0
100
AcDbArc
 50
289.4712206344904
 51
340.5287793655091
  0
LINE
  5
383
330
1F
100
AcDbEntity
  8
1
  6
Continuous
 62
     7
100
AcDbLine
 10
563.0
 20
138.950134952781
 30
0.0
 11
563.0
 21
130.0
 31
0.0
  0
LINE
  5
384
330
1F
100
AcDbEntity
  8
1
  6
Continuous
 62
     7
100
AcDbLine
 10
565.0000000000002
 20
138.950134952781
 30
0.0
 11
565.0000000000002
 21
130.0
 31
0.0
  0
LINE
  5
385
330
1F
100
AcDbEntity
  8
1
  6
Continuous
 62
     7
100
AcDbLine
 10
607.5
 20
143.9501349527813
 30
0.0
 11
607.5
 21
172.1715728752538
 31
0.0
  0
LINE
  5
386
330
1F
100
AcDbEntity
  8
1
  6
Continuous
 62
     7
100
AcDbLine
 10
607.5
 20
177.8284271247461
 30
0.0
 11
607.5
 21
192.4999999999999
 31
0.0
  0
LINE
  5
387
330
1F
100
AcDbEntity
  8
1
  6
Continuous
 62
     7
100
AcDbLine
 10
609.5
 20
177.8284271247461
 30
0.0
 11
609.5
 21
192.4999999999999
 31
0.0
  0
ARC
  5
388
330
1F
100
AcDbEntity
  8
1
  6
Continuous
 62
     7
100
AcDbCircle
 10
608.5
 20
174.9999999999999
 30
0.0
 40
3.0
100
AcDbArc
 50
19.47122063449055
 51
70.52877936550927
  0
LINE
  5
389
330
1F
100
AcDbEntity
  8
1
  6
Continuous
 62
     7
100
AcDbLine
 10
609.5
 20
172.1715728752538
 30
0.0
 11
609.5
 21
143.9501349527813
 31
0.0
  0
ARC
  5
38A
330
1F
100
AcDbEntity
  8
1
  6
Continuous
 62
     7
100
AcDbCircle
 10
608.5
 20
174.9999999999999
 30
0.0
 40
3.0
100
AcDbArc
 50
289.4712206344904
 51
340.5287793655091
  0
LINE
  5
38B
330
1F
100
AcDbEntity
  8
1
  6
Continuous
 62
     7
100
AcDbLine
 10
607.5
 20
138.950134952781
 30
0.0
 11
607.5
 21
130.0
 31
0.0
  0
LINE
  5
38C
330
1F
100
AcDbEntity
  8
1
  6
Continuous
 62
     7
100
AcDbLine
 10
609.5000000000002
 20
138.950134952781
 30
0.0
 11
609.5000000000002
 21
130.0
 31
0.0
  0
LINE
  5
38D
330
1F
100
AcDbEntity
  8
1
  6
Continuous
 62
     7
100
AcDbLine
 10
652.0
 20
143.9501349527813
 30
0.0
 11
652.0
 21
172.1715728752538
 31
0.0
  0
LINE
  5
38E
330
1F
100
AcDbEntity
  8
1
  6
Continuous
 62
     7
100
AcDbLine
 10
652.0
 20
177.8284271247461
 30
0.0
 11
652.0
 21
192.4999999999999
 31
0.0
  0
LINE
  5
38F
330
1F
100
AcDbEntity
  8
1
  6
Continuous
 62
     7
100
AcDbLine
 10
654.0
 20
177.8284271247461
 30
0.0
 11
654.0
 21
192.4999999999999
 31
0.0
  0
ARC
  5
390
330
1F
100
AcDbEntity
  8
1
  6
Continuous
 62
     7
100
AcDbCircle
 10
653.0
 20
174.9999999999999
 30
0.0
 40
3.0
100
AcDbArc
 50
19.47122063449055
 51
70.52877936550927
  0
LINE
  5
391
330
1F
100
AcDbEntity
  8
1
  6
Continuous
 62
     7
100
AcDbLine
 10
654.0
 20
172.1715728752538
 30
0.0
 11
654.0
 21
143.9501349527813
 31
0.0
  0
ARC
  5
392
330
1F
100
AcDbEntity
  8
1
  6
Continuous
 62
     7
100
AcDbCircle
 10
653.0
 20
174.9999999999999
 30
0.0
 40
3.0
100
AcDbArc
 50
289.4712206344904
 51
340.5287793655091
  0
LINE
  5
393
330
1F
100
AcDbEntity
  8
1
  6
Continuous
 62
     7
100
AcDbLine
 10
652.0
 20
138.950134952781
 30
0.0
 11
652.0
 21
130.0
 31
0.0
  0
LINE
  5
394
330
1F
100
AcDbEntity
  8
1
  6
Continuous
 62
     7
100
AcDbLine
 10
654.0000000000002
 20
138.950134952781
 30
0.0
 11
654.0000000000002
 21
130.0
 31
0.0
  0
LINE
  5
395
330
1F
100
AcDbEntity
  8
1
  6
Continuous
 62
     7
100
AcDbLine
 10
696.5
 20
143.9501349527813
 30
0.0
 11
696.5
 21
172.1715728752538
 31
0.0
  0
LINE
  5
396
330
1F
100
AcDbEntity
  8
1
  6
Continuous
 62
     7
100
AcDbLine
 10
696.5
 20
177.8284271247461
 30
0.0
 11
696.5
 21
192.4999999999999
 31
0.0
  0
LINE
  5
397
330
1F
100
AcDbEntity
  8
1
  6
Continuous
 62
     7
100
AcDbLine
 10
698.5
 20
177.8284271247461
 30
0.0
 11
698.5
 21
192.4999999999999
 31
0.0
  0
ARC
  5
398
330
1F
100
AcDbEntity
  8
1
  6
Continuous
 62
     7
100
AcDbCircle
 10
697.5
 20
174.9999999999999
 30
0.0
 40
3.0
100
AcDbArc
 50
19.47122063449055
 51
70.52877936550927
  0
LINE
  5
399
330
1F
100
AcDbEntity
  8
1
  6
Continuous
 62
     7
100
AcDbLine
 10
698.5
 20
172.1715728752538
 30
0.0
 11
698.5
 21
143.9501349527813
 31
0.0
  0
ARC
  5
39A
330
1F
100
AcDbEntity
  8
1
  6
Continuous
 62
     7
100
AcDbCircle
 10
697.5
 20
174.9999999999999
 30
0.0
 40
3.0
100
AcDbArc
 50
289.4712206344904
 51
340.5287793655091
  0
LINE
  5
39B
330
1F
100
AcDbEntity
  8
1
  6
Continuous
 62
     7
100
AcDbLine
 10
696.5
 20
138.950134952781
 30
0.0
 11
696.5
 21
130.0
 31
0.0
  0
LINE
  5
39C
330
1F
100
AcDbEntity
  8
1
  6
Continuous
 62
     7
100
AcDbLine
 10
698.5000000000002
 20
138.950134952781
 30
0.0
 11
698.5000000000002
 21
130.0
 31
0.0
  0
LINE
  5
39D
330
1F
100
AcDbEntity
  8
1
  6
Continuous
 62
     7
100
AcDbLine
 10
485.356157588604
 20
130.0
 30
0.0
 11
518.4999999999998
 21
130.0
 31
0.0
  0
LINE
  5
39E
330
1F
100
AcDbEntity
  8
1
  6
Continuous
 62
     7
100
AcDbLine
 10
485.0
 20
138.9501349527809
 30
0.0
 11
518.4999999999998
 21
138.9501349527809
 31
0.0
  0
LINE
  5
39F
330
1F
100
AcDbEntity
  8
1
  6
Continuous
 62
     7
100
AcDbLine
 10
475.9999999999999
 20
143.9501349527804
 30
0.0
 11
518.4999999999998
 21
143.9501349527804
 31
0.0
  0
LINE
  5
3A0
330
1F
100
AcDbEntity
  8
1
  6
Continuous
 62
     7
100
AcDbLine
 10
477.8284271247462
 20
173.9999999999999
 30
0.0
 11
516.6715728752538
 21
173.9999999999999
 31
0.0
  0
ARC
  5
3A1
330
1F
100
AcDbEntity
  8
1
  6
Continuous
 62
     7
100
AcDbCircle
 10
519.5
 20
174.9999999999999
 30
0.0
 40
3.0
100
AcDbArc
 50
199.4712206344902
 51
250.5287793655089
  0
LINE
  5
3A2
330
1F
100
AcDbEntity
  8
1
  6
Continuous
 62
     7
100
AcDbLine
 10
477.8284271247462
 20
175.9999999999999
 30
0.0
 11
516.6715728752538
 21
175.9999999999999
 31
0.0
  0
ARC
  5
3A3
330
1F
100
AcDbEntity
  8
1
  6
Continuous
 62
     7
100
AcDbCircle
 10
519.5
 20
174.9999999999999
 30
0.0
 40
3.0
100
AcDbArc
 50
109.4712206344907
 51
160.5287793655095
  0
LINE
  5
3A4
330
1F
100
AcDbEntity
  8
1
  6
Continuous
 62
     7
100
AcDbLine
 10
520.5000000000008
 20
130.0
 30
0.0
 11
563.0000000000009
 21
130.0
 31
0.0
  0
LINE
  5
3A5
330
1F
100
AcDbEntity
  8
1
  6
Continuous
 62
     7
100
AcDbLine
 10
520.5000000000008
 20
138.9501349527809
 30
0.0
 11
563.0000000000009
 21
138.9501349527809
 31
0.0
  0
LINE
  5
3A6
330
1F
100
AcDbEntity
  8
1
  6
Continuous
 62
     7
100
AcDbLine
 10
565.0000000000002
 20
130.0
 30
0.0
 11
607.4999999999987
 21
130.0
 31
0.0
  0
LINE
  5
3A7
330
1F
100
AcDbEntity
  8
1
  6
Continuous
 62
     7
100
AcDbLine
 10
565.0000000000002
 20
138.9501349527809
 30
0.0
 11
607.4999999999987
 21
138.9501349527809
 31
0.0
  0
LINE
  5
3A8
330
1F
100
AcDbEntity
  8
1
  6
Continuous
 62
     7
100
AcDbLine
 10
609.4999999999999
 20
138.9501349527809
 30
0.0
 11
652.0000000000017
 21
138.9501349527809
 31
0.0
  0
LINE
  5
3A9
330
1F
100
AcDbEntity
  8
1
  6
Continuous
 62
     7
100
AcDbLine
 10
609.4999999999998
 20
130.0
 30
0.0
 11
652.0000000000016
 21
130.0
 31
0.0
  0
LINE
  5
3AA
330
1F
100
AcDbEntity
  8
1
  6
Continuous
 62
     7
100
AcDbLine
 10
520.5
 20
143.9501349527804
 30
0.0
 11
563.0000000000005
 21
143.9501349527804
 31
0.0
  0
LINE
  5
3AB
330
1F
100
AcDbEntity
  8
1
  6
Continuous
 62
     7
100
AcDbLine
 10
565.0000000000001
 20
143.9501349527804
 30
0.0
 11
607.5000000000006
 21
143.9501349527804
 31
0.0
  0
LINE
  5
3AC
330
1F
100
AcDbEntity
  8
1
  6
Continuous
 62
     7
100
AcDbLine
 10
609.5000000000002
 20
143.9501349527804
 30
0.0
 11
652.0000000000001
 21
143.9501349527804
 31
0.0
  0
LINE
  5
3AD
330
1F
100
AcDbEntity
  8
1
  6
Continuous
 62
     7
100
AcDbLine
 10
654.0000000000027
 20
130.0
 30
0.0
 11
696.5000000000013
 21
130.0
 31
0.0
  0
LINE
  5
3AE
330
1F
100
AcDbEntity
  8
1
  6
Continuous
 62
     7
100
AcDbLine
 10
698.5000000000023
 20
130.0
 30
0.0
 11
720.0
 21
130.0
 31
0.0
  0
LINE
  5
3AF
330
1F
100
AcDbEntity
  8
1
  6
Continuous
 62
     7
100
AcDbLine
 10
654.0000000000027
 20
138.9501349527809
 30
0.0
 11
696.5000000000013
 21
138.9501349527809
 31
0.0
  0
LINE
  5
3B0
330
1F
100
AcDbEntity
  8
1
  6
Continuous
 62
     7
100
AcDbLine
 10
698.5000000000023
 20
138.9501349527809
 30
0.0
 11
720.0
 21
138.950134952781
 31
0.0
  0
LINE
  5
3B1
330
1F
100
AcDbEntity
  8
1
  6
Continuous
 62
     7
100
AcDbLine
 10
653.9999999999998
 20
143.9501349527804
 30
0.0
 11
696.5000000000003
 21
143.9501349527804
 31
0.0
  0
LINE
  5
3B2
330
1F
100
AcDbEntity
  8
1
  6
Continuous
 62
     7
100
AcDbLine
 10
698.4999999999994
 20
143.9501349527804
 30
0.0
 11
720.0
 21
143.9501349527813
 31
0.0
  0
LINE
  5
3B3
330
1F
100
AcDbEntity
  8
1
  6
Continuous
 62
     7
100
AcDbLine
 10
522.3284271247462
 20
173.9999999999999
 30
0.0
 11
561.1715728752539
 21
173.9999999999999
 31
0.0
  0
ARC
  5
3B4
330
1F
100
AcDbEntity
  8
1
  6
Continuous
 62
     7
100
AcDbCircle
 10
564.0
 20
174.9999999999999
 30
0.0
 40
3.0
100
AcDbArc
 50
199.4712206344909
 51
250.5287793655089
  0
LINE
  5
3B5
330
1F
100
AcDbEntity
  8
1
  6
Continuous
 62
     7
100
AcDbLine
 10
522.3284271247462
 20
175.9999999999999
 30
0.0
 11
561.1715728752538
 21
175.9999999999999
 31
0.0
  0
ARC
  5
3B6
330
1F
100
AcDbEntity
  8
1
  6
Continuous
 62
     7
100
AcDbCircle
 10
564.0
 20
174.9999999999999
 30
0.0
 40
3.0
100
AcDbArc
 50
109.4712206344907
 51
160.5287793655095
  0
LINE
  5
3B7
330
1F
100
AcDbEntity
  8
1
  6
Continuous
 62
     7
100
AcDbLine
 10
566.8284271247462
 20
175.9999999999999
 30
0.0
 11
605.6715728752538
 21
175.9999999999999
 31
0.0
  0
ARC
  5
3B8
330
1F
100
AcDbEntity
  8
1
  6
Continuous
 62
     7
100
AcDbCircle
 10
608.5
 20
174.9999999999999
 30
0.0
 40
3.0
100
AcDbArc
 50
109.4712206344907
 51
160.5287793655095
  0
LINE
  5
3B9
330
1F
100
AcDbEntity
  8
1
  6
Continuous
 62
     7
100
AcDbLine
 10
566.8284271247462
 20
173.9999999999999
 30
0.0
 11
605.6715728752538
 21
173.9999999999999
 31
0.0
  0
ARC
  5
3BA
330
1F
100
AcDbEntity
  8
1
  6
Continuous
 62
     7
100
AcDbCircle
 10
608.5
 20
174.9999999999999
 30
0.0
 40
3.0
100
AcDbArc
 50
199.4712206344902
 51
250.5287793655089
  0
LINE
  5
3BB
330
1F
100
AcDbEntity
  8
1
  6
Continuous
 62
     7
100
AcDbLine
 10
611.3284271247462
 20
173.9999999999999
 30
0.0
 11
650.1715728752538
 21
173.9999999999999
 31
0.0
  0
ARC
  5
3BC
330
1F
100
AcDbEntity
  8
1
  6
Continuous
 62
     7
100
AcDbCircle
 10
653.0
 20
174.9999999999999
 30
0.0
 40
3.0
100
AcDbArc
 50
199.4712206344902
 51
250.5287793655089
  0
LINE
  5
3BD
330
1F
100
AcDbEntity
  8
1
  6
Continuous
 62
     7
100
AcDbLine
 10
611.3284271247462
 20
175.9999999999999
 30
0.0
 11
650.1715728752538
 21
175.9999999999999
 31
0.0
  0
ARC
  5
3BE
330
1F
100
AcDbEntity
  8
1
  6
Continuous
 62
     7
100
AcDbCircle
 10
653.0
 20
174.9999999999999
 30
0.0
 40
3.0
100
AcDbArc
 50
109.4712206344907
 51
160.5287793655095
  0
LINE
  5
3BF
330
1F
100
AcDbEntity
  8
1
  6
Continuous
 62
     7
100
AcDbLine
 10
655.8284271247462
 20
173.9999999999999
 30
0.0
 11
694.6715728752538
 21
173.9999999999999
 31
0.0
  0
ARC
  5
3C0
330
1F
100
AcDbEntity
  8
1
  6
Continuous
 62
     7
100
AcDbCircle
 10
697.5
 20
174.9999999999999
 30
0.0
 40
3.0
100
AcDbArc
 50
199.4712206344902
 51
250.5287793655089
  0
LINE
  5
3C1
330
1F
100
AcDbEntity
  8
1
  6
Continuous
 62
     7
100
AcDbLine
 10
655.8284271247462
 20
175.9999999999999
 30
0.0
 11
694.6715728752538
 21
175.9999999999999
 31
0.0
  0
ARC
  5
3C2
330
1F
100
AcDbEntity
  8
1
  6
Continuous
 62
     7
100
AcDbCircle
 10
697.5
 20
174.9999999999999
 30
0.0
 40
3.0
100
AcDbArc
 50
109.4712206344907
 51
160.5287793655095
  0
LINE
  5
3C3
330
1F
100
AcDbEntity
  8
1
  6
Continuous
 62
     7
100
AcDbLine
 10
700.3284271247462
 20
173.9999999999999
 30
0.0
 11
720.0
 21
173.9999999999999
 31
0.0
  0
LINE
  5
3C4
330
1F
100
AcDbEntity
  8
1
  6
Continuous
 62
     7
100
AcDbLine
 10
700.3284271247462
 20
175.9999999999999
 30
0.0
 11
720.0
 21
175.9999999999999
 31
0.0
  0
CIRCLE
  5
3C5
330
1F
100
AcDbEntity
  8
1
  6
Continuous
 62
     7
100
AcDbCircle
 10
475.0
 20
125.0
 30
0.0
 40
6.5
  0
LINE
  5
3C6
330
1F
100
AcDbEntity
  8
1
  6
Continuous
 62
     7
100
AcDbLine
 10
465.0
 20
130.6789083458002
 30
0.0
 11
465.0
 21
138.9501349527809
 31
0.0
  0
ARC
  5
3C7
330
1F
100
AcDbEntity
  8
1
  6
Continuous
 62
     7
100
AcDbCircle
 10
475.0
 20
125.0
 30
0.0
 40
11.5
100
AcDbArc
 50
150.4081542060493
 51
154.2285382594494
  0
ARC
  5
3C8
330
1F
100
AcDbEntity
  8
1
  6
Continuous
 62
     7
100
AcDbCircle
 10
475.0
 20
125.0000000000001
 30
0.0
 40
17.50000000000023
100
AcDbArc
 50
224.9999999999996
 51
314.9999999999997
  0
LINE
  5
3C9
330
1F
100
AcDbEntity
  8
1
  6
Continuous
 62
     7
100
AcDbLine
 10
436.3011267846888
 20
138.9501349527804
 30
0.0
 11
435.0
 21
138.9501349527804
 31
0.0
  0
LINE
  5
3CA
330
1F
100
AcDbEntity
  8
1
  6
Continuous
 62
     7
100
AcDbLine
 10
436.3011267846888
 20
138.9501349527804
 30
0.0
 11
462.6256313292353
 21
112.6256313292353
 31
0.0
  0
LINE
  5
3CB
330
1F
100
AcDbEntity
  8
1
  6
Continuous
 62
     7
100
AcDbLine
 10
441.9579833999437
 20
138.9501349527809
 30
0.0
 11
465.0
 21
138.9501349527809
 31
0.0
  0
LINE
  5
3CC
330
1F
100
AcDbEntity
  8
1
  6
Continuous
 62
     7
100
AcDbLine
 10
450.9081186658582
 20
130.0
 30
0.0
 11
441.9579833999437
 21
138.9501349527809
 31
0.0
  0
LINE
  5
3CD
330
1F
100
AcDbEntity
  8
1
  6
Continuous
 62
     7
100
AcDbLine
 10
450.9081186658582
 20
130.0
 30
0.0
 11
464.643842411396
 21
130.0
 31
0.0
  0
LINE
  5
3CE
330
1F
100
AcDbEntity
  8
1
  6
Continuous
 62
     7
100
AcDbLine
 10
487.3743686707647
 20
112.6256313292353
 30
0.0
 11
499.7487375344675
 21
125.0
 31
0.0
  0
LINE
  5
3CF
330
1F
100
AcDbEntity
  8
1
  6
Continuous
 62
     7
100
AcDbLine
 10
499.7487375344675
 20
125.0
 30
0.0
 11
720.0
 21
125.0
 31
0.0
  0
LINE
  5
3D0
330
1F
100
AcDbEntity
  8
1
  6
Continuous
 62
     7
100
AcDbLine
 10
1020.0
 20
231.0498650472196
 30
0.0
 11
1020.0
 21
192.5
 31
0.0
  0
ARC
  5
3D1
330
1F
100
AcDbEntity
  8
1
  6
Continuous
 62
     7
100
AcDbCircle
 10
1005.0
 20
231.0498650472196
 30
0.0
 40
15.0
100
AcDbArc
 50
0.0
 51
89.99999999999991
  0
ARC
  5
3D2
330
1F
100
AcDbEntity
  8
1
  6
Continuous
 62
     7
100
AcDbCircle
 10
1005.0
 20
231.0498650472196
 30
0.0
 40
10.0
100
AcDbArc
 50
0.0
 51
89.99999999999991
  0
LINE
  5
3D3
330
1F
100
AcDbEntity
  8
1
  6
Continuous
 62
     7
100
AcDbLine
 10
972.0
 20
246.049865047219
 30
0.0
 11
966.0
 21
246.049865047219
 31
0.0
  0
LINE
  5
3D4
330
1F
100
AcDbEntity
  8
1
  6
Continuous
 62
     7
100
AcDbLine
 10
964.0
 20
246.049865047219
 30
0.0
 11
958.0
 21
246.049865047219
 31
0.0
  0
LINE
  5
3D5
330
1F
100
AcDbEntity
  8
1
  6
Continuous
 62
     7
100
AcDbLine
 10
964.0
 20
248.5435607626104
 30
0.0
 11
964.0
 21
246.049865047219
 31
0.0
  0
LINE
  5
3D6
330
1F
100
AcDbEntity
  8
1
  6
Continuous
 62
     7
100
AcDbLine
 10
958.0
 20
246.049865047219
 30
0.0
 11
958.0
 21
250.8758562045526
 31
0.0
  0
ARC
  5
3D7
330
1F
100
AcDbEntity
  8
1
  6
Continuous
 62
     7
100
AcDbCircle
 10
965.0
 20
260.0
 30
0.0
 40
11.5
100
AcDbArc
 50
232.5047502354411
 51
265.0114580244436
  0
LINE
  5
3D8
330
1F
100
AcDbEntity
  8
1
  6
Continuous
 62
     7
100
AcDbLine
 10
966.0
 20
248.5435607626104
 30
0.0
 11
966.0
 21
246.049865047219
 31
0.0
  0
LINE
  5
3D9
330
1F
100
AcDbEntity
  8
1
  6
Continuous
 62
     7
100
AcDbLine
 10
972.0
 20
246.049865047219
 30
0.0
 11
972.0
 21
250.8758562045526
 31
0.0
  0
ARC
  5
3DA
330
1F
100
AcDbEntity
  8
1
  6
Continuous
 62
     7
100
AcDbCircle
 10
965.0
 20
260.0
 30
0.0
 40
11.5
100
AcDbArc
 50
274.9885419755557
 51
307.4952497645581
  0
LINE
  5
3DB
330
1F
100
AcDbEntity
  8
1
  6
Continuous
 62
     7
100
AcDbLine
 10
955.0
 20
254.3210916541997
 30
0.0
 11
955.0
 21
246.049865047219
 31
0.0
  0
ARC
  5
3DC
330
1F
100
AcDbEntity
  8
1
  6
Continuous
 62
     7
100
AcDbCircle
 10
965.0
 20
260.0
 30
0.0
 40
11.5
100
AcDbArc
 50
205.7714617405503
 51
209.5918457939506
  0
LINE
  5
3DD
330
1F
100
AcDbEntity
  8
1
  6
Continuous
 62
     7
100
AcDbLine
 10
1005.0
 20
241.0498650472196
 30
0.0
 11
966.0
 21
241.0498650472196
 31
0.0
  0
LINE
  5
3DE
330
1F
100
AcDbEntity
  8
1
  6
Continuous
 62
     7
100
AcDbLine
 10
1015.0
 20
192.5
 30
0.0
 11
1015.0
 21
209.0000000000002
 31
0.0
  0
LINE
  5
3DF
330
1F
100
AcDbEntity
  8
1
  6
Continuous
 62
     7
100
AcDbLine
 10
1015.0
 20
211.0000000000002
 30
0.0
 11
1015.0
 21
231.0498650472196
 31
0.0
  0
LINE
  5
3E0
330
1F
100
AcDbEntity
  8
1
  6
Continuous
 62
     7
100
AcDbLine
 10
966.0
 20
241.0498650472186
 30
0.0
 11
966.0
 21
212.8284271247462
 31
0.0
  0
LINE
  5
3E1
330
1F
100
AcDbEntity
  8
1
  6
Continuous
 62
     7
100
AcDbLine
 10
1015.0
 20
211.0
 30
0.0
 11
967.8284271247462
 21
211.0
 31
0.0
  0
ARC
  5
3E2
330
1F
100
AcDbEntity
  8
1
  6
Continuous
 62
     7
100
AcDbCircle
 10
965.0
 20
210.0
 30
0.0
 40
3.0
100
AcDbArc
 50
19.47122063449055
 51
70.52877936550945
  0
LINE
  5
3E3
330
1F
100
AcDbEntity
  8
1
  6
Continuous
 62
     7
100
AcDbLine
 10
1015.0
 20
209.0
 30
0.0
 11
967.8284271247462
 21
209.0
 31
0.0
  0
LINE
  5
3E4
330
1F
100
AcDbEntity
  8
1
  6
Continuous
 62
     7
100
AcDbLine
 10
966.0
 20
207.1715728752538
 30
0.0
 11
966.0
 21
192.5
 31
0.0
  0
ARC
  5
3E5
330
1F
100
AcDbEntity
  8
1
  6
Continuous
 62
     7
100
AcDbCircle
 10
965.0
 20
210.0
 30
0.0
 40
3.0
100
AcDbArc
 50
289.4712206344902
 51
340.5287793655091
  0
LINE
  5
3E6
330
1F
100
AcDbEntity
  8
1
  6
Continuous
 62
     7
100
AcDbLine
 10
964.0
 20
207.1715728752538
 30
0.0
 11
964.0
 21
192.5
 31
0.0
  0
ARC
  5
3E7
330
1F
100
AcDbEntity
  8
1
  6
Continuous
 62
     7
100
AcDbCircle
 10
965.0
 20
210.0
 30
0.0
 40
3.0
100
AcDbArc
 50
199.4712206344902
 51
250.5287793655091
  0
LINE
  5
3E8
330
1F
100
AcDbEntity
  8
1
  6
Continuous
 62
     7
100
AcDbLine
 10
964.0
 20
212.8284271247462
 30
0.0
 11
964.0
 21
241.0498650472186
 31
0.0
  0
ARC
  5
3E9
330
1F
100
AcDbEntity
  8
1
  6
Continuous
 62
     7
100
AcDbCircle
 10
965.0
 20
210.0
 30
0.0
 40
3.0
100
AcDbArc
 50
109.4712206344905
 51
160.5287793655095
  0
LINE
  5
3EA
330
1F
100
AcDbEntity
  8
1
  6
Continuous
 62
     7
100
AcDbLine
 10
921.5
 20
241.0498650472186
 30
0.0
 11
921.5
 21
212.8284271247462
 31
0.0
  0
LINE
  5
3EB
330
1F
100
AcDbEntity
  8
1
  6
Continuous
 62
     7
100
AcDbLine
 10
921.5
 20
207.1715728752538
 30
0.0
 11
921.5
 21
192.5
 31
0.0
  0
LINE
  5
3EC
330
1F
100
AcDbEntity
  8
1
  6
Continuous
 62
     7
100
AcDbLine
 10
919.5
 20
207.1715728752538
 30
0.0
 11
919.5
 21
192.5
 31
0.0
  0
ARC
  5
3ED
330
1F
100
AcDbEntity
  8
1
  6
Continuous
 62
     7
100
AcDbCircle
 10
920.5
 20
210.0
 30
0.0
 40
3.0
100
AcDbArc
 50
199.4712206344902
 51
250.5287793655091
  0
LINE
  5
3EE
330
1F
100
AcDbEntity
  8
1
  6
Continuous
 62
     7
100
AcDbLine
 10
919.5
 20
212.8284271247462
 30
0.0
 11
919.5
 21
241.0498650472186
 31
0.0
  0
ARC
  5
3EF
330
1F
100
AcDbEntity
  8
1
  6
Continuous
 62
     7
100
AcDbCircle
 10
920.5
 20
210.0
 30
0.0
 40
3.0
100
AcDbArc
 50
109.4712206344905
 51
160.5287793655095
  0
LINE
  5
3F0
330
1F
100
AcDbEntity
  8
1
  6
Continuous
 62
     7
100
AcDbLine
 10
921.5000000000001
 20
246.049865047219
 30
0.0
 11
921.5000000000001
 21
254.9999999999999
 31
0.0
  0
LINE
  5
3F1
330
1F
100
AcDbEntity
  8
1
  6
Continuous
 62
     7
100
AcDbLine
 10
919.4999999999999
 20
246.049865047219
 30
0.0
 11
919.4999999999999
 21
254.9999999999999
 31
0.0
  0
LINE
  5
3F2
330
1F
100
AcDbEntity
  8
1
  6
Continuous
 62
     7
100
AcDbLine
 10
877.0
 20
241.0498650472186
 30
0.0
 11
877.0
 21
212.8284271247462
 31
0.0
  0
LINE
  5
3F3
330
1F
100
AcDbEntity
  8
1
  6
Continuous
 62
     7
100
AcDbLine
 10
877.0
 20
207.1715728752538
 30
0.0
 11
877.0
 21
192.5
 31
0.0
  0
LINE
  5
3F4
330
1F
100
AcDbEntity
  8
1
  6
Continuous
 62
     7
100
AcDbLine
 10
875.0
 20
207.1715728752538
 30
0.0
 11
875.0
 21
192.5
 31
0.0
  0
ARC
  5
3F5
330
1F
100
AcDbEntity
  8
1
  6
Continuous
 62
     7
100
AcDbCircle
 10
876.0
 20
210.0
 30
0.0
 40
3.0
100
AcDbArc
 50
199.4712206344902
 51
250.5287793655091
  0
LINE
  5
3F6
330
1F
100
AcDbEntity
  8
1
  6
Continuous
 62
     7
100
AcDbLine
 10
875.0
 20
212.8284271247462
 30
0.0
 11
875.0
 21
241.0498650472186
 31
0.0
  0
ARC
  5
3F7
330
1F
100
AcDbEntity
  8
1
  6
Continuous
 62
     7
100
AcDbCircle
 10
876.0
 20
210.0
 30
0.0
 40
3.0
100
AcDbArc
 50
109.4712206344905
 51
160.5287793655095
  0
LINE
  5
3F8
330
1F
100
AcDbEntity
  8
1
  6
Continuous
 62
     7
100
AcDbLine
 10
877.0
 20
246.049865047219
 30
0.0
 11
877.0
 21
254.9999999999999
 31
0.0
  0
LINE
  5
3F9
330
1F
100
AcDbEntity
  8
1
  6
Continuous
 62
     7
100
AcDbLine
 10
874.9999999999998
 20
246.049865047219
 30
0.0
 11
874.9999999999998
 21
254.9999999999999
 31
0.0
  0
LINE
  5
3FA
330
1F
100
AcDbEntity
  8
1
  6
Continuous
 62
     7
100
AcDbLine
 10
832.5
 20
241.0498650472186
 30
0.0
 11
832.5
 21
212.8284271247462
 31
0.0
  0
LINE
  5
3FB
330
1F
100
AcDbEntity
  8
1
  6
Continuous
 62
     7
100
AcDbLine
 10
832.5
 20
207.1715728752538
 30
0.0
 11
832.5
 21
192.5
 31
0.0
  0
LINE
  5
3FC
330
1F
100
AcDbEntity
  8
1
  6
Continuous
 62
     7
100
AcDbLine
 10
830.5
 20
207.1715728752538
 30
0.0
 11
830.5
 21
192.5
 31
0.0
  0
ARC
  5
3FD
330
1F
100
AcDbEntity
  8
1
  6
Continuous
 62
     7
100
AcDbCircle
 10
831.5
 20
210.0
 30
0.0
 40
3.0
100
AcDbArc
 50
199.4712206344902
 51
250.5287793655091
  0
LINE
  5
3FE
330
1F
100
AcDbEntity
  8
1
  6
Continuous
 62
     7
100
AcDbLine
 10
830.5
 20
212.8284271247462
 30
0.0
 11
830.5
 21
241.0498650472186
 31
0.0
  0
ARC
  5
3FF
330
1F
100
AcDbEntity
  8
1
  6
Continuous
 62
     7
100
AcDbCircle
 10
831.5
 20
210.0
 30
0.0
 40
3.0
100
AcDbArc
 50
109.4712206344905
 51
160.5287793655095
  0
LINE
  5
400
330
1F
100
AcDbEntity
  8
1
  6
Continuous
 62
     7
100
AcDbLine
 10
832.5
 20
246.049865047219
 30
0.0
 11
832.5
 21
254.9999999999999
 31
0.0
  0
LINE
  5
401
330
1F
100
AcDbEntity
  8
1
  6
Continuous
 62
     7
100
AcDbLine
 10
830.4999999999998
 20
246.049865047219
 30
0.0
 11
830.4999999999998
 21
254.9999999999999
 31
0.0
  0
LINE
  5
402
330
1F
100
AcDbEntity
  8
1
  6
Continuous
 62
     7
100
AcDbLine
 10
788.0
 20
241.0498650472186
 30
0.0
 11
788.0
 21
212.8284271247462
 31
0.0
  0
LINE
  5
403
330
1F
100
AcDbEntity
  8
1
  6
Continuous
 62
     7
100
AcDbLine
 10
788.0
 20
207.1715728752538
 30
0.0
 11
788.0
 21
192.5
 31
0.0
  0
LINE
  5
404
330
1F
100
AcDbEntity
  8
1
  6
Continuous
 62
     7
100
AcDbLine
 10
786.0
 20
207.1715728752538
 30
0.0
 11
786.0
 21
192.5
 31
0.0
  0
ARC
  5
405
330
1F
100
AcDbEntity
  8
1
  6
Continuous
 62
     7
100
AcDbCircle
 10
787.0
 20
210.0
 30
0.0
 40
3.0
100
AcDbArc
 50
199.4712206344902
 51
250.5287793655091
  0
LINE
  5
406
330
1F
100
AcDbEntity
  8
1
  6
Continuous
 62
     7
100
AcDbLine
 10
786.0
 20
212.8284271247462
 30
0.0
 11
786.0
 21
241.0498650472186
 31
0.0
  0
ARC
  5
407
330
1F
100
AcDbEntity
  8
1
  6
Continuous
 62
     7
100
AcDbCircle
 10
787.0
 20
210.0
 30
0.0
 40
3.0
100
AcDbArc
 50
109.4712206344905
 51
160.5287793655095
  0
LINE
  5
408
330
1F
100
AcDbEntity
  8
1
  6
Continuous
 62
     7
100
AcDbLine
 10
788.0
 20
246.049865047219
 30
0.0
 11
788.0
 21
254.9999999999999
 31
0.0
  0
LINE
  5
409
330
1F
100
AcDbEntity
  8
1
  6
Continuous
 62
     7
100
AcDbLine
 10
785.9999999999998
 20
246.049865047219
 30
0.0
 11
785.9999999999998
 21
254.9999999999999
 31
0.0
  0
LINE
  5
40A
330
1F
100
AcDbEntity
  8
1
  6
Continuous
 62
     7
100
AcDbLine
 10
743.5
 20
241.0498650472186
 30
0.0
 11
743.5
 21
212.8284271247462
 31
0.0
  0
LINE
  5
40B
330
1F
100
AcDbEntity
  8
1
  6
Continuous
 62
     7
100
AcDbLine
 10
743.5
 20
207.1715728752538
 30
0.0
 11
743.5
 21
192.5
 31
0.0
  0
LINE
  5
40C
330
1F
100
AcDbEntity
  8
1
  6
Continuous
 62
     7
100
AcDbLine
 10
741.5
 20
207.1715728752538
 30
0.0
 11
741.5
 21
192.5
 31
0.0
  0
ARC
  5
40D
330
1F
100
AcDbEntity
  8
1
  6
Continuous
 62
     7
100
AcDbCircle
 10
742.5
 20
210.0
 30
0.0
 40
3.0
100
AcDbArc
 50
199.4712206344902
 51
250.5287793655091
  0
LINE
  5
40E
330
1F
100
AcDbEntity
  8
1
  6
Continuous
 62
     7
100
AcDbLine
 10
741.5
 20
212.8284271247462
 30
0.0
 11
741.5
 21
241.0498650472186
 31
0.0
  0
ARC
  5
40F
330
1F
100
AcDbEntity
  8
1
  6
Continuous
 62
     7
100
AcDbCircle
 10
742.5
 20
210.0
 30
0.0
 40
3.0
100
AcDbArc
 50
109.4712206344905
 51
160.5287793655095
  0
LINE
  5
410
330
1F
100
AcDbEntity
  8
1
  6
Continuous
 62
     7
100
AcDbLine
 10
743.5
 20
246.049865047219
 30
0.0
 11
743.5
 21
254.9999999999999
 31
0.0
  0
LINE
  5
411
330
1F
100
AcDbEntity
  8
1
  6
Continuous
 62
     7
100
AcDbLine
 10
741.4999999999998
 20
246.049865047219
 30
0.0
 11
741.4999999999998
 21
254.9999999999999
 31
0.0
  0
LINE
  5
412
330
1F
100
AcDbEntity
  8
1
  6
Continuous
 62
     7
100
AcDbLine
 10
954.643842411396
 20
255.0
 30
0.0
 11
921.5000000000002
 21
255.0
 31
0.0
  0
LINE
  5
413
330
1F
100
AcDbEntity
  8
1
  6
Continuous
 62
     7
100
AcDbLine
 10
955.0
 20
246.049865047219
 30
0.0
 11
921.5000000000002
 21
246.049865047219
 31
0.0
  0
LINE
  5
414
330
1F
100
AcDbEntity
  8
1
  6
Continuous
 62
     7
100
AcDbLine
 10
964.0
 20
241.0498650472196
 30
0.0
 11
921.5000000000002
 21
241.0498650472196
 31
0.0
  0
LINE
  5
415
330
1F
100
AcDbEntity
  8
1
  6
Continuous
 62
     7
100
AcDbLine
 10
962.1715728752538
 20
211.0
 30
0.0
 11
923.3284271247462
 21
211.0
 31
0.0
  0
ARC
  5
416
330
1F
100
AcDbEntity
  8
1
  6
Continuous
 62
     7
100
AcDbCircle
 10
920.5
 20
210.0
 30
0.0
 40
3.0
100
AcDbArc
 50
19.47122063449055
 51
70.52877936550945
  0
LINE
  5
417
330
1F
100
AcDbEntity
  8
1
  6
Continuous
 62
     7
100
AcDbLine
 10
962.1715728752538
 20
209.0
 30
0.0
 11
923.3284271247462
 21
209.0
 31
0.0
  0
ARC
  5
418
330
1F
100
AcDbEntity
  8
1
  6
Continuous
 62
     7
100
AcDbCircle
 10
920.5
 20
210.0
 30
0.0
 40
3.0
100
AcDbArc
 50
289.4712206344902
 51
340.5287793655091
  0
LINE
  5
419
330
1F
100
AcDbEntity
  8
1
  6
Continuous
 62
     7
100
AcDbLine
 10
919.4999999999992
 20
255.0
 30
0.0
 11
876.9999999999991
 21
255.0
 31
0.0
  0
LINE
  5
41A
330
1F
100
AcDbEntity
  8
1
  6
Continuous
 62
     7
100
AcDbLine
 10
919.4999999999992
 20
246.049865047219
 30
0.0
 11
876.9999999999991
 21
246.049865047219
 31
0.0
  0
LINE
  5
41B
330
1F
100
AcDbEntity
  8
1
  6
Continuous
 62
     7
100
AcDbLine
 10
874.9999999999998
 20
255.0
 30
0.0
 11
832.5000000000013
 21
255.0
 31
0.0
  0
LINE
  5
41C
330
1F
100
AcDbEntity
  8
1
  6
Continuous
 62
     7
100
AcDbLine
 10
874.9999999999998
 20
246.049865047219
 30
0.0
 11
832.5000000000013
 21
246.049865047219
 31
0.0
  0
LINE
  5
41D
330
1F
100
AcDbEntity
  8
1
  6
Continuous
 62
     7
100
AcDbLine
 10
830.5000000000001
 20
246.049865047219
 30
0.0
 11
787.9999999999983
 21
246.049865047219
 31
0.0
  0
LINE
  5
41E
330
1F
100
AcDbEntity
  8
1
  6
Continuous
 62
     7
100
AcDbLine
 10
830.5000000000002
 20
255.0
 30
0.0
 11
787.9999999999984
 21
255.0
 31
0.0
  0
LINE
  5
41F
330
1F
100
AcDbEntity
  8
1
  6
Continuous
 62
     7
100
AcDbLine
 10
919.5
 20
241.0498650472196
 30
0.0
 11
876.9999999999995
 21
241.0498650472196
 31
0.0
  0
LINE
  5
420
330
1F
100
AcDbEntity
  8
1
  6
Continuous
 62
     7
100
AcDbLine
 10
874.9999999999999
 20
241.0498650472196
 30
0.0
 11
832.4999999999994
 21
241.0498650472196
 31
0.0
  0
LINE
  5
421
330
1F
100
AcDbEntity
  8
1
  6
Continuous
 62
     7
100
AcDbLine
 10
830.4999999999998
 20
241.0498650472196
 30
0.0
 11
787.9999999999999
 21
241.0498650472196
 31
0.0
  0
LINE
  5
422
330
1F
100
AcDbEntity
  8
1
  6
Continuous
 62
     7
100
AcDbLine
 10
785.9999999999973
 20
255.0
 30
0.0
 11
743.4999999999987
 21
255.0
 31
0.0
  0
LINE
  5
423
330
1F
100
AcDbEntity
  8
1
  6
Continuous
 62
     7
100
AcDbLine
 10
741.4999999999977
 20
255.0
 30
0.0
 11
720.0
 21
255.0
 31
0.0
  0
LINE
  5
424
330
1F
100
AcDbEntity
  8
1
  6
Continuous
 62
     7
100
AcDbLine
 10
785.9999999999973
 20
246.049865047219
 30
0.0
 11
743.4999999999987
 21
246.049865047219
 31
0.0
  0
LINE
  5
425
330
1F
100
AcDbEntity
  8
1
  6
Continuous
 62
     7
100
AcDbLine
 10
741.4999999999977
 20
246.049865047219
 30
0.0
 11
720.0
 21
246.049865047219
 31
0.0
  0
LINE
  5
426
330
1F
100
AcDbEntity
  8
1
  6
Continuous
 62
     7
100
AcDbLine
 10
786.0000000000002
 20
241.0498650472196
 30
0.0
 11
743.4999999999997
 21
241.0498650472196
 31
0.0
  0
LINE
  5
427
330
1F
100
AcDbEntity
  8
1
  6
Continuous
 62
     7
100
AcDbLine
 10
741.5000000000006
 20
241.0498650472196
 30
0.0
 11
720.0
 21
241.0498650472186
 31
0.0
  0
LINE
  5
428
330
1F
100
AcDbEntity
  8
1
  6
Continuous
 62
     7
100
AcDbLine
 10
917.6715728752538
 20
211.0
 30
0.0
 11
878.8284271247461
 21
211.0
 31
0.0
  0
ARC
  5
429
330
1F
100
AcDbEntity
  8
1
  6
Continuous
 62
     7
100
AcDbCircle
 10
876.0
 20
210.0
 30
0.0
 40
3.0
100
AcDbArc
 50
19.47122063449127
 51
70.52877936550945
  0
LINE
  5
42A
330
1F
100
AcDbEntity
  8
1
  6
Continuous
 62
     7
100
AcDbLine
 10
917.6715728752538
 20
209.0
 30
0.0
 11
878.8284271247462
 21
209.0
 31
0.0
  0
ARC
  5
42B
330
1F
100
AcDbEntity
  8
1
  6
Continuous
 62
     7
100
AcDbCircle
 10
876.0
 20
210.0
 30
0.0
 40
3.0
100
AcDbArc
 50
289.4712206344902
 51
340.5287793655091
  0
LINE
  5
42C
330
1F
100
AcDbEntity
  8
1
  6
Continuous
 62
     7
100
AcDbLine
 10
873.1715728752538
 20
209.0
 30
0.0
 11
834.3284271247462
 21
209.0
 31
0.0
  0
ARC
  5
42D
330
1F
100
AcDbEntity
  8
1
  6
Continuous
 62
     7
100
AcDbCircle
 10
831.5
 20
210.0
 30
0.0
 40
3.0
100
AcDbArc
 50
289.4712206344902
 51
340.5287793655091
  0
LINE
  5
42E
330
1F
100
AcDbEntity
  8
1
  6
Continuous
 62
     7
100
AcDbLine
 10
873.1715728752538
 20
211.0
 30
0.0
 11
834.3284271247462
 21
211.0
 31
0.0
  0
ARC
  5
42F
330
1F
100
AcDbEntity
  8
1
  6
Continuous
 62
     7
100
AcDbCircle
 10
831.5
 20
210.0
 30
0.0
 40
3.0
100
AcDbArc
 50
19.47122063449055
 51
70.52877936550945
  0
LINE
  5
430
330
1F
100
AcDbEntity
  8
1
  6
Continuous
 62
     7
100
AcDbLine
 10
828.6715728752538
 20
211.0
 30
0.0
 11
789.8284271247462
 21
211.0
 31
0.0
  0
ARC
  5
431
330
1F
100
AcDbEntity
  8
1
  6
Continuous
 62
     7
100
AcDbCircle
 10
787.0
 20
210.0
 30
0.0
 40
3.0
100
AcDbArc
 50
19.47122063449055
 51
70.52877936550945
  0
LINE
  5
432
330
1F
100
AcDbEntity
  8
1
  6
Continuous
 62
     7
100
AcDbLine
 10
828.6715728752538
 20
209.0
 30
0.0
 11
789.8284271247462
 21
209.0
 31
0.0
  0
ARC
  5
433
330
1F
100
AcDbEntity
  8
1
  6
Continuous
 62
     7
100
AcDbCircle
 10
787.0
 20
210.0
 30
0.0
 40
3.0
100
AcDbArc
 50
289.4712206344902
 51
340.5287793655091
  0
LINE
  5
434
330
1F
100
AcDbEntity
  8
1
  6
Continuous
 62
     7
100
AcDbLine
 10
784.1715728752538
 20
211.0
 30
0.0
 11
745.3284271247462
 21
211.0
 31
0.0
  0
ARC
  5
435
330
1F
100
AcDbEntity
  8
1
  6
Continuous
 62
     7
100
AcDbCircle
 10
742.5
 20
210.0
 30
0.0
 40
3.0
100
AcDbArc
 50
19.47122063449055
 51
70.52877936550945
  0
LINE
  5
436
330
1F
100
AcDbEntity
  8
1
  6
Continuous
 62
     7
100
AcDbLine
 10
784.1715728752538
 20
209.0
 30
0.0
 11
745.3284271247462
 21
209.0
 31
0.0
  0
ARC
  5
437
330
1F
100
AcDbEntity
  8
1
  6
Continuous
 62
     7
100
AcDbCircle
 10
742.5
 20
210.0
 30
0.0
 40
3.0
100
AcDbArc
 50
289.4712206344902
 51
340.5287793655091
  0
LINE
  5
438
330
1F
100
AcDbEntity
  8
1
  6
Continuous
 62
     7
100
AcDbLine
 10
739.6715728752538
 20
211.0
 30
0.0
 11
720.0
 21
211.0
 31
0.0
  0
LINE
  5
439
330
1F
100
AcDbEntity
  8
1
  6
Continuous
 62
     7
100
AcDbLine
 10
739.6715728752538
 20
209.0
 30
0.0
 11
720.0
 21
209.0
 31
0.0
  0
CIRCLE
  5
43A
330
1F
100
AcDbEntity
  8
1
  6
Continuous
 62
     7
100
AcDbCircle
 10
965.0
 20
260.0
 30
0.0
 40
6.5
  0
LINE
  5
43B
330
1F
100
AcDbEntity
  8
1
  6
Continuous
 62
     7
100
AcDbLine
 10
975.0
 20
254.3210916541997
 30
0.0
 11
975.0
 21
246.049865047219
 31
0.0
  0
ARC
  5
43C
330
1F
100
AcDbEntity
  8
1
  6
Continuous
 62
     7
100
AcDbCircle
 10
965.0
 20
260.0
 30
0.0
 40
11.5
100
AcDbArc
 50
330.4081542060487
 51
334.228538259449
  0
ARC
  5
43D
330
1F
100
AcDbEntity
  8
1
  6
Continuous
 62
     7
100
AcDbCircle
 10
965.0
 20
259.9999999999999
 30
0.0
 40
17.50000000000023
100
AcDbArc
 50
44.99999999999974
 51
135.0
  0
LINE
  5
43E
330
1F
100
AcDbEntity
  8
1
  6
Continuous
 62
     7
100
AcDbLine
 10
1003.698873215311
 20
246.0498650472196
 30
0.0
 11
1005.0
 21
246.0498650472196
 31
0.0
  0
LINE
  5
43F
330
1F
100
AcDbEntity
  8
1
  6
Continuous
 62
     7
100
AcDbLine
 10
1003.698873215311
 20
246.0498650472196
 30
0.0
 11
977.3743686707649
 21
272.3743686707646
 31
0.0
  0
LINE
  5
440
330
1F
100
AcDbEntity
  8
1
  6
Continuous
 62
     7
100
AcDbLine
 10
998.0420166000563
 20
246.049865047219
 30
0.0
 11
975.0
 21
246.049865047219
 31
0.0
  0
LINE
  5
441
330
1F
100
AcDbEntity
  8
1
  6
Continuous
 62
     7
100
AcDbLine
 10
989.0918813341418
 20
255.0
 30
0.0
 11
998.0420166000563
 21
246.049865047219
 31
0.0
  0
LINE
  5
442
330
1F
100
AcDbEntity
  8
1
  6
Continuous
 62
     7
100
AcDbLine
 10
989.0918813341418
 20
255.0
 30
0.0
 11
975.356157588604
 21
255.0
 31
0.0
  0
LINE
  5
443
330
1F
100
AcDbEntity
  8
1
  6
Continuous
 62
     7
100
AcDbLine
 10
952.6256313292353
 20
272.3743686707646
 30
0.0
 11
940.2512624655325
 21
260.0
 31
0.0
  0
LINE
  5
444
330
1F
100
AcDbEntity
  8
1
  6
Continuous
 62
     7
100
AcDbLine
 10
940.2512624655325
 20
260.0
 30
0.0
 11
720.0
 21
260.0
 31
0.0
  0
LINE
  5
445
330
1F
100
AcDbEntity
  8
1
  6
Continuous
 62
     7
100
AcDbLine
 10
1020.0
 20
153.9501349527804
 30
0.0
 11
1020.0
 21
192.5
 31
0.0
  0
ARC
  5
446
330
1F
100
AcDbEntity
  8
1
  6
Continuous
 62
     7
100
AcDbCircle
 10
1005.0
 20
153.9501349527804
 30
0.0
 40
15.0
100
AcDbArc
 50
269.9999999999998
 51
0.0
  0
ARC
  5
447
330
1F
100
AcDbEntity
  8
1
  6
Continuous
 62
     7
100
AcDbCircle
 10
1005.0
 20
153.9501349527804
 30
0.0
 40
10.0
100
AcDbArc
 50
269.9999999999998
 51
0.0
  0
LINE
  5
448
330
1F
100
AcDbEntity
  8
1
  6
Continuous
 62
     7
100
AcDbLine
 10
972.0
 20
138.9501349527809
 30
0.0
 11
966.0
 21
138.9501349527809
 31
0.0
  0
LINE
  5
449
330
1F
100
AcDbEntity
  8
1
  6
Continuous
 62
     7
100
AcDbLine
 10
964.0
 20
138.9501349527809
 30
0.0
 11
958.0
 21
138.9501349527809
 31
0.0
  0
LINE
  5
44A
330
1F
100
AcDbEntity
  8
1
  6
Continuous
 62
     7
100
AcDbLine
 10
964.0
 20
136.4564392373895
 30
0.0
 11
964.0
 21
138.9501349527809
 31
0.0
  0
LINE
  5
44B
330
1F
100
AcDbEntity
  8
1
  6
Continuous
 62
     7
100
AcDbLine
 10
958.0
 20
138.9501349527809
 30
0.0
 11
958.0
 21
134.1241437954473
 31
0.0
  0
ARC
  5
44C
330
1F
100
AcDbEntity
  8
1
  6
Continuous
 62
     7
100
AcDbCircle
 10
965.0
 20
125.0
 30
0.0
 40
11.5
100
AcDbArc
 50
94.9885419755561
 51
127.4952497645589
  0
LINE
  5
44D
330
1F
100
AcDbEntity
  8
1
  6
Continuous
 62
     7
100
AcDbLine
 10
966.0
 20
136.4564392373895
 30
0.0
 11
966.0
 21
138.9501349527809
 31
0.0
  0
LINE
  5
44E
330
1F
100
AcDbEntity
  8
1
  6
Continuous
 62
     7
100
AcDbLine
 10
972.0
 20
138.9501349527809
 30
0.0
 11
972.0
 21
134.1241437954473
 31
0.0
  0
ARC
  5
44F
330
1F
100
AcDbEntity
  8
1
  6
Continuous
 62
     7
100
AcDbCircle
 10
965.0
 20
125.0
 30
0.0
 40
11.5
100
AcDbArc
 50
52.50475023544115
 51
85.01145802444393
  0
LINE
  5
450
330
1F
100
AcDbEntity
  8
1
  6
Continuous
 62
     7
100
AcDbLine
 10
955.0
 20
130.6789083458002
 30
0.0
 11
955.0
 21
138.9501349527809
 31
0.0
  0
ARC
  5
451
330
1F
100
AcDbEntity
  8
1
  6
Continuous
 62
     7
100
AcDbCircle
 10
965.0
 20
125.0
 30
0.0
 40
11.5
100
AcDbArc
 50
150.4081542060495
 51
154.2285382594494
  0
LINE
  5
452
330
1F
100
AcDbEntity
  8
1
  6
Continuous
 62
     7
100
AcDbLine
 10
1005.0
 20
143.9501349527804
 30
0.0
 11
966.0
 21
143.9501349527804
 31
0.0
  0
LINE
  5
453
330
1F
100
AcDbEntity
  8
1
  6
Continuous
 62
     7
100
AcDbLine
 10
1015.0
 20
192.5
 30
0.0
 11
1015.0
 21
175.9999999999998
 31
0.0
  0
LINE
  5
454
330
1F
100
AcDbEntity
  8
1
  6
Continuous
 62
     7
100
AcDbLine
 10
1015.0
 20
173.9999999999998
 30
0.0
 11
1015.0
 21
153.9501349527804
 31
0.0
  0
LINE
  5
455
330
1F
100
AcDbEntity
  8
1
  6
Continuous
 62
     7
100
AcDbLine
 10
966.0
 20
143.9501349527814
 30
0.0
 11
966.0
 21
172.1715728752538
 31
0.0
  0
LINE
  5
456
330
1F
100
AcDbEntity
  8
1
  6
Continuous
 62
     7
100
AcDbLine
 10
1015.0
 20
173.9999999999999
 30
0.0
 11
967.8284271247462
 21
174.0
 31
0.0
  0
ARC
  5
457
330
1F
100
AcDbEntity
  8
1
  6
Continuous
 62
     7
100
AcDbCircle
 10
965.0
 20
175.0
 30
0.0
 40
3.0
100
AcDbArc
 50
289.4712206344902
 51
340.5287793655091
  0
LINE
  5
458
330
1F
100
AcDbEntity
  8
1
  6
Continuous
 62
     7
100
AcDbLine
 10
1015.0
 20
175.9999999999999
 30
0.0
 11
967.8284271247462
 21
176.0
 31
0.0
  0
LINE
  5
459
330
1F
100
AcDbEntity
  8
1
  6
Continuous
 62
     7
100
AcDbLine
 10
966.0
 20
177.8284271247461
 30
0.0
 11
966.0
 21
192.5
 31
0.0
  0
ARC
  5
45A
330
1F
100
AcDbEntity
  8
1
  6
Continuous
 62
     7
100
AcDbCircle
 10
965.0
 20
175.0
 30
0.0
 40
3.0
100
AcDbArc
 50
19.47122063449055
 51
70.52877936550873
  0
LINE
  5
45B
330
1F
100
AcDbEntity
  8
1
  6
Continuous
 62
     7
100
AcDbLine
 10
964.0
 20
177.8284271247461
 30
0.0
 11
964.0
 21
192.5
 31
0.0
  0
ARC
  5
45C
330
1F
100
AcDbEntity
  8
1
  6
Continuous
 62
     7
100
AcDbCircle
 10
965.0
 20
175.0
 30
0.0
 40
3.0
100
AcDbArc
 50
109.4712206344913
 51
160.5287793655095
  0
LINE
  5
45D
330
1F
100
AcDbEntity
  8
1
  6
Continuous
 62
     7
100
AcDbLine
 10
964.0
 20
172.1715728752538
 30
0.0
 11
964.0
 21
143.9501349527814
 31
0.0
  0
ARC
  5
45E
330
1F
100
AcDbEntity
  8
1
  6
Continuous
 62
     7
100
AcDbCircle
 10
965.0
 20
175.0
 30
0.0
 40
3.0
100
AcDbArc
 50
199.4712206344902
 51
250.5287793655091
  0
LINE
  5
45F
330
1F
100
AcDbEntity
  8
1
  6
Continuous
 62
     7
100
AcDbLine
 10
921.5
 20
143.9501349527814
 30
0.0
 11
921.5
 21
172.1715728752538
 31
0.0
  0
LINE
  5
460
330
1F
100
AcDbEntity
  8
1
  6
Continuous
 62
     7
100
AcDbLine
 10
921.5
 20
177.8284271247461
 30
0.0
 11
921.5
 21
192.5
 31
0.0
  0
LINE
  5
461
330
1F
100
AcDbEntity
  8
1
  6
Continuous
 62
     7
100
AcDbLine
 10
919.5
 20
177.8284271247461
 30
0.0
 11
919.5
 21
192.5
 31
0.0
  0
ARC
  5
462
330
1F
100
AcDbEntity
  8
1
  6
Continuous
 62
     7
100
AcDbCircle
 10
920.5
 20
175.0
 30
0.0
 40
3.0
100
AcDbArc
 50
109.4712206344913
 51
160.5287793655095
  0
LINE
  5
463
330
1F
100
AcDbEntity
  8
1
  6
Continuous
 62
     7
100
AcDbLine
 10
919.5
 20
172.1715728752538
 30
0.0
 11
919.5
 21
143.9501349527814
 31
0.0
  0
ARC
  5
464
330
1F
100
AcDbEntity
  8
1
  6
Continuous
 62
     7
100
AcDbCircle
 10
920.5
 20
175.0
 30
0.0
 40
3.0
100
AcDbArc
 50
199.4712206344902
 51
250.5287793655091
  0
LINE
  5
465
330
1F
100
AcDbEntity
  8
1
  6
Continuous
 62
     7
100
AcDbLine
 10
921.5000000000001
 20
138.9501349527809
 30
0.0
 11
921.5000000000001
 21
130.0
 31
0.0
  0
LINE
  5
466
330
1F
100
AcDbEntity
  8
1
  6
Continuous
 62
     7
100
AcDbLine
 10
919.4999999999999
 20
138.9501349527809
 30
0.0
 11
919.4999999999999
 21
130.0
 31
0.0
  0
LINE
  5
467
330
1F
100
AcDbEntity
  8
1
  6
Continuous
 62
     7
100
AcDbLine
 10
877.0
 20
143.9501349527814
 30
0.0
 11
877.0
 21
172.1715728752538
 31
0.0
  0
LINE
  5
468
330
1F
100
AcDbEntity
  8
1
  6
Continuous
 62
     7
100
AcDbLine
 10
877.0
 20
177.8284271247461
 30
0.0
 11
877.0
 21
192.5
 31
0.0
  0
LINE
  5
469
330
1F
100
AcDbEntity
  8
1
  6
Continuous
 62
     7
100
AcDbLine
 10
875.0
 20
177.8284271247461
 30
0.0
 11
875.0
 21
192.5
 31
0.0
  0
ARC
  5
46A
330
1F
100
AcDbEntity
  8
1
  6
Continuous
 62
     7
100
AcDbCircle
 10
876.0
 20
175.0
 30
0.0
 40
3.0
100
AcDbArc
 50
109.4712206344913
 51
160.5287793655095
  0
LINE
  5
46B
330
1F
100
AcDbEntity
  8
1
  6
Continuous
 62
     7
100
AcDbLine
 10
875.0
 20
172.1715728752538
 30
0.0
 11
875.0
 21
143.9501349527814
 31
0.0
  0
ARC
  5
46C
330
1F
100
AcDbEntity
  8
1
  6
Continuous
 62
     7
100
AcDbCircle
 10
876.0
 20
175.0
 30
0.0
 40
3.0
100
AcDbArc
 50
199.4712206344902
 51
250.5287793655091
  0
LINE
  5
46D
330
1F
100
AcDbEntity
  8
1
  6
Continuous
 62
     7
100
AcDbLine
 10
877.0
 20
138.9501349527809
 30
0.0
 11
877.0
 21
130.0
 31
0.0
  0
LINE
  5
46E
330
1F
100
AcDbEntity
  8
1
  6
Continuous
 62
     7
100
AcDbLine
 10
874.9999999999998
 20
138.9501349527809
 30
0.0
 11
874.9999999999998
 21
130.0
 31
0.0
  0
LINE
  5
46F
330
1F
100
AcDbEntity
  8
1
  6
Continuous
 62
     7
100
AcDbLine
 10
832.5
 20
143.9501349527814
 30
0.0
 11
832.5
 21
172.1715728752538
 31
0.0
  0
LINE
  5
470
330
1F
100
AcDbEntity
  8
1
  6
Continuous
 62
     7
100
AcDbLine
 10
832.5
 20
177.8284271247461
 30
0.0
 11
832.5
 21
192.5
 31
0.0
  0
LINE
  5
471
330
1F
100
AcDbEntity
  8
1
  6
Continuous
 62
     7
100
AcDbLine
 10
830.5
 20
177.8284271247461
 30
0.0
 11
830.5
 21
192.5
 31
0.0
  0
ARC
  5
472
330
1F
100
AcDbEntity
  8
1
  6
Continuous
 62
     7
100
AcDbCircle
 10
831.5
 20
175.0
 30
0.0
 40
3.0
100
AcDbArc
 50
109.4712206344913
 51
160.5287793655095
  0
LINE
  5
473
330
1F
100
AcDbEntity
  8
1
  6
Continuous
 62
     7
100
AcDbLine
 10
830.5
 20
172.1715728752538
 30
0.0
 11
830.5
 21
143.9501349527814
 31
0.0
  0
ARC
  5
474
330
1F
100
AcDbEntity
  8
1
  6
Continuous
 62
     7
100
AcDbCircle
 10
831.5
 20
175.0
 30
0.0
 40
3.0
100
AcDbArc
 50
199.4712206344902
 51
250.5287793655091
  0
LINE
  5
475
330
1F
100
AcDbEntity
  8
1
  6
Continuous
 62
     7
100
AcDbLine
 10
832.5
 20
138.9501349527809
 30
0.0
 11
832.5
 21
130.0
 31
0.0
  0
LINE
  5
476
330
1F
100
AcDbEntity
  8
1
  6
Continuous
 62
     7
100
AcDbLine
 10
830.4999999999998
 20
138.9501349527809
 30
0.0
 11
830.4999999999998
 21
130.0
 31
0.0
  0
LINE
  5
477
330
1F
100
AcDbEntity
  8
1
  6
Continuous
 62
     7
100
AcDbLine
 10
788.0
 20
143.9501349527814
 30
0.0
 11
788.0
 21
172.1715728752538
 31
0.0
  0
LINE
  5
478
330
1F
100
AcDbEntity
  8
1
  6
Continuous
 62
     7
100
AcDbLine
 10
788.0
 20
177.8284271247461
 30
0.0
 11
788.0
 21
192.5
 31
0.0
  0
LINE
  5
479
330
1F
100
AcDbEntity
  8
1
  6
Continuous
 62
     7
100
AcDbLine
 10
786.0
 20
177.8284271247461
 30
0.0
 11
786.0
 21
192.5
 31
0.0
  0
ARC
  5
47A
330
1F
100
AcDbEntity
  8
1
  6
Continuous
 62
     7
100
AcDbCircle
 10
787.0
 20
175.0
 30
0.0
 40
3.0
100
AcDbArc
 50
109.4712206344913
 51
160.5287793655095
  0
LINE
  5
47B
330
1F
100
AcDbEntity
  8
1
  6
Continuous
 62
     7
100
AcDbLine
 10
786.0
 20
172.1715728752538
 30
0.0
 11
786.0
 21
143.9501349527814
 31
0.0
  0
ARC
  5
47C
330
1F
100
AcDbEntity
  8
1
  6
Continuous
 62
     7
100
AcDbCircle
 10
787.0
 20
175.0
 30
0.0
 40
3.0
100
AcDbArc
 50
199.4712206344902
 51
250.5287793655091
  0
LINE
  5
47D
330
1F
100
AcDbEntity
  8
1
  6
Continuous
 62
     7
100
AcDbLine
 10
788.0
 20
138.9501349527809
 30
0.0
 11
788.0
 21
130.0
 31
0.0
  0
LINE
  5
47E
330
1F
100
AcDbEntity
  8
1
  6
Continuous
 62
     7
100
AcDbLine
 10
785.9999999999998
 20
138.9501349527809
 30
0.0
 11
785.9999999999998
 21
130.0
 31
0.0
  0
LINE
  5
47F
330
1F
100
AcDbEntity
  8
1
  6
Continuous
 62
     7
100
AcDbLine
 10
743.5
 20
143.9501349527814
 30
0.0
 11
743.5
 21
172.1715728752538
 31
0.0
  0
LINE
  5
480
330
1F
100
AcDbEntity
  8
1
  6
Continuous
 62
     7
100
AcDbLine
 10
743.5
 20
177.8284271247461
 30
0.0
 11
743.5
 21
192.5
 31
0.0
  0
LINE
  5
481
330
1F
100
AcDbEntity
  8
1
  6
Continuous
 62
     7
100
AcDbLine
 10
741.5
 20
177.8284271247461
 30
0.0
 11
741.5
 21
192.5
 31
0.0
  0
ARC
  5
482
330
1F
100
AcDbEntity
  8
1
  6
Continuous
 62
     7
100
AcDbCircle
 10
742.5
 20
175.0
 30
0.0
 40
3.0
100
AcDbArc
 50
109.4712206344913
 51
160.5287793655095
  0
LINE
  5
483
330
1F
100
AcDbEntity
  8
1
  6
Continuous
 62
     7
100
AcDbLine
 10
741.5
 20
172.1715728752538
 30
0.0
 11
741.5
 21
143.9501349527814
 31
0.0
  0
ARC
  5
484
330
1F
100
AcDbEntity
  8
1
  6
Continuous
 62
     7
100
AcDbCircle
 10
742.5
 20
175.0
 30
0.0
 40
3.0
100
AcDbArc
 50
199.4712206344902
 51
250.5287793655091
  0
LINE
  5
485
330
1F
100
AcDbEntity
  8
1
  6
Continuous
 62
     7
100
AcDbLine
 10
743.5
 20
138.9501349527809
 30
0.0
 11
743.5
 21
130.0
 31
0.0
  0
LINE
  5
486
330
1F
100
AcDbEntity
  8
1
  6
Continuous
 62
     7
100
AcDbLine
 10
741.4999999999998
 20
138.9501349527809
 30
0.0
 11
741.4999999999998
 21
130.0
 31
0.0
  0
LINE
  5
487
330
1F
100
AcDbEntity
  8
1
  6
Continuous
 62
     7
100
AcDbLine
 10
954.643842411396
 20
130.0
 30
0.0
 11
921.5000000000002
 21
130.0
 31
0.0
  0
LINE
  5
488
330
1F
100
AcDbEntity
  8
1
  6
Continuous
 62
     7
100
AcDbLine
 10
955.0
 20
138.9501349527809
 30
0.0
 11
921.5000000000002
 21
138.9501349527809
 31
0.0
  0
LINE
  5
489
330
1F
100
AcDbEntity
  8
1
  6
Continuous
 62
     7
100
AcDbLine
 10
964.0
 20
143.9501349527804
 30
0.0
 11
921.5000000000002
 21
143.9501349527804
 31
0.0
  0
LINE
  5
48A
330
1F
100
AcDbEntity
  8
1
  6
Continuous
 62
     7
100
AcDbLine
 10
962.1715728752538
 20
174.0
 30
0.0
 11
923.3284271247462
 21
174.0
 31
0.0
  0
ARC
  5
48B
330
1F
100
AcDbEntity
  8
1
  6
Continuous
 62
     7
100
AcDbCircle
 10
920.5
 20
175.0
 30
0.0
 40
3.0
100
AcDbArc
 50
289.4712206344902
 51
340.5287793655091
  0
LINE
  5
48C
330
1F
100
AcDbEntity
  8
1
  6
Continuous
 62
     7
100
AcDbLine
 10
962.1715728752538
 20
176.0
 30
0.0
 11
923.3284271247462
 21
176.0
 31
0.0
  0
ARC
  5
48D
330
1F
100
AcDbEntity
  8
1
  6
Continuous
 62
     7
100
AcDbCircle
 10
920.5
 20
175.0
 30
0.0
 40
3.0
100
AcDbArc
 50
19.47122063449055
 51
70.52877936550873
  0
LINE
  5
48E
330
1F
100
AcDbEntity
  8
1
  6
Continuous
 62
     7
100
AcDbLine
 10
919.4999999999992
 20
130.0
 30
0.0
 11
876.9999999999991
 21
130.0
 31
0.0
  0
LINE
  5
48F
330
1F
100
AcDbEntity
  8
1
  6
Continuous
 62
     7
100
AcDbLine
 10
919.4999999999992
 20
138.9501349527809
 30
0.0
 11
876.9999999999991
 21
138.9501349527809
 31
0.0
  0
LINE
  5
490
330
1F
100
AcDbEntity
  8
1
  6
Continuous
 62
     7
100
AcDbLine
 10
874.9999999999998
 20
130.0
 30
0.0
 11
832.5000000000013
 21
130.0
 31
0.0
  0
LINE
  5
491
330
1F
100
AcDbEntity
  8
1
  6
Continuous
 62
     7
100
AcDbLine
 10
874.9999999999998
 20
138.9501349527809
 30
0.0
 11
832.5000000000013
 21
138.9501349527809
 31
0.0
  0
LINE
  5
492
330
1F
100
AcDbEntity
  8
1
  6
Continuous
 62
     7
100
AcDbLine
 10
830.5000000000001
 20
138.9501349527809
 30
0.0
 11
787.9999999999983
 21
138.9501349527809
 31
0.0
  0
LINE
  5
493
330
1F
100
AcDbEntity
  8
1
  6
Continuous
 62
     7
100
AcDbLine
 10
830.5000000000002
 20
130.0
 30
0.0
 11
787.9999999999984
 21
130.0
 31
0.0
  0
LINE
  5
494
330
1F
100
AcDbEntity
  8
1
  6
Continuous
 62
     7
100
AcDbLine
 10
919.5
 20
143.9501349527804
 30
0.0
 11
876.9999999999995
 21
143.9501349527804
 31
0.0
  0
LINE
  5
495
330
1F
100
AcDbEntity
  8
1
  6
Continuous
 62
     7
100
AcDbLine
 10
874.9999999999999
 20
143.9501349527804
 30
0.0
 11
832.4999999999994
 21
143.9501349527804
 31
0.0
  0
LINE
  5
496
330
1F
100
AcDbEntity
  8
1
  6
Continuous
 62
     7
100
AcDbLine
 10
830.4999999999998
 20
143.9501349527804
 30
0.0
 11
787.9999999999999
 21
143.9501349527804
 31
0.0
  0
LINE
  5
497
330
1F
100
AcDbEntity
  8
1
  6
Continuous
 62
     7
100
AcDbLine
 10
785.9999999999973
 20
130.0
 30
0.0
 11
743.4999999999987
 21
130.0
 31
0.0
  0
LINE
  5
498
330
1F
100
AcDbEntity
  8
1
  6
Continuous
 62
     7
100
AcDbLine
 10
741.4999999999977
 20
130.0
 30
0.0
 11
720.0
 21
130.0
 31
0.0
  0
LINE
  5
499
330
1F
100
AcDbEntity
  8
1
  6
Continuous
 62
     7
100
AcDbLine
 10
785.9999999999973
 20
138.9501349527809
 30
0.0
 11
743.4999999999987
 21
138.9501349527809
 31
0.0
  0
LINE
  5
49A
330
1F
100
AcDbEntity
  8
1
  6
Continuous
 62
     7
100
AcDbLine
 10
741.4999999999977
 20
138.9501349527809
 30
0.0
 11
720.0
 21
138.9501349527809
 31
0.0
  0
LINE
  5
49B
330
1F
100
AcDbEntity
  8
1
  6
Continuous
 62
     7
100
AcDbLine
 10
786.0000000000002
 20
143.9501349527804
 30
0.0
 11
743.4999999999997
 21
143.9501349527804
 31
0.0
  0
LINE
  5
49C
330
1F
100
AcDbEntity
  8
1
  6
Continuous
 62
     7
100
AcDbLine
 10
741.5000000000006
 20
143.9501349527804
 30
0.0
 11
720.0
 21
143.9501349527814
 31
0.0
  0
LINE
  5
49D
330
1F
100
AcDbEntity
  8
1
  6
Continuous
 62
     7
100
AcDbLine
 10
917.6715728752538
 20
174.0
 30
0.0
 11
878.8284271247461
 21
174.0
 31
0.0
  0
ARC
  5
49E
330
1F
100
AcDbEntity
  8
1
  6
Continuous
 62
     7
100
AcDbCircle
 10
876.0
 20
175.0
 30
0.0
 40
3.0
100
AcDbArc
 50
289.4712206344902
 51
340.5287793655083
  0
LINE
  5
49F
330
1F
100
AcDbEntity
  8
1
  6
Continuous
 62
     7
100
AcDbLine
 10
917.6715728752538
 20
176.0
 30
0.0
 11
878.8284271247462
 21
176.0
 31
0.0
  0
ARC
  5
4A0
330
1F
100
AcDbEntity
  8
1
  6
Continuous
 62
     7
100
AcDbCircle
 10
876.0
 20
175.0
 30
0.0
 40
3.0
100
AcDbArc
 50
19.47122063449055
 51
70.52877936550873
  0
LINE
  5
4A1
330
1F
100
AcDbEntity
  8
1
  6
Continuous
 62
     7
100
AcDbLine
 10
873.1715728752538
 20
176.0
 30
0.0
 11
834.3284271247462
 21
176.0
 31
0.0
  0
ARC
  5
4A2
330
1F
100
AcDbEntity
  8
1
  6
Continuous
 62
     7
100
AcDbCircle
 10
831.5
 20
175.0
 30
0.0
 40
3.0
100
AcDbArc
 50
19.47122063449055
 51
70.52877936550873
  0
LINE
  5
4A3
330
1F
100
AcDbEntity
  8
1
  6
Continuous
 62
     7
100
AcDbLine
 10
873.1715728752538
 20
174.0
 30
0.0
 11
834.3284271247462
 21
174.0
 31
0.0
  0
ARC
  5
4A4
330
1F
100
AcDbEntity
  8
1
  6
Continuous
 62
     7
100
AcDbCircle
 10
831.5
 20
175.0
 30
0.0
 40
3.0
100
AcDbArc
 50
289.4712206344902
 51
340.5287793655091
  0
LINE
  5
4A5
330
1F
100
AcDbEntity
  8
1
  6
Continuous
 62
     7
100
AcDbLine
 10
828.6715728752538
 20
174.0
 30
0.0
 11
789.8284271247462
 21
174.0
 31
0.0
  0
ARC
  5
4A6
330
1F
100
AcDbEntity
  8
1
  6
Continuous
 62
     7
100
AcDbCircle
 10
787.0
 20
175.0
 30
0.0
 40
3.0
100
AcDbArc
 50
289.4712206344902
 51
340.5287793655091
  0
LINE
  5
4A7
330
1F
100
AcDbEntity
  8
1
  6
Continuous
 62
     7
100
AcDbLine
 10
828.6715728752538
 20
176.0
 30
0.0
 11
789.8284271247462
 21
176.0
 31
0.0
  0
ARC
  5
4A8
330
1F
100
AcDbEntity
  8
1
  6
Continuous
 62
     7
100
AcDbCircle
 10
787.0
 20
175.0
 30
0.0
 40
3.0
100
AcDbArc
 50
19.47122063449055
 51
70.52877936550873
  0
LINE
  5
4A9
330
1F
100
AcDbEntity
  8
1
  6
Continuous
 62
     7
100
AcDbLine
 10
784.1715728752538
 20
174.0
 30
0.0
 11
745.3284271247462
 21
174.0
 31
0.0
  0
ARC
  5
4AA
330
1F
100
AcDbEntity
  8
1
  6
Continuous
 62
     7
100
AcDbCircle
 10
742.5
 20
175.0
 30
0.0
 40
3.0
100
AcDbArc
 50
289.4712206344902
 51
340.5287793655091
  0
LINE
  5
4AB
330
1F
100
AcDbEntity
  8
1
  6
Continuous
 62
     7
100
AcDbLine
 10
784.1715728752538
 20
176.0
 30
0.0
 11
745.3284271247462
 21
176.0
 31
0.0
  0
ARC
  5
4AC
330
1F
100
AcDbEntity
  8
1
  6
Continuous
 62
     7
100
AcDbCircle
 10
742.5
 20
175.0
 30
0.0
 40
3.0
100
AcDbArc
 50
19.47122063449055
 51
70.52877936550873
  0
LINE
  5
4AD
330
1F
100
AcDbEntity
  8
1
  6
Continuous
 62
     7
100
AcDbLine
 10
739.6715728752538
 20
174.0
 30
0.0
 11
720.0
 21
174.0
 31
0.0
  0
LINE
  5
4AE
330
1F
100
AcDbEntity
  8
1
  6
Continuous
 62
     7
100
AcDbLine
 10
739.6715728752538
 20
176.0
 30
0.0
 11
720.0
 21
176.0
 31
0.0
  0
CIRCLE
  5
4AF
330
1F
100
AcDbEntity
  8
1
  6
Continuous
 62
     7
100
AcDbCircle
 10
965.0
 20
125.0
 30
0.0
 40
6.5
  0
LINE
  5
4B0
330
1F
100
AcDbEntity
  8
1
  6
Continuous
 62
     7
100
AcDbLine
 10
975.0
 20
130.6789083458002
 30
0.0
 11
975.0
 21
138.9501349527809
 31
0.0
  0
ARC
  5
4B1
330
1F
100
AcDbEntity
  8
1
  6
Continuous
 62
     7
100
AcDbCircle
 10
965.0
 20
125.0
 30
0.0
 40
11.5
100
AcDbArc
 50
25.77146174055066
 51
29.59184579395046
  0
ARC
  5
4B2
330
1F
100
AcDbEntity
  8
1
  6
Continuous
 62
     7
100
AcDbCircle
 10
965.0
 20
125.0
 30
0.0
 40
17.50000000000023
100
AcDbArc
 50
224.9999999999994
 51
315.0000000000002
  0
LINE
  5
4B3
330
1F
100
AcDbEntity
  8
1
  6
Continuous
 62
     7
100
AcDbLine
 10
1003.698873215311
 20
138.9501349527804
 30
0.0
 11
1005.0
 21
138.9501349527804
 31
0.0
  0
LINE
  5
4B4
330
1F
100
AcDbEntity
  8
1
  6
Continuous
 62
     7
100
AcDbLine
 10
1003.698873215311
 20
138.9501349527804
 30
0.0
 11
977.3743686707649
 21
112.6256313292354
 31
0.0
  0
LINE
  5
4B5
330
1F
100
AcDbEntity
  8
1
  6
Continuous
 62
     7
100
AcDbLine
 10
998.0420166000563
 20
138.9501349527809
 30
0.0
 11
975.0
 21
138.9501349527809
 31
0.0
  0
LINE
  5
4B6
330
1F
100
AcDbEntity
  8
1
  6
Continuous
 62
     7
100
AcDbLine
 10
989.0918813341418
 20
130.0
 30
0.0
 11
998.0420166000563
 21
138.9501349527809
 31
0.0
  0
LINE
  5
4B7
330
1F
100
AcDbEntity
  8
1
  6
Continuous
 62
     7
100
AcDbLine
 10
989.0918813341418
 20
130.0
 30
0.0
 11
975.356157588604
 21
130.0
 31
0.0
  0
LINE
  5
4B8
330
1F
100
AcDbEntity
  8
1
  6
Continuous
 62
     7
100
AcDbLine
 10
952.6256313292353
 20
112.6256313292354
 30
0.0
 11
940.2512624655325
 21
125.0
 31
0.0
  0
LINE
  5
4B9
330
1F
100
AcDbEntity
  8
1
  6
Continuous
 62
     7
100
AcDbLine
 10
940.2512624655325
 20
125.0
 30
0.0
 11
720.0
 21
125.0
 31
0.0
  0
INSERT
  5
4C6
330
1F
100
AcDbEntity
  8
0
100
AcDbBlockReference
  2
*G23
 10
0.0
 20
0.0
 30
0.0
  0
VIEWPORT
  5
2A
330
1B
100
AcDbEntity
 67
     1
  8
0
100
AcDbViewport
 10
594.5
 20
420.5
 30
0.0
 40
1189.0
 41
841.0
 68
     1
 69
     1
 12
594.5
 22
420.5
 13
0.0
 23
0.0
 14
0.5
 24
0.5
 15
0.5
 25
0.5
 16
0.0
 26
0.0
 36
1.0
 17
0.0
 27
0.0
 37
0.0
 42
50.0
 43
0.0
 44
0.0
 45
9.0
 50
0.0
 51
0.0
 72
   100
 90
    32800
  1

281
     0
 71
     1
 74
     0
110
0.0
120
0.0
130
0.0
111
1.0
121
0.0
131
0.0
112
0.0
122
1.0
132
0.0
 79
     0
146
0.0
  0
ENDSEC
  0
SECTION
  2
OBJECTS
  0
DICTIONARY
  5
C
330
0
100
AcDbDictionary
281
     1
  3
ACAD_GROUP
350
D
  3
ACAD_LAYOUT
350
1A
  3
ACAD_MLINESTYLE
350
17
  3
ACAD_PLOTSETTINGS
350
19
  3
ACAD_PLOTSTYLENAME
350
E
  3
AcDbVariableDictionary
350
4C7
  0
DICTIONARY
  5
D
102
{ACAD_REACTORS
330
C
102
}
330
C
100
AcDbDictionary
281
     1
  0
DICTIONARY
  5
1A
102
{ACAD_REACTORS
330
C
102
}
330
C
100
AcDbDictionary
281
     1
  3
Layout1
350
1E
  3
Layout2
350
26
  3
Model
350
22
  0
DICTIONARY
  5
17
102
{ACAD_REACTORS
330
C
102
}
330
C
100
AcDbDictionary
281
     1
  3
Standard
350
18
  0
DICTIONARY
  5
19
102
{ACAD_REACTORS
330
C
102
}
330
C
100
AcDbDictionary
281
     1
  0
ACDBDICTIONARYWDFLT
  5
E
102
{ACAD_REACTORS
330
C
102
}
330
C
100
AcDbDictionary
281
     1
  3
Normal
350
F
100
AcDbDictionaryWithDefault
340
F
  0
DICTIONARY
  5
4C7
102
{ACAD_REACTORS
330
C
102
}
330
C
100
AcDbDictionary
281
     1
  3
DIMASSOC
350
4C8
  0
LAYOUT
  5
1E
102
{ACAD_REACTORS
330
1A
102
}
330
1A
100
AcDbPlotSettings
  1

  2

  4

  6

 40
0.0
 41
0.0
 42
0.0
 43
0.0
 44
0.0
 45
0.0
 46
0.0
 47
0.0
 48
0.0
 49
0.0
140
0.0
141
0.0
142
1.0
143
1.0
 70
   688
 72
     0
 73
     0
 74
     5
  7

 75
    16
147
1.0
148
0.0
149
0.0
100
AcDbLayout
  1
Layout1
 70
     1
 71
     1
 10
0.0
 20
0.0
 11
1189.0
 21
841.0
 12
0.0
 22
0.0
 32
0.0
 14
0.0
 24
0.0
 34
0.0
 15
1189.0
 25
841.0
 35
0.0
146
0.0
 13
0.0
 23
0.0
 33
0.0
 16
1.0
 26
0.0
 36
0.0
 17
0.0
 27
1.0
 37
0.0
 76
     0
330
1B
331
2A
  0
LAYOUT
  5
26
102
{ACAD_REACTORS
330
1A
102
}
330
1A
100
AcDbPlotSettings
  1

  2

  4

  6

 40
0.0
 41
0.0
 42
0.0
 43
0.0
 44
0.0
 45
0.0
 46
0.0
 47
0.0
 48
0.0
 49
0.0
140
0.0
141
0.0
142
1.0
143
1.0
 70
   688
 72
     0
 73
     0
 74
     5
  7

 75
    16
147
1.0
148
0.0
149
0.0
100
AcDbLayout
  1
Layout2
 70
     1
 71
     2
 10
0.0
 20
0.0
 11
0.0
 21
0.0
 12
0.0
 22
0.0
 32
0.0
 14
0.0
 24
0.0
 34
0.0
 15
0.0
 25
0.0
 35
0.0
146
0.0
 13
0.0
 23
0.0
 33
0.0
 16
1.0
 26
0.0
 36
0.0
 17
0.0
 27
1.0
 37
0.0
 76
     0
330
23
  0
LAYOUT
  5
22
102
{ACAD_REACTORS
330
1A
102
}
330
1A
100
AcDbPlotSettings
  1

  2

  4

  6

 40
0.0
 41
0.0
 42
0.0
 43
0.0
 44
0.0
 45
0.0
 46
0.0
 47
0.0
 48
0.0
 49
0.0
140
0.0
141
0.0
142
1.0
143
1.0
 70
  1712
 72
     0
 73
     0
 74
     0
  7

 75
     0
147
1.0
148
0.0
149
0.0
100
AcDbLayout
  1
Model
 70
     1
 71
     0
 10
0.0
 20
0.0
 11
1189.0
 21
841.0
 12
0.0
 22
0.0
 32
0.0
 14
0.0
 24
0.0
 34
0.0
 15
1189.0
 25
841.0
 35
0.0
146
0.0
 13
0.0
 23
0.0
 33
0.0
 16
1.0
 26
0.0
 36
0.0
 17
0.0
 27
1.0
 37
0.0
 76
     0
330
1F
  0
MLINESTYLE
  5
18
102
{ACAD_REACTORS
330
17
102
}
330
17
100
AcDbMlineStyle
  2
Standard
 70
     0
  3

 62
   256
 51
90.0
 52
90.0
 71
     2
 49
0.5
 62
   256
  6
BYLAYER
 49
-0.5
 62
   256
  6
BYLAYER
  0
ACDBPLACEHOLDER
  5
F
102
{ACAD_REACTORS
330
E
102
}
330
E
  0
DICTIONARYVAR
  5
4C8
102
{ACAD_REACTORS
330
4C7
102
}
330
4C7
100
DictionaryVariables
280
     0
  1
1
  0
ENDSEC
  0
EOF
